#TITLE:High Above The Land;
#SUBTITLE:;
#ARTIST:Jake Kaufman;
#TITLETRANSLIT:;
#SUBTITLETRANSLIT:;
#ARTISTTRANSLIT:;
#GENRE:;
#CREDIT:;
#BANNER:;
#BACKGROUND:;
#LYRICSPATH:;
#CDTITLE:;
#MUSIC:High Above The Land.ogg;
#OFFSET:-0.250000;
#SAMPLESTART:13.040001;
#SAMPLELENGTH:12.000000;
#LASTBEATHINT:296.875000;
#SELECTABLE:YES;
#BPMS:0.000000=150.000000
;
#STOPS:
;
#BGCHANGES:;
#KEYSOUNDS:;
#ATTACKS:;

//---------------dance-single - ----------------
#NOTES:
     dance-single:
     :
     Beginner:
     2:
     0.155877,0.179288,0.016659,0.083293,0.000000,131.000000,129.000000,2.000000,10.000000,0.000000,0.000000,0.155877,0.179288,0.016659,0.083293,0.000000,131.000000,129.000000,2.000000,10.000000,0.000000,0.000000:
0000
0000
0000
0000
,
0000
0000
0000
0000
,
0000
0000
0000
0000
,
0000
0000
0000
0000
,
1000
0000
1000
0000
,
0010
0000
0010
0000
,
0100
0000
0100
0000
,
0001
0000
0000
1001
,
0100
0000
0100
0000
,
0010
0000
1000
0000
,
0100
0000
0100
0000
,
0010
0000
0001
0000
,
1000
0000
1000
0000
,
0010
0000
0100
0000
,
0001
0000
0001
0000
,
0100
0000
0010
0000
,
1000
0000
0100
0000
,
0010
0000
0001
0000
,
0100
0000
0001
0000
,
1000
0000
0010
0000
,
1000
0000
0010
0000
,
0100
0000
0001
0000
,
0100
0000
0010
0000
,
2000
0000
3000
0001
,
0010
0000
0001
0000
,
0010
0000
0100
0000
,
1000
0000
0100
0000
,
1000
0000
0001
0000
,
0100
0000
0001
0000
,
1000
0000
0010
0000
,
1000
0000
0100
0000
,
0010
0000
0001
0000
,
1000
0000
0001
0000
,
0010
0000
0100
0000
,
1000
0000
0001
0000
,
0100
0000
0010
0000
,
1000
0000
0001
0000
,
0100
0000
0001
0000
,
0010
0000
0100
0000
,
2000
0000
0000
3000
,
0000
0001
0001
0000
,
0000
1000
1000
0000
,
0000
0100
0100
0000
,
0000
0010
0010
0000
,
0000
0100
0100
0000
,
0000
1000
1000
0000
,
0000
0001
0001
0000
,
0010
0010
0010
0000
,
0000
0001
0001
0000
,
0000
1000
1000
0000
,
0000
0100
0100
0000
,
1000
0000
0001
0000
,
0000
0100
0100
0000
,
0010
0000
1000
0000
,
0001
0000
0010
0000
,
0200
0000
0300
0000
,
2000
0000
0000
3000
,
0002
0000
0000
0003
,
0200
0000
0000
0300
,
0020
0000
0000
0030
,
1000
0000
0001
0000
,
0010
0000
0001
0000
,
1000
0000
0100
0000
,
2002
0000
3003
0000
,
1000
0000
0001
0000
,
0010
0000
0100
0000
,
1000
0000
0001
0000
,
0100
0000
0010
0000
,
1000
0000
0010
0000
,
0100
0000
0001
0000
,
1000
0000
1000
0000
,
2000
0000
0000
3000
;

//---------------dance-single - ----------------
#NOTES:
     dance-single:
     :
     Easy:
     5:
     0.241550,0.299855,0.024988,0.141598,0.000000,203.000000,200.000000,3.000000,17.000000,0.000000,0.000000,0.241550,0.299855,0.024988,0.141598,0.000000,203.000000,200.000000,3.000000,17.000000,0.000000,0.000000:
0000
0000
0000
0000
,
0000
0000
0000
0000
,
0000
0000
0000
0000
,
0000
0000
0000
0000
,
1000
1000
1000
1000
,
0010
0010
0010
0010
,
0100
0100
0100
0100
,
0001
1000
0001
1001
,
0000
0001
0001
0000
,
0100
0010
1000
0000
,
0010
0100
0001
0000
,
1000
0010
0100
0001
,
0000
1000
1000
0000
,
0100
0010
0001
0000
,
1000
0001
0010
0000
,
0100
1000
0020
0230
,
0300
0001
0001
0000
,
0010
0100
1000
0000
,
0001
0100
0001
0000
,
1000
0010
0100
0001
,
0000
1000
1000
0100
,
0010
0100
2000
0000
,
3001
0100
0010
1000
,
0002
0000
0003
1001
,
1000
0000
0100
1000
,
0010
0100
0001
0000
,
1000
0000
0001
0010
,
0200
0000
1300
0000
,
1000
0001
0100
0000
,
0010
1000
0001
0000
,
1000
0100
1000
0010
,
2000
0000
3002
0000
,
1003
0000
0100
1000
,
0010
0100
0001
0000
,
0010
0001
0100
0001
,
2000
0000
3200
0000
,
1300
0010
0100
0000
,
0001
0010
0100
0000
,
0010
0000
0001
1000
,
0200
0000
0000
0300
,
0000
1000
1000
0000
,
0001
0010
0001
0000
,
0100
0100
0100
0000
,
0001
0010
0100
1000
,
0000
0001
0001
0000
,
0010
0100
0010
0000
,
0100
1000
0010
0000
,
0100
0001
0010
0000
,
0000
0001
0001
0100
,
0010
1000
0010
0000
,
1000
1000
0100
0000
,
1000
0010
0100
0001
,
0000
1000
0001
0100
,
0010
1000
0010
0000
,
0100
0001
0010
0100
,
2000
0000
3002
0000
,
2003
0000
0100
0100
,
0100
0000
3010
0000
,
0002
0000
0100
0100
,
0010
0000
1003
0000
,
1000
0010
0100
0000
,
0001
0010
0100
0000
,
1000
0000
0001
0000
,
0200
0000
0300
1001
,
0010
0000
0100
0001
,
0010
0001
1000
0000
,
0010
1000
0100
1000
,
0002
0000
0013
0000
,
0001
0010
0100
0000
,
1000
0010
0100
0000
,
0001
0001
0001
0001
,
2000
0000
0000
0000
,
3000
0000
0000
0000
;

//---------------dance-single - ----------------
#NOTES:
     dance-single:
     :
     Medium:
     8:
     0.367679,0.419797,0.108281,0.374819,0.000000,309.000000,296.000000,13.000000,45.000000,0.000000,0.000000,0.367679,0.419797,0.108281,0.374819,0.000000,309.000000,296.000000,13.000000,45.000000,0.000000,0.000000:
0000
0000
0000
0000
,
0000
0000
0000
0000
,
0000
0000
0000
0000
,
0000
0000
0000
0000
,
1000
0100
0000
1000
0100
0000
0100
0000
,
0010
0001
0000
0010
0001
0000
0001
0000
,
0100
0001
0000
0100
0010
0000
1000
0010
,
0000
0100
0000
0010
0100
0000
1001
0000
,
0000
1000
0010
1000
0010
0000
0100
0010
,
1000
0001
0100
0000
,
0001
1000
0100
0010
,
0001
1000
0010
0100
,
0000
0001
0010
0001
0010
0000
0100
0010
,
0001
1000
0020
0000
,
0130
0001
0020
0000
,
0130
1000
0020
0100
,
0030
0100
0010
0100
0010
0000
1000
0010
,
0100
0001
1000
0000
,
0001
0010
0100
1000
,
0001
0100
0010
1000
,
0000
0100
0010
0100
0010
0000
0001
0010
,
0100
1000
0010
0000
,
1000
0001
0010
0100
,
2000
0000
3002
0100
,
1003
0000
0010
1000
0001
0000
0011
0000
,
0001
0000
1000
0001
0100
0000
0101
0000
,
0100
0000
0010
1000
0010
0000
0100
0001
,
0020
0032
0203
0320
,
1030
0010
1000
1001
,
0001
0100
0001
0010
,
0100
0000
0010
0001
1000
0000
0020
0000
,
0130
0000
0010
1000
0001
1000
0010
0100
,
0001
0000
1000
0001
1000
0000
0100
1000
,
0010
0000
0100
0000
0002
0000
0000
1003
,
0010
0000
0110
0000
0100
0000
0001
1000
,
0020
2030
3200
0320
,
0031
0000
0010
0000
0100
1000
0001
0000
,
1000
0000
0010
0000
0100
0001
1000
0000
,
0002
0000
0023
0000
0230
0000
2300
3000
,
2002
0000
0000
0000
,
0003
3100
0010
0100
0010
0000
0001
0010
,
1000
0001
0100
0000
,
1000
0001
0100
0010
,
1000
0010
0100
0002
,
0000
0103
0010
0100
0010
0000
1000
0010
,
0001
0000
1000
0100
0020
0000
0000
0000
,
1030
0000
0001
0100
0010
0000
0100
0000
,
0001
0000
1000
0100
0010
0000
1001
0000
,
0000
0001
0010
1000
0010
0000
0001
0100
,
0010
1000
0001
0000
,
1000
0010
0100
0001
,
0010
0100
1000
0001
,
0000
1000
0010
0001
0010
0000
1000
0100
,
0010
0000
0001
1000
0010
0000
0100
0000
,
0010
0000
1000
0100
0010
0000
0001
0010
,
0200
2300
3002
0203
,
0320
1000
0230
0001
,
0302
0010
2003
0100
,
3002
1000
0203
0320
,
2030
0100
0002
3003
,
0001
0100
0001
1000
,
0100
0010
0001
0100
,
0002
0000
0000
0013
0200
0000
0000
1300
,
0002
0203
0320
2030
,
3010
0000
1000
0100
1000
0000
0010
0100
,
0001
0010
0001
0000
,
0010
0011
0101
1100
,
2000
0000
0000
0000
3020
0000
0000
0130
,
0001
0000
0010
0000
1000
0000
0000
0001
,
0100
0000
0010
0000
0001
0000
1000
0010
,
1000
1010
1010
1010
,
0200
0000
0000
0000
,
0300
0000
0000
0000
;

//---------------dance-single - ----------------
#NOTES:
     dance-single:
     :
     Hard:
     11:
     0.472391,0.629696,0.149928,0.608039,0.329008,397.000000,379.000000,18.000000,73.000000,0.000000,0.000000,0.472391,0.629696,0.149928,0.608039,0.329008,397.000000,379.000000,18.000000,73.000000,0.000000,0.000000:
// measure 0
0000
0000
0000
0000
,  // measure 1
0000
0000
0000
0000
,  // measure 2
0000
0000
0000
0000
,  // measure 3
0000
0000
0000
0000
,  // measure 4
1000
0010
1000
0000
0000
0000
0001
0010
0001
0000
0000
0000
1000
0001
1000
0000
,  // measure 5
0001
0010
0100
0000
0000
0000
1000
0010
0100
0000
0000
0000
0001
0010
0100
0000
,  // measure 6
1000
0001
0010
0000
0000
0001
1000
0001
0010
0000
0000
0100
1000
0100
0010
0000
,  // measure 7
0000
0000
0001
0000
0000
1000
0000
0000
0010
0100
0010
0000
2002
0000
3003
0000
,  // measure 8
0000
0000
1000
0000
0020
0000
1030
0000
0010
0000
0000
0100
0001
0000
0010
0000
,  // measure 9
0001
0000
0000
1000
0100
0000
0020
0000
0000
0000
0130
0000
1000
0000
0000
0000
,  // measure 10
1000
0000
0000
0001
0100
0000
0020
0000
0000
0000
0130
0000
0001
0000
0010
0000
,  // measure 11
0001
0000
0000
0100
0000
0000
1000
0000
0200
0000
0000
0000
0310
0000
0000
0000
,  // measure 12
0000
0000
1000
0001
0010
0000
0100
0000
0010
0000
0000
0001
0100
0000
0010
0000
,  // measure 13
1000
0000
0000
0001
0100
0000
0001
0000
0020
0000
0000
0000
0000
0000
0130
0000
,  // measure 14
1000
0000
0000
0001
0100
0000
0001
0000
0020
0000
0000
0000
0130
0000
1000
0000
,  // measure 15
0001
0000
0000
1000
0100
0000
1000
0000
0020
0000
0000
0000
0130
0000
0000
0000
,  // measure 16
0000
0000
0001
0000
0020
0000
0031
0000
0020
0000
0030
0000
0001
0100
0010
1000
,  // measure 17
0001
0000
0000
1000
0010
0000
0200
0000
0000
0000
0000
0000
0301
0000
0000
0000
,  // measure 18
1000
0000
0000
0100
0010
0000
0002
0000
0000
0000
0013
0000
0100
0000
1000
0000
,  // measure 19
0010
0000
0000
0100
0000
0000
0010
0000
2000
0000
0000
0000
3002
0000
0000
0000
,  // measure 20
0003
0000
0100
0001
0010
0000
0100
0000
0010
0000
0000
0001
1000
0000
0010
0000
,  // measure 21
1000
0000
0000
0100
1000
0000
0001
0000
0020
0000
0000
0000
0031
0000
0100
0000
,  // measure 22
0001
0000
0000
1000
0000
0000
0100
0000
0020
0000
0000
0000
0031
0000
1000
0010
,  // measure 23
2000
3002
0203
0320
,  // measure 24
1030
0000
1100
0000
0001
0100
0010
0000
,  // measure 25
1000
0010
0100
0001
1000
0000
1001
0000
,  // measure 26
0001
0000
0000
0000
0101
0000
0000
0000
0001
0000
0000
1000
0000
0000
0010
0000
,  // measure 27
2000
3002
0203
0302
,  // measure 28
1003
0000
0000
0010
0000
0000
0100
0000
0001
0000
0000
0000
1001
0000
0000
0000
,  // measure 29
0001
0000
0000
0010
0000
0000
0100
0000
1000
0000
0000
0000
0200
0000
0000
0000
,  // measure 30
1300
0000
0000
0010
0000
0000
0100
0000
0002
0000
0000
0000
0023
0000
0000
0000
,  // measure 31
2030
3002
0203
1300
,  // measure 32
0001
0000
0000
0000
0110
0000
0100
0010
0100
0000
0000
0001
0000
0000
1000
0000
,  // measure 33
0020
0000
0000
1030
0000
0000
0002
0000
0000
0000
0000
0000
0013
0000
0100
1000
,  // measure 34
0010
0000
0000
0000
1010
0000
0000
0000
0101
0000
0000
0001
0000
0000
1000
0000
,  // measure 35
0002
0010
0203
1000
,  // measure 36
0301
0000
0000
0010
0000
0000
0100
0000
1000
0000
0000
0000
0110
0000
1000
0000
,  // measure 37
0100
0000
0000
0010
0000
0000
0002
0000
0000
0000
0000
0000
1003
0000
0000
0000
,  // measure 38
0020
0000
0000
0000
0001
0000
0000
0000
1000
0000
0000
0100
0000
0000
2030
0000
,  // measure 39
0002
0000
0000
3003
,  // measure 40
0000
0100
0011
0100
0011
0000
0001
0010
,  // measure 41
0001
0000
0000
1000
0000
0000
0100
0000
0000
0000
0000
0000
1000
0010
1000
0010
,  // measure 42
1000
0000
0000
0001
0000
0000
0100
0000
0000
0000
0000
0000
0001
0000
0010
0000
,  // measure 43
0100
0000
0000
0010
0000
0000
0001
0000
1000
0001
1000
0001
0000
0000
0000
0000
,  // measure 44
0000
0000
0100
0001
0010
0000
0100
0000
0010
0000
0000
0001
0000
0000
0010
0000
,  // measure 45
0100
0000
0000
1000
0000
0000
0100
0000
0020
0000
0000
0000
0000
0000
0031
0000
,  // measure 46
0100
0000
0000
0001
0000
0000
1000
0000
0020
0000
0000
0000
0000
0000
1030
0000
,  // measure 47
0100
0000
0000
1000
0000
0000
0001
0000
0020
0000
0000
0000
0130
0000
0000
0000
,  // measure 48
0000
0000
1000
0000
0011
0000
1000
0000
0011
0000
0000
0000
0001
0100
0001
0100
,  // measure 49
0010
0000
0000
1000
0000
0000
0200
0000
0000
0000
0000
0000
1300
0000
0000
0000
,  // measure 50
0010
0000
0000
0100
0000
0000
0002
0000
0000
0000
0000
0000
1003
0000
0010
0000
,  // measure 51
1000
0000
0000
0100
0000
0000
0010
0000
0002
0000
0000
0000
2003
0000
0000
0000
,  // measure 52
3000
0000
0100
1000
0010
0000
0100
0000
0010
0000
0000
1000
0000
0000
0010
0000
,  // measure 53
0100
0000
0000
0001
0000
0000
1000
0000
0020
0000
0000
0000
1030
0000
0100
0000
,  // measure 54
1000
0000
0000
0001
0000
0000
0100
0000
0020
0000
0000
1030
0000
0000
0010
0000
,  // measure 55
2000
3020
0230
0302
,  // measure 56
2003
0000
0000
0000
0000
0000
3100
0000
1000
0000
0000
0001
0000
0000
1000
0000
,  // measure 57
0010
0000
0000
0100
0000
0000
0002
0000
0000
0000
0000
0000
0000
0000
1003
0000
,  // measure 58
0200
0000
0000
0000
0000
0000
1300
0000
0010
0000
0000
0100
0000
0000
0001
0000
,  // measure 59
0020
0000
0230
0000
,  // measure 60
1300
0000
0000
0010
0000
0000
2000
0000
0000
0000
0000
0000
3100
0000
0000
0000
,  // measure 61
2000
0000
0000
3010
0000
0000
0200
0000
0000
0000
0000
0000
0301
0000
0010
0000
,  // measure 62
0002
0000
0000
0013
0200
0000
0000
1300
,  // measure 63
0002
0000
0000
0000
0203
0000
0000
0000
0320
0000
0000
0000
1030
0000
0001
1000
,  // measure 64
0010
0000
0000
0000
0100
0000
0001
0000
1000
0000
0000
0100
0000
0000
1000
0000
,  // measure 65
0010
0000
0000
0100
0000
0000
0002
0000
0000
0000
0000
0000
0000
0000
1003
0001
,  // measure 66
0010
0000
0000
0000
0110
0000
0000
0000
0100
0000
0000
1000
0000
0000
0001
0000
,  // measure 67
2000
0000
0000
0000
3200
0000
0000
0000
0320
0000
0000
0000
0031
0000
0100
0001
,  // measure 68
1000
0000
0000
0010
0000
0000
0200
0000
0000
0000
0000
0000
0301
0000
1000
0000
,  // measure 69
0001
0000
0000
0010
0000
0000
0200
0000
0000
0000
0000
0000
0310
0000
0001
0000
,  // measure 70
1000
1010
0110
0101
,  // measure 71
2002
0000
0000
0000
,  // measure 72
3003
0000
0000
0000
;
