#VERSION:0.83;
#TITLE:Friend List;
#SUBTITLE:;
#ARTIST:Toru Minegishi;
#TITLETRANSLIT:;
#SUBTITLETRANSLIT:;
#ARTISTTRANSLIT:;
#GENRE:;
#ORIGIN:;
#CREDIT:;
#BANNER:Friend List.png;
#BACKGROUND:Friend List-bg.png;
#PREVIEWVID:;
#JACKET:Friend List-jacket.png;
#CDIMAGE:;
#DISCIMAGE:;
#LYRICSPATH:;
#CDTITLE:;
#MUSIC:Friend List.ogg;
#OFFSET:-0.030000;
#SAMPLESTART:6.200000;
#SAMPLELENGTH:10.000000;
#SELECTABLE:YES;
#BPMS:0.000=193.000;
#STOPS:;
#DELAYS:;
#WARPS:;
#TIMESIGNATURES:0.000=4=4;
#TICKCOUNTS:0.000=4;
#COMBOS:0.000=1;
#SPEEDS:0.000=1.000=0.000=0;
#SCROLLS:0.000=1.000;
#FAKES:;
#LABELS:0.000=Song Start;
#LASTSECONDHINT:101.000000;
#BGCHANGES:;
#KEYSOUNDS:;
#ATTACKS:
;

//---------------dance-single - ----------------
#NOTEDATA:;
#CHARTNAME:;
#STEPSTYPE:dance-single;
#DESCRIPTION:;
#CHARTSTYLE:;
#DIFFICULTY:Beginner;
#METER:4;
#RADARVALUES:0.207292,0.270639,0.019093,0.076371,0.000000,152.000000,150.000000,2.000000,8.000000,0.000000,0.000000,0.000000,0.000000,0.000000,0.207292,0.270639,0.019093,0.076371,0.000000,152.000000,150.000000,2.000000,8.000000,0.000000,0.000000,0.000000,0.000000,0.000000;
#CREDIT:;
#NOTES:
0000
0000
0000
0000
,
1000
0000
0100
0000
,
0100
0000
1000
0000
,
0001
0000
0100
0000
,
0100
0000
0001
0000
,
0010
0000
0010
0000
,
0010
0000
0100
0000
,
1000
0000
0001
0000
,
1000
0000
0000
0000
,
0010
0000
0010
0000
,
0010
0000
0100
0000
,
0001
0000
1000
0000
,
0001
0000
0000
0000
,
1000
0000
1000
0000
,
0100
0000
0100
0000
,
0010
0000
0010
0000
,
0001
0001
0002
0000
,
0103
0000
0100
0000
,
0001
0000
0001
0000
,
1000
0000
1000
0000
,
0020
0000
0000
0030
,
1000
0000
0100
0000
,
0001
0000
0100
0000
,
1000
0000
0010
0000
,
0001
0000
0010
0000
,
1000
0000
0001
0000
,
0010
0000
0100
0000
,
0001
0000
1000
0000
,
0010
0000
0100
0000
,
1000
0000
0010
0000
,
0100
0000
1000
0000
,
0001
0000
0010
0000
,
0100
0000
0001
0000
,
1000
0000
0100
0000
,
0010
0000
1000
0000
,
0001
0000
0100
0000
,
0010
0000
0001
0000
,
1000
0000
0001
0000
,
0100
0100
0100
0000
,
1001
0000
0000
0000
,
0000
0000
0000
0000
,
0000
0000
0000
0000
,
0000
0100
0100
0100
,
0100
0000
0000
0000
,
0000
0000
0000
0000
,
0000
0000
0000
0000
,
2002
0000
0000
3003
,
1000
0000
0010
0000
,
1000
0000
0001
0000
,
0100
0000
0001
0000
,
0020
0000
0030
0000
,
0001
0000
0010
0000
,
0001
0000
1000
0000
,
0100
0000
1000
0000
,
0002
0000
0003
0000
,
0001
0000
0001
0000
,
0100
0000
0100
0000
,
0010
0000
0010
0000
,
1000
1000
2000
0000
,
3010
0000
0010
0000
,
1000
0000
1000
0000
,
0001
0000
0001
0000
,
0200
0000
0300
0000
,
0100
0000
0010
0000
,
1000
0000
0001
0000
,
0010
0000
0100
0000
,
1000
0000
0001
0000
,
0010
0000
1000
0000
,
0001
0000
0100
0000
,
0010
0000
0001
0000
,
1000
0000
0100
0000
,
1000
0000
0010
0000
,
0100
0000
1000
0000
,
0001
0000
0010
0000
,
0100
0000
0001
0000
,
1000
0000
0100
0000
,
0010
0000
1000
0000
,
0001
0000
0100
0000
,
0010
0000
0001
0000
,
1000
0000
0001
0000
,
0010
0010
0010
0010
,
0010
0000
0000
0000
;

//---------------dance-single - ----------------
#NOTEDATA:;
#CHARTNAME:;
#STEPSTYPE:dance-single;
#DESCRIPTION:;
#CHARTSTYLE:;
#DIFFICULTY:Hard;
#METER:12;
#RADARVALUES:0.645061,0.657267,0.515503,0.315030,0.000000,473.000000,419.000000,54.000000,33.000000,0.000000,0.000000,0.000000,0.000000,0.000000,0.645061,0.657267,0.515503,0.315030,0.000000,473.000000,419.000000,54.000000,33.000000,0.000000,0.000000,0.000000,0.000000,0.000000;
#CREDIT:;
#NOTES:
0000
0000
0000
0000
,
1000
0000
0100
1000
0010
1000
0100
1000
,
0001
0000
0100
0001
0010
0001
0100
0001
,
1000
0000
0010
1000
0001
0100
0001
1000
,
1010
0000
0011
0000
0200
0000
0000
0300
,
1010
0100
0011
0100
,
1010
0100
0000
0001
0000
0001
0000
1000
,
0100
0000
1000
0000
0001
1000
0100
0020
,
0000
0001
0100
0031
,
0011
0100
1010
0100
,
0011
0100
0000
1000
0000
1000
0000
0001
,
0010
0000
0001
0000
1000
0010
0000
0200
,
0001
0000
1000
0000
0001
0000
0310
1000
,
0200
0300
0100
1000
0001
0000
0010
0001
,
0200
0300
0100
0001
1000
0000
0100
1000
,
0020
0030
0010
1000
0100
0000
0010
0100
,
1100
0000
0011
0000
1001
0000
0001
0100
,
2000
3000
1000
0100
0001
0000
1000
0010
,
0002
0003
0001
0010
1000
0000
0100
1000
,
0020
0000
0130
0010
0001
0000
0010
1000
,
0001
1000
0001
1000
0100
0010
0100
0010
,
0001
0100
1010
0100
,
0011
0001
0000
1000
0000
1000
0100
0000
,
1010
0100
0011
0100
,
1001
1000
0000
0001
0000
0001
0010
0000
,
1100
0010
0101
0010
,
1000
0100
0000
0001
0000
0100
1000
0000
,
0101
0010
1100
0010
,
2000
3002
0023
0230
,
1300
0000
0001
0000
0001
0010
0100
0010
,
0001
0000
1000
0000
1000
0100
0010
0100
,
1000
0000
0010
0000
1000
0010
0100
0010
,
1000
0001
0100
0001
0020
0000
0032
0000
,
1003
0000
0100
0000
1000
0010
0100
0001
,
1000
0001
0100
0000
0001
0010
0100
1000
,
0001
1000
0100
0000
1000
0001
0010
0100
,
0010
0001
1000
0000
0001
1000
0100
0000
,
0011
1100
1010
0101
,
0001
1000
0001
1000
0001
0000
0110
0000
,
1002
1000
0000
1000
,
0000
1000
0000
2003
,
0000
0001
0000
0001
,
0000
0000
3001
0000
0010
0100
1000
0001
,
0010
0012
2003
0010
,
3002
0010
2003
0010
,
3002
0100
2003
0100
,
3001
0010
0001
1000
0100
1000
0010
0100
,
0001
0010
1100
0010
,
0101
0010
0000
1000
0000
1000
0000
0001
,
0010
0000
0001
0000
1000
0001
0010
0200
,
0000
1000
0010
1300
,
1100
0010
0101
0010
,
1100
0010
0000
0001
0000
0001
0000
1000
,
0100
0000
1000
0000
0001
0100
0000
0020
,
1000
0000
0001
0000
1000
0000
0130
0001
,
0020
0030
0010
0001
1000
0000
0100
1000
,
0020
0030
0010
1000
0001
0000
0010
0001
,
0200
0300
0100
0001
0010
0000
0100
0010
,
0011
0000
1100
0000
1001
0000
1000
0010
,
0002
0003
0001
0010
1000
0000
0001
0100
,
2000
3000
1000
0100
0001
0000
0010
0001
,
0200
0000
0310
0100
1000
0000
0100
0001
,
1000
0001
1000
0001
0010
0100
0010
0100
,
1000
0010
0101
0010
,
1100
1000
0000
0001
0000
0001
0010
0000
,
0101
0010
1100
0010
,
1001
0001
0000
1000
0000
1000
0100
0000
,
0011
0100
1010
0100
,
0001
0010
0000
1000
0000
0010
0001
0000
,
1010
0100
0011
0100
,
0110
1001
0110
1001
,
0001
0000
1000
0000
1000
0100
0010
0100
,
1000
0000
0001
0000
0001
0010
0100
0010
,
0001
0000
0100
0000
0001
0100
0010
0100
,
0001
1000
0010
1000
0200
0000
2300
0000
,
3001
0000
0010
0000
0001
0100
0010
1000
,
0001
1000
0010
0000
1000
0100
0010
0001
,
1000
0001
0010
0000
0001
1000
0100
0010
,
0100
1000
0001
0000
1000
0001
0010
0000
,
1100
0011
0101
1010
,
0010
0100
0010
0100
0010
0000
1001
0000
,
0110
0000
0000
0000
;

//---------------dance-single - ----------------
#NOTEDATA:;
#CHARTNAME:;
#STEPSTYPE:dance-single;
#DESCRIPTION:;
#CHARTSTYLE:;
#DIFFICULTY:Medium;
#METER:10;
#RADARVALUES:0.485500,0.502616,0.057278,0.295937,0.000000,356.000000,350.000000,6.000000,31.000000,0.000000,0.000000,0.000000,0.000000,0.000000,0.485500,0.502616,0.057278,0.295937,0.000000,356.000000,350.000000,6.000000,31.000000,0.000000,0.000000,0.000000,0.000000,0.000000;
#CREDIT:;
#NOTES:
0000
0000
0000
0000
,
1000
0000
0100
1000
0010
0000
0100
0000
,
0001
0000
0100
0001
0010
0000
0100
0000
,
1000
0000
0001
0100
0010
0000
1000
0000
,
0002
0023
0230
0000
,
1300
0100
0001
0100
,
1000
0010
0000
0100
0000
0100
0000
0000
,
0001
0010
0100
1000
,
0020
0000
0230
0000
,
0301
0100
1000
0100
,
0001
0010
0000
0100
0000
0100
0000
0000
,
1000
0001
0100
0010
,
2000
0000
3002
0100
,
1003
0000
0100
0000
0010
0000
0100
1000
,
0001
0000
0100
0000
0010
0000
0100
0001
,
0010
0000
0100
0000
0010
0000
0001
0100
,
0001
0000
1000
0000
0001
0000
1000
0100
,
1000
0000
0010
0100
0010
0000
0100
0001
,
0100
0000
0010
0100
0010
0000
1000
0010
,
1000
0000
0001
0010
0001
0000
0100
0000
,
0020
2030
3002
0203
,
0310
1000
0100
1000
,
0010
0100
0000
0001
0000
0001
0000
0000
,
0010
0001
0100
0001
,
0010
0100
0000
1000
0000
1000
0000
0000
,
0010
1000
0010
0001
,
0010
1000
0000
0001
0000
0100
0001
0000
,
0010
0001
0010
1000
,
0020
0032
2003
3200
,
1300
0000
0010
0000
1000
0001
0100
0001
,
1000
0000
0001
0000
0100
0000
0010
0100
,
0001
0000
0010
0000
0001
1000
0100
1000
,
0001
0100
0020
2030
,
3001
0000
0100
0000
0001
0010
0100
0010
,
0001
0000
1000
0000
1000
0010
0100
0010
,
1000
1000
0001
0001
,
0010
0100
0010
0100
,
1000
1000
0001
0001
,
0010
0100
0010
0100
0010
0000
0000
0000
,
1001
0100
0000
0100
,
0000
0100
0000
0100
,
0000
0010
0000
0010
,
0000
0110
0100
0100
,
0100
0001
0100
1000
,
0100
0001
0100
0110
,
0010
1000
0010
0001
,
0010
0000
0000
1010
0000
0000
0011
0000
,
0001
0010
1000
0010
,
0001
0100
0000
0010
0000
0010
0000
0000
,
1000
0100
0010
0001
,
0200
0000
0320
0000
,
1030
0010
0001
0010
,
1000
0100
0000
0010
0000
0010
0000
0000
,
0001
1000
0010
0100
,
0002
0000
2003
0010
,
3001
0000
0010
0000
0100
0000
0010
0001
,
1000
0000
0010
0000
0100
0000
0010
1000
,
0100
0000
0010
0000
0100
0000
1000
0010
,
1000
0000
0001
0000
1000
0000
0001
0010
,
0001
0000
0100
0010
0100
0000
0010
1000
,
0010
0000
0100
0010
0100
0000
0001
0100
,
0001
0000
1000
0100
1000
0000
0010
0000
,
0200
0302
2003
3020
,
0130
0001
0010
0001
,
0100
0010
0000
1000
0000
1000
0000
0000
,
0100
1000
0010
1000
,
0100
0010
0000
0001
0000
0001
0000
0000
,
0100
0001
0100
1000
,
0100
0001
0000
1000
0000
0010
1000
0000
,
0100
1000
0100
0001
,
0200
2300
3002
0023
,
0031
0000
0100
0000
0001
1000
0010
1000
,
0001
0000
1000
0000
0010
0000
0100
0010
,
1000
0000
0100
0000
1000
0001
0010
0001
,
1000
0010
0200
0302
,
1003
0000
0010
0000
1000
0100
0010
0100
,
1000
0000
0001
0000
0001
0100
0010
0100
,
0001
0100
0010
1000
,
0010
0010
0100
0100
,
0001
0010
1000
0010
,
0001
1000
0001
1000
0001
0000
0000
0000
,
0110
0000
0000
0000
;

//---------------dance-single - ----------------
#NOTEDATA:;
#CHARTNAME:;
#STEPSTYPE:dance-single;
#DESCRIPTION:;
#CHARTSTYLE:;
#DIFFICULTY:Easy;
#METER:6;
#RADARVALUES:0.366853,0.386627,0.114556,0.124103,0.000000,269.000000,257.000000,12.000000,13.000000,0.000000,0.000000,0.000000,0.000000,0.000000,0.366853,0.386627,0.114556,0.124103,0.000000,269.000000,257.000000,12.000000,13.000000,0.000000,0.000000,0.000000,0.000000,0.000000;
#CREDIT:;
#NOTES:
// measure 0
0000
0000
0000
0000
,  // measure 1
1000
0100
1000
0000
,  // measure 2
0001
0100
0001
0000
,  // measure 3
1000
0010
1000
0000
,  // measure 4
0001
0010
0100
0000
,  // measure 5
1000
0010
1000
0010
,  // measure 6
1000
0010
0100
0000
,  // measure 7
0001
0100
0001
0100
,  // measure 8
0002
0000
2003
0000
,  // measure 9
3001
0010
0001
0010
,  // measure 10
0001
0010
0100
0000
,  // measure 11
1000
0100
1000
0100
,  // measure 12
2000
0000
3002
0000
,  // measure 13
0103
0100
0100
0000
,  // measure 14
0001
0001
0001
0000
,  // measure 15
1000
1000
1000
0000
,  // measure 16
0010
0010
1000
1000
,  // measure 17
0100
0100
0100
0000
,  // measure 18
1000
1000
1000
0000
,  // measure 19
0001
0001
0001
0000
,  // measure 20
0020
0000
0230
0000
,  // measure 21
1300
0010
0100
0010
,  // measure 22
1000
0010
0100
0000
,  // measure 23
0001
0010
0100
0010
,  // measure 24
0001
0010
0100
0000
,  // measure 25
0100
0010
0001
1000
,  // measure 26
0100
0010
0001
0000
,  // measure 27
0100
0010
1000
0001
,  // measure 28
0100
0010
1000
0000
,  // measure 29
0001
0010
0100
0010
,  // measure 30
0001
0100
0001
0000
,  // measure 31
1000
0010
0100
0010
,  // measure 32
1000
0100
0010
0001
,  // measure 33
1000
0100
1000
0010
,  // measure 34
0100
0001
1000
0100
,  // measure 35
1000
0001
0100
0001
,  // measure 36
0010
0010
0100
0100
,  // measure 37
0010
0001
1000
0100
,  // measure 38
1000
0001
1001
0000
,  // measure 39
0110
0000
0000
0000
,  // measure 40
0000
0000
0000
0000
,  // measure 41
0000
0000
0000
0000
,  // measure 42
0000
1100
0100
0010
,  // measure 43
0000
0011
0000
1010
,  // measure 44
0000
0011
0000
1010
,  // measure 45
0000
0101
0000
1100
,  // measure 46
0200
0000
0300
1001
,  // measure 47
0001
0100
0001
0100
,  // measure 48
0001
0100
0010
0000
,  // measure 49
1000
0010
1000
0010
,  // measure 50
2000
0000
3002
0000
,  // measure 51
1003
0100
1000
0100
,  // measure 52
1000
0100
0010
0000
,  // measure 53
0001
0010
0001
0010
,  // measure 54
0002
0000
2003
0000
,  // measure 55
3010
0010
0010
0000
,  // measure 56
1000
1000
1000
0000
,  // measure 57
0001
0001
0001
0000
,  // measure 58
0100
0100
0001
0001
,  // measure 59
0010
0010
0010
0000
,  // measure 60
0001
0001
0001
0000
,  // measure 61
1000
1000
1000
0000
,  // measure 62
0200
0000
0320
0000
,  // measure 63
0031
0100
0010
0100
,  // measure 64
0001
0100
0010
0000
,  // measure 65
1000
0100
0010
0100
,  // measure 66
1000
0100
0010
0000
,  // measure 67
0010
0100
1000
0001
,  // measure 68
0010
0100
1000
0000
,  // measure 69
0010
0100
0001
1000
,  // measure 70
0010
0100
0001
0000
,  // measure 71
1000
0100
0010
0100
,  // measure 72
1000
0010
1000
0000
,  // measure 73
0001
0100
0010
0100
,  // measure 74
0001
0010
0100
1000
,  // measure 75
0001
0010
0001
0100
,  // measure 76
0010
1000
0001
0010
,  // measure 77
0001
1000
0010
1000
,  // measure 78
0001
0001
1000
1000
,  // measure 79
0010
1000
0001
0100
,  // measure 80
0010
0100
0110
0000
,  // measure 81
1001
0000
0000
0000
;
