#VERSION:0.83;
#TITLE:Don't worry;
#SUBTITLE:;
#ARTIST:Hiroyuki Sawana, voc. Aimee Blackschleger;
#TITLETRANSLIT:;
#SUBTITLETRANSLIT:;
#ARTISTTRANSLIT:;
#GENRE:;
#ORIGIN:;
#CREDIT:;
#BANNER:Don't worry.png;
#BACKGROUND:Don't worry-bg.png;
#PREVIEWVID:;
#JACKET:Don't worry-jacket.png;
#CDIMAGE:;
#DISCIMAGE:;
#LYRICSPATH:;
#CDTITLE:;
#MUSIC:Don't worry.ogg;
#OFFSET:-1.595000;
#SAMPLESTART:84.599998;
#SAMPLELENGTH:15.900000;
#SELECTABLE:YES;
#BPMS:0.000=121.000,
128.000=60.500,
148.000=121.000;
#STOPS:;
#DELAYS:;
#WARPS:;
#TIMESIGNATURES:0.000=4=4;
#TICKCOUNTS:0.000=4;
#COMBOS:0.000=1;
#SPEEDS:0.000=1.000=0.000=0;
#SCROLLS:0.000=1.000;
#FAKES:;
#LABELS:0.000=Song Start;
#LASTSECONDHINT:119.000000;
#BGCHANGES:;
#KEYSOUNDS:;
#ATTACKS:
;

//---------------dance-single - ----------------
#NOTEDATA:;
#CHARTNAME:;
#STEPSTYPE:dance-single;
#DESCRIPTION:;
#CHARTSTYLE:;
#DIFFICULTY:Beginner;
#METER:1;
#RADARVALUES:0.104151,0.130248,0.008192,0.065533,0.000000,89.000000,88.000000,1.000000,8.000000,0.000000,0.000000,0.000000,0.000000,0.000000,0.104151,0.130248,0.008192,0.065533,0.000000,89.000000,88.000000,1.000000,8.000000,0.000000,0.000000,0.000000,0.000000,0.000000;
#CREDIT:;
#NOTES:
0000
0000
0000
0000
,
0000
0000
0000
0000
,
0000
0000
0000
0000
,
0000
0000
0000
0000
,
0000
1000
0000
1000
,
0000
1000
0000
1000
,
0000
0001
0000
0001
,
0001
0000
0000
0000
,
0010
0000
0010
0000
,
0100
0000
0000
0000
,
0001
0000
0001
0000
,
0100
0000
0000
0000
,
1000
0000
1000
0000
,
0100
0000
0000
0000
,
0001
0000
1000
0000
,
0010
0000
0000
0000
,
1000
0000
0100
0000
,
1000
0000
0000
0000
,
0001
0000
0100
0000
,
0001
0000
0000
0000
,
0010
0000
0100
0000
,
0010
0000
0001
0000
,
1000
0000
0001
0000
,
0100
0000
0010
0000
,
1000
0000
1000
0000
,
1000
0000
0000
0000
,
0001
0000
0001
0000
,
0001
0000
0000
0000
,
0100
0000
0010
0000
,
0100
0000
0010
0000
,
1000
0000
0001
0000
,
0010
0000
0100
0000
,
2000
3000
0002
0003
,
0200
0300
0020
0030
,
2000
3000
0200
0300
,
0020
0030
0002
0003
,
0000
0000
0000
0000
,
1000
0000
1000
0000
,
0100
0000
0010
0000
,
0001
0000
0001
0000
,
0010
0000
0100
0000
,
1000
0000
1000
0000
,
0010
0000
0100
0000
,
0001
0000
0001
0000
,
0100
0000
0010
0000
,
1000
0000
0010
0000
,
0100
0000
0001
0000
,
0010
0000
0001
0000
,
1000
0000
0100
0000
,
1000
0000
0001
0000
,
0001
0000
1000
0000
,
0010
0000
0100
0000
,
0100
0000
0010
0000
,
1001
0000
0000
0000
;

//---------------dance-single - ----------------
#NOTEDATA:;
#CHARTNAME:;
#STEPSTYPE:dance-single;
#DESCRIPTION:;
#CHARTSTYLE:;
#DIFFICULTY:Easy;
#METER:4;
#RADARVALUES:0.212984,0.260496,0.106492,0.040958,0.000000,182.000000,169.000000,13.000000,5.000000,0.000000,0.000000,0.000000,0.000000,0.000000,0.212984,0.260496,0.106492,0.040958,0.000000,182.000000,169.000000,13.000000,5.000000,0.000000,0.000000,0.000000,0.000000,0.000000;
#CREDIT:;
#NOTES:
0000
0000
0000
0000
,
0000
0000
0000
0000
,
0000
0000
0000
0000
,
0000
0000
0000
0000
,
0000
0100
0010
0001
,
0010
0100
0000
1001
,
0000
1000
0010
0100
,
0010
2000
0000
3001
,
0100
0010
0100
0010
,
1000
0100
0000
0110
,
0100
0010
0100
0010
,
0001
0100
0000
1001
,
0000
0100
0001
0010
,
0100
1000
0000
1010
,
0000
0100
0010
1000
,
0100
0010
0001
0001
,
0001
0100
0100
0010
,
0010
0000
1000
0010
,
1000
0100
0100
0010
,
0010
0000
0100
1000
,
0010
0000
0100
0001
,
0010
0000
0001
1000
,
0001
0010
0100
1000
,
0001
0000
1000
0010
,
0010
0100
0001
0010
,
0010
0000
0001
0010
,
0010
0100
1000
0010
,
0010
0000
0001
0100
,
0010
0000
1000
0100
,
0010
0000
0100
0000
,
1000
0001
0100
0010
,
0100
0001
1000
0000
,
0100
0100
0010
0001
,
0010
0100
1000
0001
,
1000
1000
0010
0100
,
0001
0001
0001
0001
,
0000
0000
0000
0000
,
1000
1000
1000
0110
,
0001
0001
0001
0110
,
0010
0010
0010
1001
,
0100
0100
0100
1001
,
0001
0010
0001
1100
,
1000
0010
1000
0101
,
0001
0100
0001
1010
,
1000
0100
1000
0011
,
0001
1000
0100
1000
,
0020
0000
0230
0000
,
0301
0010
0100
0010
,
0002
0000
2003
0000
,
3010
0100
0001
0001
,
0010
0100
1000
1000
,
0100
1000
0010
0010
,
0100
0001
0010
0010
,
0110
0000
0000
0000
;

//---------------dance-single - ----------------
#NOTEDATA:;
#CHARTNAME:;
#STEPSTYPE:dance-single;
#DESCRIPTION:;
#CHARTSTYLE:;
#DIFFICULTY:Medium;
#METER:7;
#RADARVALUES:0.294901,0.325620,0.114684,0.122875,0.000000,252.000000,238.000000,14.000000,15.000000,0.000000,0.000000,0.000000,0.000000,0.000000,0.294901,0.325620,0.114684,0.122875,0.000000,252.000000,238.000000,14.000000,15.000000,0.000000,0.000000,0.000000,0.000000,0.000000;
#CREDIT:;
#NOTES:
0000
0000
0000
0000
,
0000
0000
0000
0000
,
0000
0000
0000
0000
,
0000
0000
0000
0000
,
0000
0100
1000
0000
0010
0000
1000
0001
,
0000
0100
0000
0000
0000
0100
0010
0000
,
0000
0100
0001
0000
0010
0000
0001
1000
,
0000
0100
0000
0000
0010
0100
0010
0000
,
0001
0100
0010
0000
0100
0000
1001
0000
,
1000
0100
0010
0000
0100
0000
1001
0000
,
1000
0010
0100
0000
0010
0000
1001
0000
,
0001
0100
0010
0000
0100
0001
0010
0000
,
0100
0010
0001
0000
0010
0000
1100
0000
,
1000
0100
0010
0000
0100
0000
0011
0000
,
0001
1000
0001
0000
0100
0000
0010
0000
,
1000
0000
0010
0100
0010
0100
0010
0000
,
1000
1000
1000
0010
,
0100
0100
0100
0001
,
0010
0010
0010
0100
,
0001
0001
0001
1000
,
0020
0000
0000
0000
0130
1000
0100
0020
,
0000
0000
0000
0031
0100
0010
0100
0001
,
0000
1000
0001
0000
1000
0000
0100
0000
,
0010
0000
0100
1000
0001
0000
0110
0000
,
0001
0000
0100
0001
0100
0000
0010
0000
,
1000
0000
0100
1000
0100
0000
0010
0000
,
0100
0000
1000
0010
1000
0000
0001
0000
,
0100
0000
0001
0010
0001
0000
1000
0000
,
0020
0000
0000
0000
0130
0001
0100
0000
,
0020
0000
0000
1030
0000
0100
0010
0000
,
0100
1000
0001
0000
0010
0001
1000
0000
,
0010
0100
0001
0010
,
0001
0100
0001
0100
0010
0100
0010
0000
,
1000
0100
1000
0100
0010
0100
0010
0000
,
0001
0010
0001
0010
0100
0010
0100
0000
,
1000
0010
0100
0000
0001
0100
0010
0000
,
0000
0000
0000
0000
,
0100
0001
0100
0010
0000
0100
0010
0000
,
1000
0100
1000
0010
0000
0100
0010
0000
,
1000
0001
1000
0010
0000
0100
0010
0000
,
1000
0100
0001
0100
0000
0010
1001
0000
,
0001
0100
0010
1000
0000
1000
0010
0000
,
1000
0100
0010
0001
0000
0001
0010
0000
,
0100
0000
0100
2000
0000
3000
1000
0020
,
0000
0030
0010
0200
0000
0000
0301
0000
,
0010
0110
1100
0011
,
2020
3030
0202
0303
,
0002
0100
0010
0100
,
2003
0000
0100
0000
0010
0000
3002
0013
,
0000
0010
0000
0001
0010
0100
0000
1000
,
0000
1000
0000
0100
1000
0100
0000
0001
,
0000
0001
0000
0100
0001
0100
0000
0110
,
0000
1001
0000
1000
0001
0200
0000
0000
,
0310
0000
0000
0000
;

//---------------dance-single - ----------------
#NOTEDATA:;
#CHARTNAME:;
#STEPSTYPE:dance-single;
#DESCRIPTION:;
#CHARTSTYLE:;
#DIFFICULTY:Hard;
#METER:9;
#RADARVALUES:0.352242,0.499283,0.114684,0.212984,0.086013,301.000000,287.000000,14.000000,26.000000,0.000000,0.000000,0.000000,0.000000,0.000000,0.352242,0.499283,0.114684,0.212984,0.086013,301.000000,287.000000,14.000000,26.000000,0.000000,0.000000,0.000000,0.000000,0.000000;
#CREDIT:;
#NOTES:
0000
0000
0000
0000
,
0000
0000
0000
0000
,
0000
0000
0000
0000
,
0000
0000
0000
0000
,
0100
0011
0100
1010
,
0010
1100
0010
0101
,
0001
1010
1000
0101
,
2002
0000
3003
0110
,
1000
0010
1000
0010
0100
0001
0010
0000
,
0001
0100
0001
0100
0010
1000
0001
0000
,
0010
0100
0010
0100
1000
0001
0010
0000
,
0001
1000
0001
1000
0100
0010
0001
0000
,
0100
0010
1000
0010
0100
0001
0010
0000
,
0001
0100
0010
1000
0010
0100
0001
0000
,
1000
0100
0010
0001
0010
0100
1000
0000
,
0100
0010
0001
0010
0100
1000
0010
0100
,
0001
0000
0001
0100
0000
0100
0010
0000
,
1000
0010
0100
0000
0100
0010
1000
0100
,
1000
0000
1000
0100
0000
0100
0010
0000
,
0001
0010
0100
0000
1000
0100
1000
0020
,
0000
0000
0000
0130
0001
0100
0001
0020
,
0000
0000
0000
0130
1000
0100
0000
1100
,
0000
0101
0001
0100
0010
0000
0100
0001
,
0000
1000
0100
0010
0100
0010
0100
1000
,
0002
0000
0100
0100
0000
0010
0000
0010
,
0000
0103
0001
0000
1000
0100
0010
0100
,
2000
0000
0100
0100
0000
0010
0000
0010
,
0000
3001
0100
0000
0010
0100
0001
0020
,
0000
0000
0000
0031
0100
1000
0100
0020
,
0000
0000
0000
1030
0000
0100
1000
0010
,
0000
0100
0001
1000
0010
0000
1000
0100
,
0000
0010
0001
0000
1000
0001
1000
0000
,
0001
0100
0010
1000
0000
0001
0100
0010
0000
1000
0010
0200
0000
0000
0301
0000
,
1000
0100
0010
0001
0000
1000
0100
0010
0000
0001
0010
0200
0000
1300
0000
0000
,
0010
0100
0001
0010
0000
0100
1000
0010
0000
1000
0010
0100
0000
0000
0100
0001
,
0000
0000
0001
2000
0000
0000
0000
0000
3200
0000
0000
0000
0320
0000
0000
0000
,
0032
0000
0000
0000
,
1003
0100
0010
0001
0010
0100
1000
0000
,
0001
0100
0010
1000
0010
0100
0001
0000
,
1000
0001
0100
0010
1000
0001
0010
0100
,
1000
0001
0100
1000
0100
0001
1000
0000
,
0001
0100
0010
1000
0100
0010
0001
0000
,
1000
0010
0100
0001
0010
0100
1000
0000
,
0002
0000
0103
2000
0000
0000
3100
0002
,
0000
0000
0013
2000
0000
0000
3010
0000
,
0100
0010
0011
0000
0101
0000
1100
0000
,
1020
0000
0100
0031
,
2000
3200
0302
0023
,
0230
0000
2300
0000
3001
1000
0001
1000
,
0000
1000
0000
0100
0100
0010
0000
0001
,
0000
0001
0000
0100
0100
0010
0000
1000
,
0000
1000
0000
0001
0001
0100
0000
0001
,
0000
0001
0000
1000
1000
0020
0000
0000
,
0130
0000
0000
0000
;

//---------------dance-single - ----------------
#NOTEDATA:;
#CHARTNAME:;
#STEPSTYPE:dance-single;
#DESCRIPTION:;
#CHARTSTYLE:;
#DIFFICULTY:Challenge;
#METER:12;
#RADARVALUES:0.459905,0.499283,0.057342,0.278517,0.380913,393.000000,386.000000,7.000000,34.000000,0.000000,0.000000,0.000000,0.000000,0.000000,0.459905,0.499283,0.057342,0.278517,0.380913,393.000000,386.000000,7.000000,34.000000,0.000000,0.000000,0.000000,0.000000,0.000000;
#CREDIT:;
#NOTES:
// measure 0
0000
0000
0000
0000
,  // measure 1
0000
0000
0000
0000
,  // measure 2
0000
0000
0000
0000
,  // measure 3
0000
0000
0000
0000
,  // measure 4
0100
0001
0100
0001
0010
0000
0000
0000
0100
0000
1000
0000
1001
0000
0000
0000
,  // measure 5
0100
1000
0100
1000
0010
0000
0000
0000
0100
0000
0001
0000
0011
0000
0000
0000
,  // measure 6
0001
1000
0001
1000
0010
0000
0000
0000
0100
0000
0010
0000
1010
0000
0000
0000
,  // measure 7
2000
3200
0320
0032
,  // measure 8
0103
0010
0100
0010
1000
0000
0010
0000
0100
0000
0001
0000
1000
0000
0000
0000
,  // measure 9
0100
0010
0100
0010
0001
0000
0010
0000
0100
0000
1000
0000
0001
0000
0000
0000
,  // measure 10
0001
1000
0001
1000
0010
0000
0100
0000
0001
0000
0100
0000
0010
0000
0000
0000
,  // measure 11
1000
0001
1000
0001
0010
0000
0100
0000
1000
0000
0100
0000
0010
0000
0000
0000
,  // measure 12
0001
0100
0001
0100
1000
0000
0100
0000
0010
0000
1000
0000
0001
0000
0000
0000
,  // measure 13
1000
0100
1000
0100
0001
0000
0100
0000
0010
0000
0001
0000
1000
0000
0000
0000
,  // measure 14
0100
0010
0100
0010
0001
0000
0100
0000
1000
0000
0100
0000
0001
0000
0010
0000
,  // measure 15
1000
0000
0010
0000
0001
0000
0100
0000
0010
0100
0010
0000
1000
0000
0100
0000
,  // measure 16
1000
0000
0000
0100
1000
0000
0000
0100
1000
0000
0000
0010
1000
0000
0000
0001
,  // measure 17
0200
0302
0023
0031
,  // measure 18
0001
0000
0000
0100
0001
0000
0000
0100
0001
0000
0000
0010
0001
0000
0000
0100
,  // measure 19
0020
0000
2030
0000
3100
1000
0001
0020
,  // measure 20
1000
0000
0031
0000
0100
0001
1000
0020
,  // measure 21
0001
0000
1030
0200
0001
0000
1300
0010
,  // measure 22
0100
0001
0100
1000
0001
0010
1000
0010
,  // measure 23
0100
0000
0001
0100
0010
1000
0010
0100
,  // measure 24
0001
0000
0000
0010
0100
0000
0000
1000
0001
0000
0000
1000
0100
0000
0000
0010
,  // measure 25
0001
0000
0000
0000
0101
0000
0100
0000
0010
0100
0010
0000
1000
0000
0010
0000
,  // measure 26
1000
0000
0000
0100
0010
0000
0000
0001
1000
0000
0000
0010
0100
0000
0000
0001
,  // measure 27
1000
0000
1100
0100
0000
0001
0100
2000
,  // measure 28
0010
0000
0100
3002
0100
0000
0013
0001
,  // measure 29
1000
0000
1000
0010
0100
0000
0100
0001
,  // measure 30
0010
1000
0010
0001
0100
1000
0100
0001
,  // measure 31
1000
0000
0100
0000
0010
0000
0100
0000
0001
0100
0010
0000
1001
0000
0000
0000
,  // measure 32
0010
1000
0100
0001
0000
0100
1000
0010
0000
0100
0001
0010
0000
0000
0000
0000
,  // measure 33
0010
0001
0100
1000
0000
0100
0001
1000
0000
0010
1000
0200
0000
0301
0000
0000
,  // measure 34
1000
0010
0001
1000
0000
0010
0001
1000
0000
0100
0001
1000
0000
0000
0100
0020
,  // measure 35
0000
0000
0031
0200
0000
0000
0310
2000
0000
0000
3100
0002
0000
0000
0103
0020
,  // measure 36
0000
0000
0000
0000
0000
0000
0000
0030
,  // measure 37
0001
0100
0001
0100
0010
0000
2000
0000
0000
0000
3100
0000
0000
0000
0010
0000
,  // measure 38
0100
1000
0100
1000
0010
0000
0200
0000
0000
0000
0301
0000
0010
0000
0001
0000
,  // measure 39
0100
0010
0100
0001
0010
0000
0200
0000
0000
0000
1300
0000
0100
0000
0010
0000
,  // measure 40
0001
0100
0010
0100
0010
0000
0002
0000
0000
0000
0013
0000
1000
0000
0100
0000
,  // measure 41
0001
0100
1000
0100
0010
0000
0002
0000
0000
0000
0103
0000
0010
0000
0100
0000
,  // measure 42
0001
0100
1000
0100
0010
0000
2000
0000
0000
0000
3100
0000
0010
0000
0100
0000
,  // measure 43
2000
0001
0001
3200
0010
0320
0032
0100
,  // measure 44
0100
2003
3010
0020
0000
0130
1001
0000
,  // measure 45
1000
0000
0000
0100
0010
0000
0000
0001
0100
0000
0000
0010
1000
0000
0000
0001
,  // measure 46
0020
1000
0100
0031
,  // measure 47
0100
0001
0100
0001
0100
0000
0010
0000
1000
0010
1000
0010
1000
0000
0100
0000
,  // measure 48
0010
0100
0010
0100
0010
0000
0001
0000
0010
0000
0100
0000
1000
0000
0001
0000
,  // measure 49
0000
0100
0001
0000
0010
0000
0100
0000
1000
0001
1000
0000
0000
0000
1000
0000
,  // measure 50
0000
0100
1000
0000
0010
0000
0100
0000
0001
1000
0001
0000
0000
0000
0010
0000
,  // measure 51
0000
0100
0010
0000
0001
1000
0100
0000
1000
0000
0010
0000
0000
0000
0100
0000
,  // measure 52
0000
0010
0100
0000
0001
1000
0001
0000
0100
0000
0020
0000
0000
0000
0000
0000
,  // measure 53
0130
0000
0000
0000
;
