#VERSION:0.83;
#TITLE:Air Man;
#SUBTITLE:(Super Smash Bros. Remix);
#ARTIST:Takashi Takeishi;
#TITLETRANSLIT:;
#SUBTITLETRANSLIT:;
#ARTISTTRANSLIT:;
#GENRE:;
#ORIGIN:;
#CREDIT:;
#BANNER:Air Man (Super Smash Bros. Remix).png;
#BACKGROUND:Air Man (Super Smash Bros. Remix)-bg.png;
#PREVIEWVID:;
#JACKET:Air Man (Super Smash Bros. Remix)-jacket.png;
#CDIMAGE:;
#DISCIMAGE:;
#LYRICSPATH:;
#CDTITLE:;
#MUSIC:Air Man (Super Smash Bros. Remix).ogg;
#OFFSET:-0.250000;
#SAMPLESTART:10.420000;
#SAMPLELENGTH:10.210000;
#SELECTABLE:YES;
#BPMS:0.000=188.000;
#STOPS:;
#DELAYS:;
#WARPS:;
#TIMESIGNATURES:0.000=4=4;
#TICKCOUNTS:0.000=4;
#COMBOS:0.000=1;
#SPEEDS:0.000=1.000=0.000=0;
#SCROLLS:0.000=1.000;
#FAKES:;
#LABELS:0.000=Song Start;
#LASTSECONDHINT:121.000000;
#BGCHANGES:;
#KEYSOUNDS:;
#ATTACKS:
;

//---------------dance-single - ----------------
#NOTEDATA:;
#CHARTNAME:;
#STEPSTYPE:dance-single;
#DESCRIPTION:;
#CHARTSTYLE:;
#DIFFICULTY:Beginner;
#METER:4;
#RADARVALUES:0.232729,0.299755,0.114037,0.081455,0.000000,200.000000,186.000000,14.000000,10.000000,0.000000,0.000000,0.000000,0.000000,0.000000,0.232729,0.299755,0.114037,0.081455,0.000000,200.000000,186.000000,14.000000,10.000000,0.000000,0.000000,0.000000,0.000000,0.000000;
#CREDIT:;
#NOTES:
0000
0000
0000
0000
,
0000
0000
0000
0000
,
0000
0000
0000
0000
,
0020
0000
0000
0030
,
1001
0000
0100
0000
,
0100
0000
0100
0000
,
0010
0000
0010
0000
,
0010
0000
0110
0000
,
1000
0000
0010
0000
,
0100
0000
0010
0000
,
1000
0000
1000
0000
,
0100
0000
0010
0000
,
0001
0000
0010
0000
,
0100
0000
0010
0000
,
0001
0000
0001
0000
,
0100
0000
0010
0000
,
1000
0000
1001
0000
,
0001
0000
1001
0000
,
0010
0000
0010
0000
,
0100
0000
0100
0000
,
0001
0000
0110
0000
,
1000
0000
0110
0000
,
0001
0000
0100
0000
,
0010
0000
1000
0000
,
1001
0000
0000
0000
,
0010
0010
0010
0000
,
0000
1000
0000
1000
,
0000
1000
0000
0100
,
0000
0001
0000
0001
,
0000
0001
0000
0100
,
0000
0010
0000
0010
,
0000
0010
0000
0100
,
0000
1000
0000
0010
,
0000
0100
0000
0001
,
0002
1000
0000
1000
,
0000
1000
0000
1003
,
0020
0100
0000
0100
,
0000
0100
0000
0100
,
2030
0001
0000
0001
,
0000
0001
0000
3001
,
0000
0100
0000
0010
,
0220
0000
0000
0330
,
0000
1000
0000
0001
,
0000
1000
0000
1000
,
0000
0010
0000
0100
,
0000
0010
0000
0210
,
0300
0001
0000
0001
,
0000
1000
0000
0001
,
0000
0010
0000
0010
,
0000
0100
0000
0010
,
0010
0000
0001
0000
,
0010
0000
0100
0000
,
1000
0000
1000
0000
,
1000
0000
1001
0000
,
0200
0000
0000
0000
,
0000
0000
0000
0300
,
0001
0000
0010
0000
,
1000
0000
0010
0000
,
0100
0000
0100
0000
,
0110
0000
1001
0000
,
1000
1000
1000
0000
,
0001
0001
0001
0000
,
1000
1000
1000
0000
,
0001
0001
0001
0000
,
0100
0100
0100
0000
,
0010
0010
0010
0000
,
0100
0100
0100
0000
,
0010
0010
0010
0000
,
0000
1000
0000
0100
,
0000
0010
0000
0001
,
0000
0010
0000
0100
,
0000
1000
0000
0001
,
0000
0001
0000
0100
,
0000
0010
0000
1000
,
0000
0010
0000
0100
,
0000
0001
0000
1000
,
0000
0100
0000
0010
,
0000
0010
0000
0100
,
0000
1000
0000
0001
,
0000
0001
0000
1000
,
0000
0010
0000
0100
,
0000
0100
0000
0010
,
0000
1000
0000
0001
,
2002
0000
0000
3003
,
0000
0100
0100
0000
,
0100
0100
0100
0000
,
0000
0010
0000
1000
,
0000
0001
0000
0100
,
0000
0010
0010
0000
,
0010
0010
0010
0000
,
0000
1000
0000
0100
,
0000
0010
0000
0001
,
1001
0000
0000
0000
;

//---------------dance-single - ----------------
#NOTEDATA:;
#CHARTNAME:;
#STEPSTYPE:dance-single;
#DESCRIPTION:;
#CHARTSTYLE:;
#DIFFICULTY:Easy;
#METER:7;
#RADARVALUES:0.370039,0.487102,0.228074,0.260656,0.000000,318.000000,290.000000,28.000000,32.000000,0.000000,0.000000,0.000000,0.000000,0.000000,0.370039,0.487102,0.228074,0.260656,0.000000,318.000000,290.000000,28.000000,32.000000,0.000000,0.000000,0.000000,0.000000,0.000000;
#CREDIT:;
#NOTES:
0000
0000
0000
0000
,
0000
0000
0000
0000
,
0000
0000
0000
0000
,
0220
0000
0000
0330
,
2000
0100
0000
0100
,
0000
0100
3000
1000
,
0002
0100
0000
0103
,
0010
0100
0010
1001
,
1000
0100
0010
0001
,
0001
0100
0010
1000
,
0002
0000
2003
0000
,
3010
0100
0010
0100
,
0001
0010
0100
1000
,
1000
0010
0100
0001
,
0020
0000
0230
0000
,
1300
0001
1001
0110
,
0100
0010
1000
0001
,
0010
0100
1000
0001
,
2000
0000
3020
0000
,
0130
0001
0100
0001
,
0010
0100
1000
0001
,
0100
0010
1000
0001
,
0020
0000
0032
0000
,
0103
0010
0100
0020
,
0000
0000
0000
0030
,
1000
0000
0001
0000
0010
0000
0000
0110
,
0000
0100
1000
0100
,
0000
0010
0001
0010
,
0000
0001
0100
0001
,
0000
1000
0010
1000
,
0000
0100
1000
0001
,
0000
0010
0001
1000
,
0000
0010
1000
0001
,
0100
0010
0110
1001
,
1000
0100
0001
0100
,
1000
0010
0001
0010
,
1000
0100
0100
0010
,
0010
0001
0001
1000
,
0002
0000
0203
0000
,
0320
0000
2030
0000
,
3100
1000
0001
0100
,
0020
0000
0100
0130
,
0000
0101
0101
0000
,
1000
1100
1000
1100
,
0100
0120
0000
0001
,
0000
0100
0000
0031
,
0000
1100
1100
0000
,
0001
0101
0001
0101
,
0100
0120
0000
1000
,
0000
0100
0000
1030
,
1000
0010
0001
0010
,
1000
0100
0001
0100
,
2000
0000
3002
0000
,
0103
0010
0100
0000
,
0020
1000
0000
0100
,
0000
0001
0000
0130
,
0010
1000
0100
1000
,
0010
0100
0001
0100
,
0020
0000
2030
0000
,
3100
0010
0001
0100
,
0001
0001
0100
0100
,
1000
1000
0100
0100
,
0001
0001
0010
0010
,
0100
0100
1000
1000
,
0010
0010
0001
0001
,
0010
0010
1000
1000
,
0100
0100
0010
0010
,
0001
0000
1000
0000
0010
0000
0000
1001
,
0000
1000
0100
1000
,
0001
0020
0000
0031
,
0100
0010
1000
0100
,
0010
2000
0000
3001
,
0200
0000
0310
0200
,
0000
0310
0001
1000
,
0020
0000
0000
0030
,
1000
0100
0010
0001
,
0100
0001
0001
0100
,
0010
1000
1000
0010
,
1000
0100
0100
1000
,
0001
0010
0010
0001
,
1000
0100
0001
0100
,
1000
0010
0100
0001
,
0010
1000
0010
0001
,
1000
0001
0100
0010
,
0000
1010
1010
0000
,
0001
0011
0001
0011
,
0010
0120
0000
1000
,
0000
0100
0000
0031
,
0000
0011
0011
0000
,
1000
1010
1000
1010
,
0010
0120
0000
1000
,
0000
0100
0000
0001
,
0130
0000
0000
0000
;

//---------------dance-single - ----------------
#NOTEDATA:;
#CHARTNAME:;
#STEPSTYPE:dance-single;
#DESCRIPTION:;
#CHARTSTYLE:;
#DIFFICULTY:Medium;
#METER:11;
#RADARVALUES:0.532949,0.674448,0.570186,0.399130,0.000000,458.000000,388.000000,70.000000,49.000000,0.000000,0.000000,0.000000,0.000000,0.000000,0.532949,0.674448,0.570186,0.399130,0.000000,458.000000,388.000000,70.000000,49.000000,0.000000,0.000000,0.000000,0.000000,0.000000;
#CREDIT:;
#NOTES:
0000
0000
0000
0000
,
0000
0000
0000
0000
,
0000
0000
0000
0000
,
2002
0000
0000
3003
,
1000
1100
0001
0101
,
0001
0000
0011
0000
1000
0010
1000
0010
,
1000
1010
0001
0011
,
1100
0101
0110
1001
,
1000
0000
0100
0010
0000
0100
0000
1000
,
0000
0100
0000
0010
0000
0002
0000
0000
,
0203
0000
0000
0000
0310
1000
0001
0100
,
0000
0001
0010
0100
0000
1000
0010
0100
,
0000
0000
0100
0010
0000
0100
0000
0001
,
0000
0100
0000
0010
0000
2000
0000
0000
,
3200
0000
0000
0000
1300
0010
0100
0001
,
0000
1000
0001
0000
1001
0000
0110
0000
,
1001
0000
0001
0010
0000
1000
0000
0010
,
0000
0001
0000
0010
0000
0200
0000
0000
,
2300
0000
0000
0000
3010
0100
0010
0100
,
0000
0001
0100
0001
0000
1000
0100
1000
,
0000
0000
0010
1000
0000
0100
0000
0001
,
0000
0100
0000
1000
0000
0002
0000
0000
,
0203
0000
0000
0000
0301
0010
0100
1000
,
0000
0001
0100
0001
0000
1000
0100
1000
,
0000
0000
0000
0000
,
0010
0100
0010
0100
0010
0100
0000
1001
,
0000
0000
0000
1000
0100
1000
0000
0010
,
0000
0010
0000
0000
0200
0000
0302
0000
,
0013
0000
0000
0001
0100
0001
0000
0000
,
0020
0000
0000
0000
0031
1000
0000
0200
,
0000
0000
0000
1300
0001
0010
0000
0001
,
0000
0100
0000
0010
0000
1000
0001
0000
,
2000
0000
0000
3100
0000
0010
0000
0000
,
0000
0001
1000
0001
1000
0010
0000
0110
,
0000
0001
0100
0010
0100
0001
1000
0010
,
1000
0002
0000
1003
0010
1000
0001
0000
,
2000
0000
0000
3200
0000
0000
0320
0000
,
0000
0032
0000
0000
0203
0000
0320
0000
,
2030
0000
0000
3002
0000
0000
0023
0000
,
0000
0000
0030
0001
0000
1000
0000
0100
,
1000
0001
0100
0001
1000
0100
1000
0001
,
0020
0000
0000
0000
0130
0000
0000
1001
,
0000
0110
0110
0000
,
0101
1001
1100
1001
,
0011
0000
1020
0000
0000
0230
0000
0000
,
0301
1000
0010
0100
,
0000
1001
1001
0000
,
0011
1001
1010
1001
,
0101
0000
1200
0000
0000
1300
0000
0002
,
0000
0100
0010
1003
,
0100
0000
1000
0001
0000
0100
0000
0001
,
0000
0010
0000
0100
0000
2000
0000
0000
,
3002
0000
0000
0000
0103
0010
0100
0010
,
0000
1000
0010
1000
0000
0001
0010
0001
,
0000
0200
0320
2030
,
3002
0023
0130
1001
,
1000
0000
0010
0100
0000
0001
0000
0001
,
0000
0010
0000
0100
0000
2000
0000
0000
,
3001
0000
0000
0000
0100
0010
0100
0010
,
0000
1000
0010
0100
0000
0001
0010
0100
,
0000
1000
1000
1100
,
0010
0001
0001
0101
,
0100
0010
0010
1010
,
0100
0010
0010
0011
,
0101
0011
0101
0011
,
1100
1010
1100
1010
,
1001
0110
1001
0110
,
0001
1000
0001
1000
0001
1000
0000
1001
,
0000
0000
1000
0100
1000
0100
0010
0100
,
0010
0100
0010
0002
0000
0000
0000
1003
,
0000
0000
0001
0010
0100
0000
1000
0010
,
0100
0000
0001
1000
0001
1000
0010
0100
,
0002
0000
2003
0000
,
3100
0010
0001
0010
0100
0010
1000
0010
,
0200
0000
0000
1000
0000
0000
0001
0000
,
0000
1000
0000
0000
0310
0100
0000
1001
,
0000
0000
0100
0000
0020
0000
0000
0031
,
0000
0100
0001
0100
0001
0100
0010
0100
,
0010
0000
1000
0010
0001
0010
1000
0100
,
1000
0001
1000
0001
0000
1001
0000
0120
,
0000
0000
2030
0000
0000
3100
1000
0010
,
0000
0100
0010
1000
0100
0000
1000
0001
,
0010
0100
0001
0100
1000
0100
0010
0001
,
0000
1000
0001
0000
1000
0001
0000
0110
,
0000
0101
1100
0000
,
0110
1010
0011
0110
,
1001
0000
0002
0000
0000
0100
0000
0000
,
2003
0000
3200
0000
0310
0001
0000
1001
,
0000
1010
0011
0000
,
1001
1100
0101
1001
,
0110
0000
2000
0000
0000
0010
0000
3001
,
0000
0100
0010
0100
0010
0100
0010
0000
,
1001
0000
0000
0000
;

//---------------dance-single - ----------------
#NOTEDATA:;
#CHARTNAME:;
#STEPSTYPE:dance-single;
#DESCRIPTION:;
#CHARTSTYLE:;
#DIFFICULTY:Hard;
#METER:15;
#RADARVALUES:0.699350,0.974203,0.708660,0.716805,0.252511,601.000000,514.000000,87.000000,88.000000,20.000000,0.000000,0.000000,0.000000,0.000000,0.699350,0.974203,0.708660,0.716805,0.252511,601.000000,514.000000,87.000000,88.000000,20.000000,0.000000,0.000000,0.000000,0.000000;
#CREDIT:;
#NOTES:
// measure 0
0000
0000
0000
0000
,  // measure 1
0000
0000
0000
0000
,  // measure 2
0000
0000
0000
1000
0001
0000
0001
1000
,  // measure 3
0000
0000
1000
0000
0001
0000
0000
0000
0010
0001
0100
0010
1000
0010
0100
0001
,  // measure 4
0010
0000
0011
0000
0100
1000
0010
0000
,  // measure 5
0100
0010
1000
0000
0100
0110
0000
1001
,  // measure 6
0001
0000
0000
0000
0100
0000
0000
0000
0010
0000
0110
0000
0000
0000
0001
1000
,  // measure 7
0100
0000
1100
0000
0101
0010
2001
0000
,  // measure 8
3200
0000
0320
0032
0000
2003
0000
3200
,  // measure 9
0000
0320
0000
0032
0000
0203
0000
0000
,  // measure 10
0301
0000
0110
0000
1000
0010
0001
1000
,  // measure 11
0000
0100
0001
1000
0000
0100
0010
0001
,  // measure 12
0000
1000
0010
2000
0000
3002
0000
0203
,  // measure 13
0000
0320
0000
2030
0000
3002
0000
0000
,  // measure 14
0103
0000
1001
0000
0010
1000
0001
0100
,  // measure 15
0001
0010
0100
1000
0010
0100
0010
1001
,  // measure 16
0000
0000
1000
0100
0000
1100
0000
0101
,  // measure 17
0000
0110
0000
1001
0000
0210
0000
0000
,  // measure 18
0301
0000
0011
0000
0001
0100
0010
1000
,  // measure 19
0000
1010
1000
0100
0000
0110
1000
0001
,  // measure 20
0000
0000
0010
0001
0000
0011
0000
1010
,  // measure 21
0000
1001
0000
0110
0000
2001
0000
0000
,  // measure 22
3100
0000
1100
0000
1000
0010
0100
0001
,  // measure 23
0000
0101
0010
1000
0000
1100
0010
0002
,  // measure 24
0000
0000
0000
0003
,  // measure 25
1001
1001
1010
1010
0011
0011
0000
0220
,  // measure 26
0000
0000
0330
0100
1000
0010
0000
0010
,  // measure 27
0000
0010
0000
0100
0002
0000
2003
0000
,  // measure 28
3020
0000
0000
2030
0000
3100
0000
0000
,  // measure 29
0021
0000
0000
0000
0031
1000
0000
1200
,  // measure 30
0000
0000
0000
1300
0001
0010
0000
0011
,  // measure 31
0000
1010
1000
0100
0000
0010
0001
0100
,  // measure 32
0002
0000
0003
2000
0000
3200
0000
0000
,  // measure 33
0300
1000
1000
0001
0001
0010
0000
0110
,  // measure 34
0000
1000
0100
1000
0001
0001
1000
0010
,  // measure 35
0100
0000
0001
0000
0000
0100
0001
1000
0100
0010
0001
0100
0001
0010
0100
1000
,  // measure 36
0002
0000
0103
2000
0000
3100
0002
0000
,  // measure 37
0013
2000
0000
3010
0002
0000
0203
0000
,  // measure 38
2300
0000
0000
3002
0000
0000
0023
0000
,  // measure 39
0000
0000
0000
1000
0000
0130
0001
0010
,  // measure 40
0001
0100
0001
0100
0010
0100
0010
0100
0010
1000
0010
1000
0001
1000
0001
0100
,  // measure 41
0020
0000
0000
0000
1030
0100
0000
0110
,  // measure 42
0000
0000
0101
0100
0101
0000
0000
0000
,  // measure 43
1100
0000
1100
0100
0010
0011
0000
1010
,  // measure 44
0000
0200
0001
0000
0000
1000
0000
0000
,  // measure 45
0010
0000
1000
0000
0301
0100
0000
0110
,  // measure 46
0000
0000
1100
0100
1100
0000
0000
0000
,  // measure 47
0101
0000
0101
0100
0010
1010
0000
0011
,  // measure 48
0000
0020
0001
0000
0000
1000
0000
0032
,  // measure 49
0000
0103
1000
0100
0001
0100
0010
0000
,  // measure 50
2000
0000
3020
0230
0000
0302
0000
2003
,  // measure 51
0000
3200
0000
0320
0000
0032
0000
0000
,  // measure 52
1003
0000
1100
0000
0010
0001
0100
0001
,  // measure 53
0000
0011
0100
1000
0000
0101
0100
0020
,  // measure 54
0000
1030
0010
0100
0010
0001
0010
0100
,  // measure 55
0010
1000
0010
0100
0001
0000
1001
0000
,  // measure 56
2000
0000
3020
0230
0000
0302
0000
2003
,  // measure 57
0000
3200
0000
0320
0000
0032
0000
0000
,  // measure 58
1003
0000
0110
0000
0001
1000
0100
1000
,  // measure 59
0000
1001
0100
0010
0000
1010
1000
0200
,  // measure 60
0000
0000
0000
0000
1300
0000
0010
0000
0000
MMMM
0000
0000
0001
0000
0200
0000
,  // measure 61
0000
0000
0000
0000
0301
0000
0010
0000
0000
MMMM
0000
0000
1000
0000
0200
0000
,  // measure 62
0000
0000
0000
0000
1300
0000
0010
0000
0000
MMMM
0000
0000
0010
0000
2000
0000
,  // measure 63
0000
0000
3001
0200
0000
0000
1300
0002
,  // measure 64
0000
0000
0000
0000
0013
0000
1000
0000
0000
MMMM
0000
0000
0001
0000
2000
0000
,  // measure 65
0000
0000
0000
0000
3010
0000
0100
0000
0000
MMMM
0000
0000
0001
0000
2000
0000
,  // measure 66
0000
3100
0001
0100
1000
0100
0010
0000
,  // measure 67
0011
0011
1010
1010
0110
0110
0000
1001
,  // measure 68
0000
0000
1000
0100
1000
0000
0001
0100
0001
0000
1000
0001
1000
0000
0010
0100
,  // measure 69
0010
0000
1000
0010
1000
0000
0002
0000
0000
0000
0000
0000
0000
0000
0013
0000
,  // measure 70
0000
0000
0000
0000
0001
0010
0100
1000
0001
0100
0010
1000
0001
0010
0100
1000
,  // measure 71
0001
0000
1000
0000
1002
0000
0000
0000
0103
0010
1000
0100
1000
0000
0001
0000
,  // measure 72
0200
0000
0000
0000
0000
0000
0301
1000
0001
0010
0100
1000
0002
0000
0000
0000
,  // measure 73
0000
0013
0100
0000
1000
0000
0010
0000
0100
0000
0010
1000
0001
1000
0001
1000
,  // measure 74
0002
0203
2300
3200
0302
0203
2300
3200
,  // measure 75
0301
0000
0010
0100
0010
0100
1000
0100
1000
0100
1000
0001
1000
0001
0100
0000
,  // measure 76
0010
0000
0100
0000
2200
0000
3300
0101
,  // measure 77
0000
0001
0100
0000
0001
1000
0000
0100
1000
0000
0010
0100
0000
0001
1000
0000
,  // measure 78
0100
0000
0000
0000
1000
0001
0010
0000
0002
0000
0023
0000
0031
1000
0100
0000
,  // measure 79
1000
0000
0001
0000
0100
0001
1000
0000
0000
0000
1010
0000
0000
0000
0022
0000
,  // measure 80
0000
0000
0030
0000
2000
0000
0000
0000
0003
0000
3100
0010
0100
0010
0100
0000
,  // measure 81
0000
0000
1000
0001
1000
0001
1000
0000
0200
0000
0000
0000
1300
0000
0001
0000
,  // measure 82
0100
1000
0100
0001
1000
0010
0001
0010
,  // measure 83
0000
1000
0010
0000
0100
0001
0000
1001
,  // measure 84
0000
0000
1010
0100
1010
0000
0000
0000
,  // measure 85
0011
0000
0011
0001
0100
0110
0000
1001
,  // measure 86
0000
1000
0200
0000
0000
0001
0000
0000
,  // measure 87
1000
0000
0310
0000
0100
0001
0000
1001
,  // measure 88
0000
0000
0011
0100
0011
0000
0000
0000
,  // measure 89
1010
0000
1010
1000
0100
0110
0000
1001
,  // measure 90
0000
1000
0010
0000
1000
0001
1000
0001
,  // measure 91
0000
0100
0010
0000
1000
0001
0110
0000
,  // measure 92
1001
0000
0000
0000
;
