#TITLE:summertime;
#SUBTITLE:;
#ARTIST:cinnamons × evening cinema;
#TITLETRANSLIT:;
#SUBTITLETRANSLIT:;
#ARTISTTRANSLIT:;
#GENRE:;
#CREDIT:DJSuperNOVA;
#MUSIC:summertime.ogg;
#BANNER:summertime.png;
#BACKGROUND:summertime-bg.png;
#CDTITLE:;
#SAMPLESTART:73.682;
#SAMPLELENGTH:29.091;
#SELECTABLE:YES;
#OFFSET:0.863;
#BPMS:0.000=132.000;
#STOPS:;
#BGCHANGES:0.863=summertime.avi=1.000=0=0=0=StretchNoLoop====,
99999.000=-nosongbg-=1.000=0=0=0=StretchNoLoop====
;
#FGCHANGES:;

//--------------- dance-single - DJSuperNOVA ----------------
#NOTES:
     dance-single:
     DJSuperNOVA:
     Beginner:
     1:
     0,0,0,0,0:
0000
0000
0000
0000
,
0000
0000
0000
0000
,
1000
0000
0000
0000
,
1000
0000
0000
0000
,
0001
0000
0000
0000
,
0001
0000
0000
0000
,
0010
0000
0000
0000
,
0010
0000
0000
0000
,
0100
0000
0000
0000
,
0000
0000
0000
0000
,
0010
0000
0000
0000
,
0010
0000
0000
0000
,
1000
0000
0000
0000
,
0001
0000
0000
0000
,
0100
0000
0000
0000
,
0100
0000
0000
0000
,
0010
0000
0010
0000
,
0000
0010
0000
0000
,
1000
0000
0000
0000
,
1000
0000
0000
0000
,
0001
0000
0000
0000
,
0001
0000
0000
0000
,
0100
0000
0000
0000
,
0100
0000
0000
0000
,
0010
0000
0000
0000
,
0010
0000
0000
0000
,
1000
0000
0000
0000
,
0100
0000
0000
0000
,
1000
0000
0000
0000
,
0100
0000
0000
0000
,
0001
0000
0000
0000
,
0100
0000
0000
0000
,
0001
0000
0000
0000
,
0100
0000
0000
0000
,
0010
0000
0000
0000
,
0010
0000
0000
0000
,
0100
0000
0000
0000
,
0100
0000
0000
0000
,
0001
0000
0000
0000
,
1000
0000
0000
0000
,
2002
0000
0000
0000
0000
0000
0000
3003
,
0000
0000
0000
0000
,
1000
0000
0000
0000
,
1000
0000
0000
0000
,
0001
0000
0000
0000
,
0001
0000
0000
0000
,
0010
0000
0000
0000
,
0100
0000
0000
0000
,
0020
0000
0000
0000
,
0030
0000
0000
0000
,
1000
0000
0000
0000
,
0001
0000
0000
0000
,
1000
0000
0000
0000
,
0001
0000
0000
0000
,
0100
0000
0000
0000
,
0010
0000
0000
0000
,
0100
0000
0100
0000
,
0000
0020
0000
0000
,
0030
0000
0000
0000
;

//--------------- dance-single - DJSuperNOVA ----------------
#NOTES:
     dance-single:
     DJSuperNOVA:
     Easy:
     3:
     0,0,0,0,0:
0000
0000
0000
0000
,
0000
0000
0000
0000
,
1000
0000
0000
0000
,
0001
0000
0000
0000
,
1000
0000
0000
0000
,
0010
0000
0000
0000
,
0100
0000
0000
0000
,
0010
0000
0000
0000
,
0001
0000
0000
0000
,
0000
0000
0000
0000
,
1000
0000
1000
0000
,
0001
0000
0001
0000
,
0100
0000
0100
0000
,
0001
0000
0001
0000
,
1000
0000
1000
0000
,
0100
0000
0010
0000
,
1001
0000
0100
0000
,
0000
0110
0000
0000
,
1000
0000
0100
0000
,
1000
0000
1000
0000
,
0001
0000
0100
0000
,
0001
0000
0001
0000
,
1000
0000
0010
0000
,
1000
0000
0100
0000
,
1000
1000
0000
0000
,
0001
0001
0000
0000
,
1000
0000
0100
0000
,
0010
0000
0010
0000
,
0001
0000
0100
0000
,
0010
0000
0010
0000
,
1000
0000
0001
0000
,
0100
0000
0010
0000
,
1000
1000
0000
0000
,
0001
0001
0000
0000
,
1000
0000
0100
0000
,
2000
0000
3000
0000
,
0001
0000
0100
0000
,
0002
0000
0003
0000
,
0010
0000
0100
0000
,
0010
0000
0100
0000
,
2002
0000
0000
0000
0000
0000
0000
3003
,
0000
0000
0000
0000
,
1000
0000
0001
0000
,
1000
1000
0000
0000
,
0001
0000
1000
0000
,
0001
0001
0001
0000
,
0010
0000
0100
0000
,
0010
0000
0100
0000
,
1000
0000
0001
0000
,
0010
0000
0000
0000
,
1000
0000
0001
0000
,
0010
0010
0000
0000
,
1000
0000
0001
0000
,
0010
0010
0010
0000
,
0001
0000
1000
0000
,
0001
0000
1000
0000
,
1001
0000
0100
0000
,
0000
0220
0000
0000
,
0330
0000
0000
0000
;

//--------------- dance-single - DJSuperNOVA ----------------
#NOTES:
     dance-single:
     DJSuperNOVA:
     Medium:
     6:
     0,0,0,0,0:
0000
0000
0000
0000
,
0000
0000
0000
0000
,
0001
1000
0000
1000
,
0000
0001
0000
0001
,
0000
0100
0000
0100
,
0000
0001
0000
0001
,
0000
1000
0000
1000
,
0000
0100
0000
0100
,
0000
0010
0000
0010
,
0000
0000
0000
0010
,
1000
1000
1000
0000
,
0001
0100
0001
0010
,
0100
0100
0100
0000
,
1000
0100
1000
0010
,
0100
0100
0100
0000
,
0001
1000
0100
0010
,
0110
0000
0000
0000
0001
0000
0000
1000
,
0000
2002
0000
3003
,
1000
1000
1000
0100
,
1000
0020
0000
0030
,
0001
0001
0001
0100
,
0010
0000
0100
0010
0000
0000
0000
0000
,
0100
0100
0001
0001
,
1000
0000
0001
1000
0000
0000
1000
0000
,
0001
0002
0000
0000
,
1003
2000
0000
3000
,
0010
0010
0100
0100
,
0001
0000
1000
0001
0000
0000
0000
0000
,
0010
0010
0100
0100
,
1000
0000
0100
0010
0000
0000
0010
0000
,
0001
0001
0100
0100
,
0001
1000
0000
1000
,
0010
0020
0000
0000
,
0130
0200
0000
0300
,
0001
0000
0001
0000
0100
0000
1000
1000
,
0000
0000
0010
0100
,
0001
0000
0100
0000
0010
0000
1000
0020
,
0000
0000
0030
1000
,
0100
1000
0100
0010
,
0001
0000
0000
0000
0010
0000
0000
0000
0001
0000
0000
1000
0000
0000
0002
0000
,
2000
0000
0000
0000
0000
0000
0000
3003
,
0000
0000
0000
0000
,
1000
1000
0001
0001
,
1000
0100
1000
1000
,
0001
0100
0001
0001
,
0100
0010
1000
0100
,
0001
0100
1000
0100
,
0001
0001
1000
1000
,
0010
0010
0010
0010
,
0100
0100
0100
0100
,
1001
0001
1000
1000
,
0010
0100
0001
0100
,
1000
0100
0010
0010
,
0100
0100
0010
0001
,
1000
0100
1000
0100
,
0001
0100
0001
0100
,
0110
0000
0000
0000
0100
0000
0000
0010
,
0000
0220
0000
0000
,
0330
0000
0000
0000
;

//--------------- dance-single - DJSuperNOVA ----------------
#NOTES:
     dance-single:
     DJSuperNOVA:
     Hard:
     8:
     0,0,0,0,0:
0000
0000
0000
0000
,
0000
0000
0000
0000
,
0001
1000
0000
1000
,
0010
0100
0000
0100
,
0001
0010
0000
0010
,
0100
1000
0000
1000
,
0001
0010
0000
0010
,
0001
1000
0000
1000
,
0001
1000
0000
0001
,
0000
0000
0000
0000
0000
0001
0010
0100
,
1000
0000
1000
0000
1000
0000
0000
0001
,
0000
0001
0000
0001
0000
1000
0001
0100
,
0010
0000
0010
0000
0010
0000
0000
0100
,
0000
0100
0000
0100
0000
0010
0100
0001
,
1000
0000
1000
0000
1000
0000
0000
0001
,
0000
0001
0000
1000
0001
1000
0001
0000
,
1001
0000
0000
0000
0010
0100
0010
0100
,
0000
0220
0000
0330
,
0001
0000
0100
0000
0010
0000
1000
0100
,
1000
0100
0010
0000
0000
0000
0010
0000
,
0001
0000
1000
0000
0001
0000
1000
0100
,
0010
0100
0010
0001
0000
0000
1000
0000
,
0001
0000
0010
0000
0100
0010
0100
0000
,
1000
0010
0100
0001
0000
0000
1000
0000
,
0001
0100
0002
0000
0000
0000
0103
0000
,
0010
1000
0020
0000
0000
0000
1030
0000
,
0001
1000
0100
0010
,
0001
0010
0001
0010
0000
0000
0100
0000
,
1000
0100
1000
0000
0001
0000
0001
0000
,
0100
0010
1000
0010
0000
0000
0100
0000
,
0010
1000
0010
0000
0100
0001
0100
0000
,
1000
0100
1000
0001
0000
0000
0001
0000
,
1000
0010
2000
0000
0000
0000
0000
0000
,
3001
0010
0100
1000
,
1001
0000
0100
0000
0010
0000
0100
0010
,
0000
0000
0000
0100
0010
1000
0010
0000
,
0100
0001
0100
0000
0010
0000
0100
0020
,
0000
0000
0030
0000
0000
1000
0100
0010
,
0000
0000
0000
0000
0001
0000
0100
0000
0010
0000
0000
1000
0000
0000
0001
0000
,
0000
0000
0000
0000
0000
0000
0000
0000
1000
0000
0000
0010
0000
0000
0100
0000
,
0002
0000
0000
0000
0000
0000
0000
1003
,
0000
0000
0000
0000
,
1000
0000
0100
0000
1000
0000
0001
0100
,
0000
0100
0000
0000
0010
0000
0100
0000
,
0001
0000
0001
0000
1000
0000
0001
1000
,
0000
0100
0000
0100
0000
1000
0010
0000
,
0001
0000
0010
0000
0001
0000
1000
0001
,
0000
0010
0000
0100
0000
2000
0000
0002
,
0000
0000
3003
0000
,
0000
1000
0001
1000
,
0010
0000
0100
0000
0010
0000
1000
0010
,
0000
0010
0000
1000
0100
0000
0100
0000
,
0010
0000
0001
0000
1000
0000
0100
0010
,
0000
0010
0000
0000
0000
0001
0100
0001
,
0000
1000
0100
1000
0000
0001
0010
0001
,
0000
1000
0000
0010
0000
2000
0000
0002
,
0000
0000
3003
0000
0100
0010
0100
0010
,
0000
0220
0000
0000
,
0330
0000
0000
0000
;
