#TITLE:보라빛 밤;
#SUBTITLE:;
#ARTIST:선미;
#TITLETRANSLIT:pporappippam;
#SUBTITLETRANSLIT:;
#ARTISTTRANSLIT:SUNMI;
#GENRE:;
#CREDIT:DJSuperNOVA;
#MUSIC:pporappippam.ogg;
#BANNER:pporappippam.png;
#BACKGROUND:pporappippam-bg.png;
#CDTITLE:;
#SAMPLESTART:116.000;
#SAMPLELENGTH:16.000;
#SELECTABLE:YES;
#OFFSET:0.000;
#BPMS:0.000=120.000;
#STOPS:;
#BGCHANGES:0.000=pporappippam.avi=1.000=0=0=0=StretchNoLoop====,
99999.000=-nosongbg-=1.000=0=0=0=StretchNoLoop====
;
#FGCHANGES:;

//--------------- dance-single - DJSuperNOVA ----------------
#NOTES:
     dance-single:
     DJSuperNOVA:
     Beginner:
     3:
     0,0,0,0,0:
0000
0000
0000
0000
,
0000
0000
0000
0000
,
0000
0000
0000
0000
,
0000
0000
0000
0000
,
0000
0000
0000
0000
,
2000
0000
3000
0000
,
0002
0000
0003
0000
,
2000
0000
0000
0000
,
3002
0000
0003
0000
,
0100
0000
0100
0000
,
0010
0000
0010
0000
,
1000
0000
1000
0000
,
1000
0000
0000
0000
,
0010
0000
0010
0000
,
0100
0000
0100
0000
,
0001
0000
0001
0000
,
0001
0000
0000
0000
,
2000
3000
0000
0000
,
0002
0003
0000
0000
,
0200
0300
0000
0000
,
0010
0000
0010
0010
,
0020
0030
0000
0000
,
0200
0300
0000
0000
,
0002
0003
0000
0000
,
1000
1000
1000
1000
,
0000
0010
0010
0010
,
1001
0000
0010
0000
,
0100
0000
0100
0000
,
1000
0000
0001
0000
,
1000
1000
1000
0000
,
0001
0000
1000
0000
,
0001
0000
0010
0000
,
0010
0000
0100
0000
,
0001
0001
0001
0000
,
2000
0000
3000
0000
,
0002
0000
0003
0000
,
0200
0000
0000
0000
,
0300
0000
0000
0000
,
0002
0000
0003
0000
,
2000
0000
3000
0000
,
0020
0000
0030
0000
,
0010
0000
0010
0000
,
2002
0000
3003
0000
,
1000
0000
0000
0000
,
2002
0000
3003
0000
,
0001
0000
0000
0000
,
0100
0000
0100
0000
,
0010
0000
0010
0000
,
1000
0000
0001
0000
,
1000
0000
0001
0000
,
1001
0000
0000
0000
,
1000
0000
0100
0000
,
1000
0000
1000
0000
,
0001
0001
0001
0000
,
0010
0000
0100
0000
,
0001
0000
0100
0000
,
0001
0000
0010
0000
,
1000
1000
1000
0000
,
0001
0000
1000
0000
,
0010
0000
0100
0000
,
0001
0000
1000
0000
,
0010
0010
0010
0010
,
0010
0000
1000
0000
,
0100
0000
1000
0000
,
0001
0000
0100
0000
,
0001
0010
0010
0010
,
0010
0000
0000
0000
;

//--------------- dance-single - DJSuperNOVA ----------------
#NOTES:
     dance-single:
     DJSuperNOVA:
     Easy:
     5:
     0,0,0,0,0:
0000
0000
0000
0000
,
0000
0000
0000
0000
,
0000
0000
0000
0000
,
0000
0000
0000
0000
,
0000
0000
0000
0000
,
2000
0000
0000
3000
0020
0000
0000
0030
,
0200
0000
0000
0300
0002
0000
0000
0000
,
2000
0000
0000
0000
,
3003
0000
0000
0000
,
0001
0100
0001
0000
,
1000
0100
1000
0000
,
0010
0100
0010
0000
,
1000
0100
0010
0100
,
0001
0001
0010
0000
,
1000
1000
0100
0000
,
0010
0010
0100
0001
,
0010
0100
0010
0000
,
2002
3003
0000
0010
,
2020
3030
0000
0100
,
0202
0303
0000
0100
,
2200
3300
0010
0100
,
2002
3003
0000
0010
,
0220
0330
0000
0010
,
2020
3030
0000
0001
,
1000
0000
0000
1000
0000
0000
1000
0000
0000
0000
0000
0000
1001
0000
0000
0000
,
0000
0100
0010
0110
,
1001
0100
1000
0100
,
0010
0010
0100
0100
,
0001
0010
1000
0010
,
0100
0100
0010
0110
,
1000
0001
1000
1000
,
0100
0001
0100
1000
,
0001
1000
0010
0010
,
0100
0001
0010
0100
,
2001
0000
0000
3000
,
0002
0000
0000
0003
,
0200
0000
0000
0000
,
0020
0000
0330
0000
,
2000
0000
0000
3010
,
0200
0300
0002
0003
,
2000
0000
0000
0000
,
0002
0000
3003
0000
,
0001
0000
1000
0000
0000
0000
0001
1000
,
0000
0000
0000
0000
,
0010
0000
0000
0100
0000
0000
0000
0000
0000
0000
0000
0000
0100
0000
0010
0000
,
0000
0000
1000
0100
,
0001
0000
0100
0000
,
1000
0000
0020
0000
,
0200
0000
0000
0000
,
0330
0010
0100
0110
,
1001
0010
0001
0010
,
1000
1000
0001
0001
,
1000
0100
1000
1000
,
0001
0100
0001
0001
,
0010
0100
0010
0001
,
1000
1000
0010
0010
,
0100
0010
1000
0100
,
0001
0010
0100
1001
,
1000
0010
0010
0010
,
1000
0100
0001
0100
,
1000
0010
0010
0010
,
0001
0100
0010
1001
,
0100
1000
0001
0001
,
0100
0010
1000
1000
,
0100
0001
0100
1000
,
0010
0001
0010
1000
,
1001
0000
0000
0000
;

//--------------- dance-single - DJSuperNOVA ----------------
#NOTES:
     dance-single:
     DJSuperNOVA:
     Medium:
     7:
     0,0,0,0,0:
0000
0000
0000
0000
,
0000
0000
0000
0000
,
0000
0000
0000
0000
,
0000
0000
0000
0000
,
0000
0000
0000
0010
,
0200
0000
0000
0300
2000
0000
0000
3000
,
0002
0000
0000
0003
0020
0000
0000
0000
,
0200
0000
0000
0000
,
0330
0000
0000
1000
,
0001
0001
1000
0100
,
1000
0100
0001
0100
,
0001
0010
0100
1000
,
1001
0000
0110
1100
,
0001
0100
0010
1000
,
1000
0100
0010
0001
,
0100
0010
1000
0100
,
0101
0000
1100
0110
,
1001
0000
0000
0000
0000
1000
0000
0100
,
0010
0000
0000
0000
0000
0010
0000
0001
,
0100
0000
0000
0000
0000
0010
0000
0100
,
0010
0000
0010
0010
,
1001
0000
0000
0000
0000
0001
0000
0100
,
0010
0000
0000
0000
0000
1000
0000
0010
,
0100
0000
0000
0000
0000
0001
0000
0010
,
0100
0000
0000
0010
0000
0000
0001
0000
0000
0010
0000
0000
0100
0000
0000
0000
,
0000
0010
0010
0110
,
1000
0000
0100
0000
0001
0100
0001
0100
,
0000
0000
0100
0000
0010
0000
0001
1000
,
0000
0100
0000
0010
0000
0100
0000
1000
,
0000
0001
1000
0001
0000
0000
1001
0000
,
0110
0000
1000
0000
0010
1000
0010
1000
,
0000
0000
0100
0000
0001
0010
0001
0010
,
0000
0001
0000
0100
0000
0001
0000
0010
,
0000
0100
1000
0100
0000
0000
1001
0000
,
0200
0000
0000
0000
,
0302
0000
0000
0000
,
2003
0100
0200
0300
,
0000
0010
0020
0030
,
3000
0000
0000
0001
,
0200
0010
0320
0000
,
2000
0000
0000
0000
,
3030
1000
0100
0010
,
0001
0000
0010
0000
0000
0000
0100
1000
,
0000
0000
0000
0000
,
1000
0000
0000
0010
0000
0000
0000
0000
0000
0000
0000
0000
0100
0000
0001
0000
,
0000
0000
1000
0001
,
0020
0000
0000
0030
0200
0000
0000
0300
,
2000
0000
0000
3000
0020
0000
0000
0000
,
0200
0000
0000
0000
,
0330
0010
0100
0110
,
0001
0000
0100
0000
1000
0100
1000
0100
,
0000
0000
0010
0000
0100
0000
0001
1000
,
0000
0100
0000
0010
0000
0100
0000
1000
,
0000
0001
1000
0001
0000
0000
1001
0000
,
0110
0000
1000
0000
0010
1000
0100
1000
,
0000
0000
0100
0000
0001
0010
0001
0010
,
0000
0001
0000
0100
0000
0001
0000
0010
,
0000
0100
1000
0100
0000
0000
1001
0000
,
0110
0001
0001
0001
,
0110
1000
1000
1000
,
1010
0100
0100
0100
,
0011
0100
0010
0110
,
1000
0000
0100
0000
0001
0100
0001
0000
,
1000
0000
0010
0000
0100
0001
0100
0000
,
0010
0000
0001
0000
1000
0100
1000
0000
,
0010
0100
0010
0110
,
1001
0000
0000
0000
;

//--------------- dance-single - DJSuperNOVA ----------------
#NOTES:
     dance-single:
     DJSuperNOVA:
     Hard:
     11:
     0,0,0,0,0:
0000
0000
0000
0000
,
0000
0000
0000
0000
,
0000
0000
0000
0000
,
0000
0000
0000
0000
,
0000
0000
0000
0000
0000
0000
0000
0000
0000
1000
0100
0010
,
0002
0000
0000
0103
0020
0000
0000
1030
,
0200
0000
0000
0320
0032
0000
0000
0000
,
2000
0000
0000
0000
,
3003
0000
0000
0000
0000
0000
1000
0001
,
1000
0100
0010
0001
0000
0010
0001
0010
,
0100
0010
0001
1000
0000
0001
1000
0100
,
1000
0010
0100
1000
0000
1000
0100
0010
,
1000
0000
1001
0000
0001
0010
0001
0100
,
0010
1000
0100
1000
0000
1000
0100
0001
,
0100
0010
0001
0100
0000
0100
0010
1000
,
0010
0100
1000
0100
0000
0010
0100
0001
,
0000
1000
0001
1001
,
1000
0001
1000
0001
0000
0000
0000
0000
0100
0000
0000
0000
0100
0000
0000
0010
,
0100
0010
0100
0010
0000
0000
0000
0000
1000
0000
0000
0000
1000
0000
0001
0000
,
0100
0001
0000
0100
0000
0000
0000
0000
0010
0000
0000
0000
0010
0000
0001
0010
,
0100
0010
0100
0010
0000
0000
0000
0000
0001
0000
0000
0000
0001
0000
0000
0000
,
1000
0010
1000
0010
0000
0000
0000
0000
0100
0000
0000
0000
0100
0000
0000
0010
,
1000
0001
1000
0001
0000
0000
0000
0000
0010
0000
0000
0000
0010
0000
0001
0000
,
0100
0001
1000
0001
0000
0000
0000
0000
1000
0000
0000
0000
1000
0000
0001
0000
,
0010
0000
0000
0100
0000
0000
0010
0000
0000
0100
0000
0000
1000
0000
0000
0000
,
0000
0000
0000
0000
0001
0100
0000
0000
1010
0000
0000
0000
0101
0000
0000
0000
,
1020
0000
0130
0010
1000
0100
0010
0001
,
0010
0000
0010
0001
0100
0010
1000
0200
,
0000
0320
0000
0032
0000
0203
0000
0320
,
0000
1030
0100
0001
0000
0000
0110
0000
,
0120
0000
0031
0100
0010
1000
0100
0001
,
0100
0000
0100
0010
0001
1000
0100
2000
,
0000
3020
0000
0230
0000
0320
0000
2030
,
0000
3100
0010
0001
0000
1000
0001
0000
,
1002
0100
0100
0103
,
0020
0100
0100
0130
,
2000
0001
0002
0003
,
3002
0100
1000
0103
,
1000
1000
1000
0020
,
0230
0010
0320
1000
,
2030
0001
0001
0001
,
3001
0100
0010
0100
0010
1000
0100
0010
,
0002
0000
0020
0000
0003
0030
0200
2000
,
0000
0000
0000
0000
3300
0000
0000
1000
,
0020
0000
0000
0200
0000
0000
0000
0000
0030
0000
0300
0000
0002
0000
2000
0000
,
0000
0000
0000
0000
0000
0000
3003
0000
0000
1000
0010
0100
,
0002
0000
0000
0013
0200
0000
0000
1300
,
0002
0000
0000
0103
0020
0000
0030
2000
,
0002
0000
0000
0000
,
3003
0000
0000
0000
1000
0001
0000
0000
0011
0000
0000
0000
1100
0000
0000
0000
,
0012
0000
0103
0010
1000
0100
0010
0001
,
0010
0000
0010
0001
0100
0010
1000
0200
,
0000
2300
0000
3020
0000
0230
0000
0302
,
0000
1003
0100
0001
0000
0000
1001
0000
,
0120
0000
0031
0100
0010
1000
0100
0001
,
0100
0000
0010
0001
1000
0010
0100
0020
,
0000
2030
0000
3200
0000
0320
0000
0032
,
0000
0103
0010
1000
0000
1000
0001
1000
,
0001
0000
0100
0000
0010
1000
0000
0100
0000
1000
0100
0000
0010
0000
0001
0000
,
0100
0000
0001
0000
0010
0001
0000
0100
0000
0001
0010
0000
0100
0000
1000
0000
,
0010
0000
1000
0000
0010
0100
0000
0010
0000
1000
0100
0000
0010
0000
0100
0000
,
0010
0000
0000
0000
0010
0001
0000
0000
1100
0000
0000
0000
0101
0000
0000
0000
,
1002
0000
0000
0000
1003
0100
0000
0010
0000
0100
1000
0000
0001
0000
0100
0000
,
0001
0000
1000
0000
0010
0100
0000
0010
0000
0100
0001
0000
1000
0000
0001
0000
,
0100
0000
0010
0000
1000
0100
0000
0010
0000
0100
1000
0000
0010
0000
0100
0000
,
0001
0000
1000
0000
0100
0010
0000
0000
0110
0000
0000
0000
1001
0000
0000
0000
,
0110
0000
0000
0000
;
