#TITLE:Wrap Me In Plastic;
#SUBTITLE:;
#ARTIST:MOMOLAND X CHROMANCE;
#TITLETRANSLIT:;
#SUBTITLETRANSLIT:;
#ARTISTTRANSLIT:;
#GENRE:;
#CREDIT:DJSuperNOVA;
#MUSIC:Wrap Me In Plastic.ogg;
#BANNER:Wrap Me In Plastic.png;
#BACKGROUND:Wrap Me In Plastic-bg.png;
#CDTITLE:;
#SAMPLESTART:38.316;
#SAMPLELENGTH:21.333;
#SELECTABLE:YES;
#OFFSET:-0.984;
#BPMS:0.000=90.000;
#STOPS:;
#BGCHANGES:-1.300=Wrap Me In Plastic.avi=1.000=0=0=0=StretchNoLoop====,
99999.000=-nosongbg-=1.000=0=0=0=StretchNoLoop====;
#FGCHANGES:;

//--------------- dance-single - DJSuperNOVA ----------------
#NOTES:
     dance-single:
     DJSuperNOVA:
     Beginner:
     1:
     0,0,0,0,0:
0000
0000
0000
0000
,
0000
0000
0000
0000
,
0001
0000
0001
0000
,
0001
0000
0000
0000
,
1000
0000
1000
0000
,
1000
0000
0000
0000
,
0010
0000
0010
0000
,
0010
0000
0100
0000
,
0000
0000
0100
0000
,
0100
0000
0000
0000
,
1000
0000
0000
0000
,
0001
0000
0000
0000
,
0010
0000
0000
0000
,
0100
0000
0000
0000
,
0100
0000
0010
0000
,
1000
0000
1000
0000
,
0001
0000
1000
0000
,
0001
0000
0001
0000
,
1000
0000
1000
0000
,
0001
0000
0001
0000
,
0010
0000
0010
0000
,
0100
0000
0100
0000
,
1001
0000
0000
0000
,
0001
0000
1000
0000
,
0001
0000
0000
0000
,
0010
0000
0100
0000
,
0100
0000
0000
0000
,
0001
0000
1000
0000
,
0010
0000
0000
0000
,
1000
0000
0001
0000
,
0100
0000
0100
0000
,
0100
0000
0000
0000
,
0001
0000
0001
0000
,
0001
0000
0000
0000
,
1000
0000
1000
0000
,
1000
0000
0010
0000
,
0000
0000
0010
0000
,
1000
0000
0001
0000
,
1000
0000
0000
0000
,
0010
0000
0000
0000
,
0100
0000
0000
0000
,
0001
0000
0001
0000
,
1000
1000
0000
0000
,
0001
0000
0001
0000
,
0100
0000
0100
0000
,
0010
0000
0010
0000
,
1000
0000
0100
0000
,
1000
0000
0000
0000
,
0001
0000
0100
0000
,
0001
0000
0001
0000
;

//--------------- dance-single - DJSuperNOVA ----------------
#NOTES:
     dance-single:
     DJSuperNOVA:
     Easy:
     3:
     0,0,0,0,0:
0000
0000
0000
0000
,
0000
0000
0000
0000
,
1000
0000
1000
1000
,
1000
0000
0000
0000
,
0001
0000
0001
0001
,
0001
0000
0000
0000
,
0100
0000
0100
0100
,
0100
0000
0010
0010
,
0000
0000
1000
0001
,
1000
0000
0010
0100
,
0010
0000
1000
1000
,
0001
0000
0001
0001
,
1000
0000
0100
0100
,
0010
0010
0010
0000
,
0001
1000
0001
0000
,
1000
0001
0100
0000
,
0010
1000
0010
0000
,
0010
0100
0001
0000
,
1000
0100
1000
0000
,
0001
0100
0001
0000
,
1000
0100
0001
0000
,
0001
0100
1000
0000
,
1001
0001
0000
0001
,
0010
0010
0100
0100
,
1000
1000
0000
0100
,
0010
0010
0001
0001
,
0000
1001
0000
0001
,
0010
0010
0100
0100
,
0000
1000
0100
1000
,
0001
0001
1000
1000
,
0010
0000
0010
0010
,
0010
0000
0000
0000
,
0100
0000
0100
0100
,
0100
0000
0000
0000
,
0001
0000
0001
0001
,
0001
0000
1000
1000
,
0000
0000
0010
0100
,
0010
0000
1000
0001
,
1000
0000
0001
0001
,
1000
0000
0010
0010
,
0100
0000
0001
0001
,
1000
0001
1000
0000
,
1000
1001
0000
0001
,
1000
0001
0001
0000
,
1000
1000
0001
0000
,
0010
0010
0100
0000
,
1000
0000
1000
0000
,
0001
0000
0001
0000
,
0100
0000
0100
0000
,
0010
0000
0010
0000
;

//--------------- dance-single - DJSuperNOVA ----------------
#NOTES:
     dance-single:
     DJSuperNOVA:
     Medium:
     6:
     0,0,0,0,0:
0000
0000
0000
0000
,
0000
0000
0000
0000
,
0000
0001
0000
0001
0000
0001
0000
0001
,
1000
0100
0000
0100
0000
0100
0000
0100
,
1000
0010
0000
0010
0000
0010
0000
0010
,
0100
0001
0000
0001
0000
0001
1000
0001
,
0100
0010
0000
0010
0000
0100
0000
0100
,
0000
0001
0000
0001
1000
0010
0100
0010
,
0100
0001
0000
0001
1000
0001
0000
1000
,
0001
0100
0000
0100
0000
0001
0000
0001
,
1000
0000
0001
0000
1000
0001
1000
0100
,
0000
0010
0001
0000
0010
0000
0100
0010
,
0000
0001
1000
0000
1000
0000
0001
0100
,
0001
0000
0000
1000
0000
0000
0001
0000
1000
0000
0100
0000
1000
0000
0000
0000
,
1000
0100
1000
0100
0010
0001
0010
0000
,
0001
0010
0100
1000
0100
0010
0100
0000
,
1000
0001
1000
0001
0100
0010
0100
0000
,
1000
0010
0100
0001
1000
0001
0100
0000
,
0001
0100
0001
0100
0010
1000
0010
0000
,
1000
0010
0100
0001
0010
0100
1000
0000
,
1000
0010
1000
0010
0100
0001
0100
0000
,
1000
0100
0010
0001
1000
0010
0100
0000
,
1001
0001
1000
0001
,
1000
0100
1000
0000
0001
0100
0001
0000
,
1000
1000
0001
0001
,
0100
0010
0100
0000
0001
1000
0001
0000
,
1000
1001
0001
1001
,
1000
0010
0100
0000
0001
0010
0100
0000
,
0010
0100
0010
0100
,
0001
0100
0010
0000
1000
0100
0010
0000
,
1000
0001
0000
0001
0100
0001
1000
0000
,
0100
0010
0001
0000
1000
0100
1000
0000
,
0001
1000
0000
1000
0001
1000
0100
0000
,
0100
0010
0001
0000
0001
0100
0010
1000
,
0010
0100
0000
0001
1000
0001
0100
0000
,
0001
0100
0001
0000
1000
0100
1000
0010
,
0100
0000
0001
0000
1000
0001
1000
0001
,
0100
0000
0010
0100
0000
0100
0010
0000
,
1001
0000
1000
0000
0001
1000
0001
0100
,
0000
0010
1000
0000
0001
0000
0100
0001
,
0000
0010
0100
0000
1000
0100
1000
0000
,
0010
0000
0000
0010
0000
0000
0010
0000
0100
0000
0001
0000
1000
0000
0000
0000
,
0100
0000
0110
0000
0010
0001
0010
0000
,
1000
0100
1000
0000
0001
0100
0001
0000
,
1000
0000
0001
0000
0100
0001
0100
0000
,
0010
1000
0010
0000
0100
0010
0100
0000
,
0001
0001
1000
1000
,
0010
0100
0010
0000
1000
0001
1000
0000
,
0010
0100
0000
0010
1000
0010
0100
0001
,
1000
0001
1000
0000
0001
1000
0001
0000
;

//--------------- dance-single - DJSuperNOVA ----------------
#NOTES:
     dance-single:
     DJSuperNOVA:
     Hard:
     10:
     0,0,0,0,0:
0000
0000
0000
0000
,
0000
0000
0000
0000
,
1000
0001
0000
0001
1000
0001
0100
0000
,
0010
1000
0100
0000
0010
0001
0010
0001
,
1000
0001
0000
0001
1000
0001
0100
0000
,
0010
1000
0100
0000
0010
0001
0010
0001
,
1000
0010
0000
0010
1000
0001
0100
0000
,
0100
0001
1000
0000
1000
0001
0100
0001
,
1000
0010
0000
0010
1000
0010
0001
0010
,
1000
0001
0100
0001
1000
0100
0010
0001
,
0000
0000
1000
0000
0001
0100
0001
0000
1000
0000
0010
0100
0010
0000
1000
0000
,
0000
0000
0100
0010
0100
0000
1000
0000
0001
0000
0100
0010
0100
0000
0001
0000
,
0000
0000
1000
0000
0001
0100
0001
0000
0100
0000
0010
0000
1000
0000
0000
0000
,
0001
0000
1000
0001
1000
0000
0001
0000
0010
0000
0100
0000
0110
0000
0010
0000
,
0001
1000
0001
1000
0001
1000
0010
0000
,
0100
0001
0100
0001
1000
0000
0010
0000
1000
0100
1000
0100
0010
0000
0000
0000
,
0001
1000
0010
1000
0001
0010
0001
0000
,
1000
0010
0100
0001
1000
0000
0001
0000
1000
0001
0010
0100
1000
0000
0000
0000
,
0001
0100
0001
1000
0100
1000
0001
0100
,
0010
1000
0010
0100
0001
0000
0100
0000
0001
1000
0010
1000
0001
0000
0000
0000
,
0010
0100
0001
1000
0100
0010
0001
0000
,
1000
0100
1000
0001
0100
0000
0001
0000
1000
0001
1000
0010
0100
0000
0000
0000
,
0110
0100
0010
0100
0001
1000
0001
1000
,
0100
0010
0100
0010
0001
0000
1000
0000
0001
0100
0001
0100
0010
0000
1000
0000
,
0001
0100
0001
0100
0010
1000
0010
1000
,
0100
0010
0100
0010
0001
0000
1000
0000
0001
1000
0001
1000
0100
0000
0010
0000
,
0001
0001
1000
0001
0100
0100
0010
1000
,
0001
0100
0001
0100
0010
0000
1000
0000
0010
1000
0010
1000
0001
0000
0100
0000
,
0010
0010
0100
0010
1000
0100
0010
0001
,
0010
0001
0010
0001
1000
0000
0001
0000
0100
0010
0100
0010
1000
0000
0001
0000
,
1000
0000
1001
1000
0001
0100
0001
1000
,
0100
0000
0010
0000
0001
0000
1000
0001
1000
0000
0010
0000
0100
0000
0001
0000
,
1000
0001
0000
0001
1000
0001
0100
0010
,
1000
0000
0100
0000
0010
0000
0002
0000
0013
0001
0010
0001
0100
0000
0001
0000
,
1000
0010
0000
0010
1000
0100
1000
0001
,
0100
0000
0001
0000
1000
0000
0001
0000
0100
0000
0010
0000
1000
0000
0010
0100
,
0010
1000
0001
1000
0001
0100
1000
0100
,
0001
0000
1000
0000
0100
0000
1000
0000
0001
0000
0010
0000
1000
0000
0010
0001
,
0010
0000
0001
0000
1000
0001
1000
0000
0001
0000
0100
0001
0100
0000
0010
0000
,
1000
0000
0010
0100
0010
0000
1000
0000
0001
0000
0100
0010
0100
0000
0001
0000
,
1000
0000
0001
0000
1000
0001
1000
0000
0010
0000
0100
0000
0010
0000
0000
0000
,
1000
0000
0001
1000
0001
0000
0100
0010
0100
0000
0010
0000
0110
0000
0100
0000
,
0001
1000
1001
1000
0001
1000
0010
0000
,
0100
0001
0100
0001
1000
0000
0010
0000
1000
0100
1000
0100
0010
0000
0000
0000
,
0001
0000
1000
0010
1000
0000
0010
0000
0100
0000
0001
0000
0010
0000
0000
0000
,
0010
0001
0100
0010
1000
0000
0001
0000
1000
0100
0010
0001
1000
0000
0000
0000
,
0001
0100
0001
1000
0100
1000
0001
0100
,
0010
1000
0010
0100
0001
0000
0100
0000
0001
1000
0010
1000
0001
0000
0000
0000
,
0010
0100
0000
0001
0100
0010
1000
0001
,
1000
0100
1000
0001
0100
0000
0001
0000
1000
0001
1000
0001
0100
0000
0000
0000
;
