#TITLE:Windows XP Theme but it's an rpg soundtrack;
#SUBTITLE:(full version);
#ARTIST:Artisan;
#TITLETRANSLIT:;
#SUBTITLETRANSLIT:;
#ARTISTTRANSLIT:;
#GENRE:;
#CREDIT:DJSuperNOVA;
#MUSIC:WinXP RPG OST.ogg;
#BANNER:banner.png;
#BACKGROUND:bliss.png;
#CDTITLE:;
#SAMPLESTART:1.751;
#SAMPLELENGTH:20.187;
#SELECTABLE:YES;
#OFFSET:0.492;
#BPMS:0.000=214.000;
#STOPS:;
#BGCHANGES:;
#FGCHANGES:;

//--------------- dance-single - DJSuperNOVA ----------------
#NOTES:
     dance-single:
     DJSuperNOVA:
     Beginner:
     2:
     0,0,0,0,0:
0000
0000
0000
0000
,
0000
0000
0000
0000
,
0000
0000
0000
0000
,
0000
0000
0000
0000
,
0000
0000
0000
0000
,
0001
0000
0000
0000
,
0000
0000
1000
0000
,
0000
0000
0000
0000
,
0100
0000
0000
0000
,
0000
0000
0100
0000
,
0000
0000
0000
0000
,
0010
0000
0000
0000
,
0000
0000
0010
0000
,
0000
0000
0000
0000
,
1000
0000
0000
0000
,
0000
0000
1000
0000
,
0000
0000
0000
0000
,
0001
0000
0000
0000
,
0000
0000
0001
0000
,
0000
0000
0000
0000
,
1001
0000
0000
0000
,
0000
0000
1000
0000
,
0000
0000
0000
0000
,
0001
0000
0000
0000
,
0000
0000
0001
0000
,
0000
0000
0000
0000
,
0110
0000
0000
0000
,
0000
0000
0100
0000
,
0000
0000
0000
0000
,
0010
0000
0000
0000
,
0000
0000
0010
0000
,
0000
0000
0000
0000
,
0001
0000
0000
0001
,
0000
0000
0001
0000
,
0000
0000
0000
0000
,
1000
0000
0000
1000
,
0000
0000
1000
0000
,
0000
0000
0000
0000
,
1000
0000
0000
0001
,
0000
0000
1000
0000
,
0000
0000
0000
0000
,
0001
0000
0000
1000
,
0000
0000
0001
0000
,
0000
0000
0000
0000
,
0000
0000
0000
0000
,
0000
0000
0010
0000
,
0000
0000
0000
0000
,
0010
0000
0000
0000
,
0000
0000
1000
0000
,
0000
0000
0000
0000
,
1000
0000
0000
0000
,
0000
0000
0001
0000
,
0000
0000
0000
0000
,
0001
0000
0000
0000
,
0000
0000
1000
0000
,
0000
0001
0000
0000
,
0100
0000
0000
0000
,
0000
0000
0000
0000
,
0000
0000
0000
0000
,
1000
0000
0000
1000
,
0000
0000
0001
0000
,
0000
0001
0000
0000
,
1000
0000
0000
0001
,
0000
0000
2000
0000
,
0000
3000
0000
0000
,
0001
0000
0000
0001
,
0000
0000
1000
0000
,
0000
1000
0000
0000
,
0001
0000
0000
1000
,
0000
0000
0002
0000
,
0000
0003
0000
0000
,
0100
0000
0000
0100
,
0000
0000
0100
0000
,
0000
0100
0000
0000
,
0010
0000
0000
0010
,
0000
0000
0010
0000
,
0000
0010
0000
0000
,
0100
0000
0000
0100
,
0000
0000
0010
0000
,
0000
0010
0000
0000
,
0100
0000
0000
0010
,
0000
0000
0100
0000
,
0000
0010
0000
0000
,
0000
0000
0000
0000
,
0000
0000
0100
0000
,
0000
0100
0000
0000
,
0001
0000
0000
0000
,
0000
0000
0100
0000
,
0000
0100
0000
0000
,
1000
0000
0000
0000
,
0000
0000
0001
0000
,
0000
0100
0000
0000
,
1000
0000
0000
0000
,
0000
0000
1000
0000
,
0000
0100
0000
0000
,
0001
0000
0000
0000
,
0000
0000
0000
0000
,
0000
0000
0000
0000
,
1001
0000
0000
0000
;

//--------------- dance-single - DJSuperNOVA ----------------
#NOTES:
     dance-single:
     DJSuperNOVA:
     Easy:
     4:
     0,0,0,0,0:
0000
0000
0000
0000
,
0000
0000
0000
0000
,
0000
0000
0000
0000
,
0000
0000
0000
0000
,
0000
0000
0000
0000
,
1000
0000
0000
0000
,
0000
0000
1000
0000
,
0000
0000
0000
0000
,
0001
0000
0000
0001
,
0000
0000
0001
0000
,
0000
0001
0000
0000
,
1000
0000
0000
1000
,
0000
0000
1000
0000
,
0000
1000
0000
0000
,
0010
0000
0000
0100
,
0000
0000
0010
0000
,
0000
0100
0000
0000
,
1000
0000
0000
0001
,
0000
0000
1000
0000
,
0000
0001
0000
0000
,
1000
0000
0000
0001
,
0000
0000
2002
0000
,
0000
3003
0000
0000
,
0001
0000
0000
1000
,
0000
0000
2002
0000
,
0000
3003
0000
0000
,
0010
0000
0000
0100
,
0000
0000
0220
0000
,
0000
0330
0000
0000
,
0100
0000
0000
0010
,
0000
0000
0220
0000
,
0000
0330
0000
0000
,
1000
0000
0000
0001
,
0000
0000
1000
0000
,
0000
0000
0000
0000
,
0001
0000
0000
1000
,
0000
0000
0001
0000
,
0000
0000
0000
0000
,
1000
0000
0000
0100
,
0000
0000
0001
0000
,
0000
0000
0000
0000
,
0001
0000
0000
0100
,
0000
0000
2000
0000
,
0000
0000
0000
0000
,
3001
0000
0000
0000
,
0000
0000
1000
0000
,
0000
0001
0000
0000
,
0100
0000
0000
0000
,
0000
0000
0001
0000
,
0000
1000
0000
0000
,
0100
0000
0000
0000
,
0000
0000
1000
0000
,
0000
0001
0000
0000
,
0010
0000
0000
0000
,
0000
0000
0001
0000
,
0000
1000
0000
0000
,
0020
0000
0000
0000
,
0000
0000
0030
0000
,
0000
0000
0000
0000
,
1000
0000
0000
0001
,
0000
0000
0100
0000
,
0000
0010
0000
0000
,
1000
0000
0000
0100
,
0000
0000
0020
0000
,
0000
0030
0000
0000
,
0001
0000
0000
1000
,
0000
0000
0100
0000
,
0000
0010
0000
0000
,
0001
0000
0000
1000
,
0000
0000
0200
0000
,
0000
0300
0000
0000
,
0001
0000
0000
0100
,
0000
0000
0001
0000
,
0000
0100
0000
0000
,
1000
0000
0000
0100
,
0000
0000
1000
0000
,
0000
0100
0000
0000
,
0010
0000
0000
0001
,
0000
0000
0100
0000
,
0000
1000
0000
0000
,
0100
0000
0000
0001
,
0000
0000
0010
0000
,
0000
1000
0000
0000
,
0000
0000
0000
0000
,
0000
0000
0001
0000
,
0000
1000
0000
0000
,
0100
0000
0000
0000
,
0000
0000
1000
0000
,
0000
0001
0000
0000
,
0100
0000
0000
0000
,
0000
0000
0001
0000
,
0000
1000
0000
0000
,
0010
0000
0000
0000
,
0000
0000
1000
0000
,
0000
0001
0000
0000
,
0020
0000
0000
0000
,
0000
0000
0030
0000
,
0000
0000
0000
0000
,
1001
0000
0000
0000
;

//--------------- dance-single - DJSuperNOVA ----------------
#NOTES:
     dance-single:
     DJSuperNOVA:
     Medium:
     9:
     0,0,0,0,0:
0000
0000
0000
0000
,
0000
0000
0000
0000
,
0000
0000
0000
0000
,
0000
0000
0000
0000
,
0000
0000
0000
0000
,
1000
0001
1000
0001
,
0100
0010
2000
0000
,
0000
0000
3000
0000
,
0001
0000
1000
0100
,
0000
0100
0010
0000
,
0010
0001
0000
0001
,
1000
0000
1000
0001
,
0000
0001
0100
0000
,
0100
0001
0000
0001
,
0010
0000
0010
1000
,
0000
1000
0100
0000
,
0100
1000
0000
1000
,
0010
0000
0010
0001
,
0000
0001
1000
0001
,
1000
0100
0010
0001
,
1000
0100
0001
0001
,
0100
1000
1000
0010
,
0001
0001
0010
1000
,
0001
0100
1000
1000
,
0100
0001
0001
0010
,
1000
1000
0010
0001
,
1000
0100
1000
0001
,
0100
0001
1000
0100
,
1000
0001
0100
0001
,
1000
0010
1000
0001
,
0010
0001
1000
0010
,
1000
0001
0010
0001
,
1000
0100
0010
0110
,
0010
0001
0100
0010
,
1000
1010
0010
0100
,
0001
0010
0100
0110
,
0100
1000
0010
0100
,
0001
0101
0100
0010
,
1000
0100
0010
0110
,
0010
0001
0100
0010
,
1000
1010
0010
0100
,
0001
0010
0100
0110
,
0100
1000
0100
0010
,
0001
0011
0010
0100
,
1000
0000
0000
0000
,
0000
0000
0001
0000
,
0000
1000
0000
0000
,
0100
0000
0000
0000
,
0000
0000
1000
0000
,
0000
0001
0000
0000
,
0100
0000
0000
0000
,
0000
0000
1000
0000
,
0000
0100
0000
0000
,
0010
0000
0000
0000
,
0000
0000
0001
0000
,
0000
0100
0000
0000
,
0020
0000
0000
0000
,
0000
0000
1030
0100
,
0001
0001
0100
1000
,
2001
0100
3100
0020
,
0001
0031
0200
0010
,
0310
2000
0001
3001
,
0200
0010
0310
0002
,
0100
0103
0020
1000
,
1030
0100
0010
0110
,
0020
0001
0031
0002
,
0100
0103
0200
0010
,
0310
0020
1000
1030
,
1000
0100
0001
1001
,
0001
0100
0010
1000
,
0100
0110
0010
0001
,
1001
0100
0010
0001
,
0100
0010
1000
0100
,
0010
0001
0100
0010
,
0001
0100
0010
1000
,
0100
0010
0001
0100
,
0010
1000
0100
0010
,
0110
0100
0001
0101
,
0100
0010
0110
0100
,
0010
1010
1000
0100
,
1100
0100
0010
0110
,
0100
0010
0011
0001
,
0100
0110
0010
0100
,
0000
0000
0000
0000
,
0000
0000
0001
1000
,
0000
0100
0000
1000
,
0001
0000
0000
0000
,
0000
0000
1000
0001
,
0000
0100
0000
0001
,
1000
0000
0000
0000
,
0000
0000
0010
0100
,
0000
0001
0000
0100
,
0010
0000
0000
0000
,
0000
0000
0100
0010
,
0000
1000
0000
0010
,
0100
0000
0000
0001
,
0000
0000
0100
0000
,
0000
0010
0000
0000
,
1000
0000
0000
0000
;

//--------------- dance-single - DJSuperNOVA ----------------
#NOTES:
     dance-single:
     DJSuperNOVA:
     Hard:
     12:
     0,0,0,0,0:
0000
0000
0000
0000
,
0000
0000
0000
0000
,
0000
0000
0000
0000
,
0000
0000
0000
0000
,
0000
0000
0000
0000
,
1000
0001
0010
0200
,
0000
2300
0002
0000
,
0000
3003
0000
0000
,
1000
0001
0010
0100
,
0000
0100
1000
0010
,
0100
0001
0000
0001
,
1000
0001
0010
0100
,
0000
0100
0010
0001
,
0100
0010
0000
1000
,
0001
0100
0001
1000
,
0100
1000
0010
0100
,
0001
1000
0000
0001
,
1000
0100
1000
0001
,
0100
0001
0010
0100
,
1000
0100
0010
0001
,
0011
0000
0001
0100
0000
0100
0010
0000
,
1000
0000
0100
0000
1100
0000
1000
0100
,
0000
0100
0010
0000
0001
0000
0100
0000
,
1001
0000
0001
1000
0000
1000
0100
0000
,
0010
0000
0001
0000
0011
0000
0100
0010
,
0000
0010
0100
0000
1000
0000
0001
0000
,
1000
0000
0100
1000
0000
1000
0002
0000
,
0000
0000
0103
0000
0001
0000
0010
0001
,
0000
0001
0200
0000
0000
0000
0310
0000
,
1000
0000
0100
0010
0000
0010
0001
0000
,
0100
0002
2000
0000
,
3003
1000
0100
0010
,
0110
0000
0100
0000
0001
1000
0001
0000
,
0100
0000
1000
0100
2000
0000
0100
0000
,
0100
3100
0010
0001
,
0011
0001
0100
0001
,
1000
0100
0010
0000
0002
0000
0100
0000
,
0103
0000
1000
0000
0100
1000
0100
0000
,
2000
0001
3001
0100
,
0010
1000
0002
1000
,
1003
0100
0010
0001
,
1000
0100
1000
0000
0100
0000
0001
0100
,
0001
1000
0020
0100
,
0130
0110
0010
0010
,
0000
0000
0000
1000
,
0100
0000
0010
0000
0001
0000
0010
0001
,
0000
0100
0000
0010
,
1000
0000
0000
0000
,
0000
0000
1000
0100
0010
0000
0100
0010
,
0000
0000
0001
0000
0000
0100
0010
0000
,
1000
0000
0000
0000
,
0000
0000
0001
0100
0010
0000
1000
0010
,
0000
0100
0000
0010
,
1000
0000
0000
0000
,
0000
0000
1000
0100
0010
0000
0100
0010
,
0000
0000
0001
0000
0000
1000
0001
0000
,
0020
0000
0000
0000
,
0000
0000
0031
0100
,
0010
1000
0100
0010
,
1001
0000
1000
0001
1000
0000
1001
0000
,
0001
0000
0100
0000
0101
0000
0001
0100
,
0001
0110
1000
0100
,
1100
0000
1000
0100
1000
0000
0011
0000
,
0001
0000
0010
0000
0110
0000
0010
0100
,
0010
1010
0100
0010
,
0011
0000
0001
0100
0010
0000
0110
0000
,
1000
0000
0100
0000
0110
0000
1000
0100
,
0010
0101
1000
0001
,
1001
0000
0010
1000
0100
0000
1100
0000
,
0001
0000
0100
0000
0101
0000
0010
0001
,
0100
0110
0010
1000
,
1001
0000
1000
0100
1000
0000
1001
0000
,
0001
0100
0001
0000
1001
0000
1000
0010
,
1000
0000
1001
0000
0001
0010
0001
0000
,
0110
0000
0010
0001
0010
0000
0110
0000
,
0100
1000
0100
0000
0110
0000
0100
0001
,
0100
0000
0110
0000
0010
1000
0010
0000
,
0101
0000
1000
0100
1000
0000
1010
0000
,
0001
0100
0001
0000
1100
0000
0010
0100
,
0010
0000
0011
0000
1000
0010
1000
0000
,
0110
0000
0001
1000
0001
0000
1001
0000
,
0100
0010
0100
0000
0011
0000
1000
0100
,
0010
0000
1010
0000
0001
0100
0010
0000
,
0000
0000
0000
0000
,
0000
0000
0000
0000
0001
0000
1000
0100
,
0000
0010
1000
0001
,
0100
0000
0000
0000
,
0000
0000
1000
0100
1000
0000
0001
0100
,
0000
0000
0010
0000
0000
1000
0100
0000
,
0001
0000
0000
0000
,
0000
0000
0100
0010
0001
0000
1000
0100
,
0000
1000
0000
0010
,
0100
0000
0000
0000
,
0000
0000
0100
1000
0001
0000
0100
0010
,
0000
0000
1000
0000
0000
0100
0010
0000
,
0001
0000
0000
1000
,
0000
0000
0001
0000
,
0000
0100
0000
0000
,
0010
0000
0000
0000
;

//--------------- dance-single - DJSuperNOVA ----------------
#NOTES:
     dance-single:
     DJSuperNOVA:
     Challenge:
     15:
     0,0,0,0,0:
0000
0000
0000
0000
,
0000
0000
0000
0000
,
0000
0000
0000
0000
,
0000
0000
0000
0000
,
0000
0000
0000
0000
0000
0000
1000
0100
,
0020
0032
0203
0320
,
0000
1030
0002
0000
2000
0000
0000
0000
,
0000
0000
3003
0000
,
1001
0000
1000
0100
0010
0000
0110
0000
,
0001
0100
0001
1000
,
0100
0010
0001
0000
0101
0000
0100
0010
,
1000
0000
0100
0000
0010
0001
0010
0000
,
0100
1000
0100
0000
1010
0000
0100
0000
,
0001
0010
0100
1000
,
1001
0000
1000
0100
0010
0000
0110
0000
,
0001
0100
1010
1000
,
0010
1000
0010
0000
0100
0000
0001
0100
,
0001
0000
1000
0001
1000
0000
1001
0000
,
0100
0001
0010
0000
0110
0000
0100
0000
,
1000
0100
1000
0000
0001
0100
0001
0000
,
1001
0000
0001
0010
0100
1000
0001
0000
,
0101
0000
1001
0000
1000
0100
0010
0100
,
1000
0001
0100
0000
0110
0000
0101
0000
,
0100
0010
0001
0010
0100
0010
1000
0001
,
0100
0010
1000
0100
1000
0000
1100
0000
,
1010
0001
0101
0011
,
1000
0001
0010
0100
1000
0100
0010
0000
,
0011
0000
0101
0000
0100
0001
0100
0010
,
1000
0100
0010
0000
0110
0000
1010
0000
,
1000
0100
0001
0100
1000
0100
0010
0100
,
1000
0100
0010
0001
2000
0000
0000
0000
,
0000
0001
0001
3001
,
1001
0000
0100
0000
1000
0100
0010
0100
,
0001
0100
0010
0100
2000
0000
0000
0000
,
0000
3100
0010
0110
,
0002
0000
0000
1003
0010
0000
0200
0000
,
0000
0301
0010
0000
0001
0000
0001
1000
,
0001
1000
0001
0000
1001
0000
1100
0000
,
2000
0000
3010
0200
,
0000
0301
0020
0000
,
0000
1030
0100
0010
,
0001
0000
0100
0000
0001
0000
0100
0000
0010
0000
1000
0100
1000
0000
0100
0000
,
0010
0001
0100
0010
1000
0100
1000
0100
,
1000
0010
0100
0001
0100
0001
0010
0100
,
1000
0000
0000
1000
,
0100
0000
0010
0000
0001
0000
0100
0001
,
0000
0010
0100
0010
,
2000
0000
0000
0000
,
0000
0000
3100
0010
0001
0000
1000
0001
,
0000
0000
0010
0000
0000
0100
1000
0000
,
0020
0000
0000
0000
,
0030
0000
0100
0001
0010
0000
0100
0010
,
0000
1000
0100
0010
,
2000
0000
0000
0000
,
0000
0000
3001
0100
0010
0000
1000
0010
,
0000
0000
0100
0000
0000
0001
1000
0000
,
0020
0000
0000
0000
,
0030
0000
0000
0000
0001
0100
1000
0100
,
1000
0100
0001
0100
1000
0100
1000
0100
,
0001
0000
1000
0100
0010
0100
1000
0000
,
1001
0000
0110
0000
1001
0000
0001
0100
,
0010
0100
0001
0000
0101
0000
1010
0000
,
0101
0000
1000
0001
0100
0001
1000
0000
,
0011
0000
1100
0000
0011
0000
0100
0001
,
1000
0001
0100
0000
1001
0000
0110
0000
,
1100
0000
0001
0010
0100
1000
0001
0000
,
1010
0000
0100
0000
0110
0000
1000
0100
,
0010
0001
1000
0000
0101
0000
0100
0000
,
1100
0000
0010
0100
0001
1000
0100
0000
,
0110
0000
0001
0000
0101
0000
1000
0100
,
0010
0001
1000
0000
0011
0000
0010
0000
,
0001
0100
0010
0100
0001
1000
0100
0010
,
0100
1000
0001
0100
0010
0100
0001
1000
,
0100
0010
0100
1000
0001
0100
0010
1000
,
0100
0010
0100
0010
0001
0100
0010
0100
,
0010
1000
0100
0010
0100
0010
0001
1000
,
0100
1000
0001
0100
0001
0010
0100
1000
,
0001
1000
0100
0010
0100
1000
0001
0010
,
0001
1000
0100
0010
1000
0010
0100
1000
,
0001
0100
0001
0010
0100
1000
0100
0010
,
1000
0100
1000
0010
0100
0001
0010
0001
,
0010
0100
1000
0001
0100
0010
1000
0100
,
1000
0100
0010
0001
1000
0001
0010
0100
,
0000
0000
0000
0000
,
0000
0000
0000
0000
0001
0000
1000
0100
,
0000
1000
0000
0001
,
1000
0000
0001
0100
0001
0000
0100
0000
,
0000
0000
0001
0100
0010
0000
1000
0010
,
0000
0000
1000
0000
0000
0100
0010
0000
,
0001
0000
1000
0100
1000
0000
0001
0000
,
0100
0000
1000
0000
0001
0000
0100
0001
,
0000
0010
1000
0010
,
0100
0000
0001
0100
0001
0000
0010
0000
,
1000
0100
1000
0000
0001
0000
1000
0100
,
0000
1000
0000
0001
,
0100
0010
0001
1000
,
0100
0010
0100
0010
,
0001
0100
0010
0100
,
0020
0000
0000
0000
,
0030
0000
0000
0000
;
