#TITLE:WANNABE;
#SUBTITLE:;
#ARTIST:ITZY;
#TITLETRANSLIT:;
#SUBTITLETRANSLIT:;
#ARTISTTRANSLIT:;
#GENRE:;
#CREDIT:DJSuperNOVA;
#MUSIC:WANNABE.ogg;
#BANNER:WANNABE.png;
#BACKGROUND:WANNABE-bg.png;
#CDTITLE:;
#SAMPLESTART:49.570;
#SAMPLELENGTH:15.738;
#SELECTABLE:YES;
#OFFSET:-0.390;
#BPMS:0.000=122.000;
#STOPS:;
#BGCHANGES:;
#FGCHANGES:;

//--------------- dance-single - DJSuperNOVA ----------------
#NOTES:
     dance-single:
     DJSuperNOVA:
     Beginner:
     2:
     0,0,0,0,0:
0000
0000
0000
0000
,
0001
0000
0000
0000
,
1000
0000
0000
0000
,
0100
0000
0000
0000
,
0100
0000
1000
0000
,
0001
0000
0000
0000
,
1000
0000
0000
0000
,
0010
0010
0000
0000
,
0020
0000
0030
0000
,
1000
0000
1000
0000
,
0001
0000
0001
0000
,
1000
0000
0001
0000
,
0100
0000
0000
0000
,
0010
0000
0010
0000
,
0100
0000
0100
0000
,
0001
0000
1000
0000
,
0001
0000
1000
0000
,
1001
0000
0000
0000
,
1001
0000
0000
0000
,
0001
0000
1000
0000
,
0010
0000
0010
0000
,
1000
0000
1000
0000
,
0001
0000
0001
0000
,
1000
0000
0001
0000
,
0100
0000
0010
0000
,
1001
0000
1000
0000
,
1000
1000
1000
0000
,
0001
0000
0100
0000
,
0001
0000
0001
1000
,
0001
0000
1000
0000
,
0001
0001
0001
0000
,
1000
0000
0100
0000
,
1000
0000
0001
1000
,
0001
0001
0001
0000
,
1000
0000
1000
0000
,
0010
0000
0010
0000
,
0100
0000
0001
0100
,
0001
0000
0001
0000
,
1000
0000
0010
0000
,
0100
0000
0100
0000
,
0001
0000
1000
0000
,
2002
0000
0000
3003
,
1000
0000
0001
0000
,
0000
1000
0001
0000
,
0100
0000
0010
0000
,
0000
0100
0010
0000
,
1000
0000
1000
0000
,
0001
0000
0001
0000
,
0100
0000
0001
0000
,
1000
0000
0100
0000
,
1000
0000
0000
0000
,
0010
0010
0010
0010
,
1000
0000
1000
0000
,
0001
0000
0001
0000
,
0100
0000
0100
0000
,
0010
0000
0010
0000
,
1000
0000
0001
0000
,
1000
0000
0001
0000
,
1001
0000
1000
0000
,
1000
1000
1000
0000
,
0001
0000
0100
0000
,
0001
0000
0001
1000
,
0001
0000
1000
0000
,
0001
0001
0001
0000
,
1000
0000
0100
0000
,
1000
0000
0001
1000
,
0001
0001
0001
0000
,
1000
0000
1000
0000
,
0010
0000
0010
0000
,
0100
0000
0001
0100
,
0001
0000
0001
0000
,
1000
0000
0010
0000
,
0100
0000
0100
0000
,
0001
0000
1000
0001
,
2002
0000
0000
3003
;

//--------------- dance-single - DJSuperNOVA ----------------
#NOTES:
     dance-single:
     DJSuperNOVA:
     Easy:
     5:
     0,0,0,0,0:
0000
0000
0000
0000
,
0010
0000
0010
0000
,
1000
0000
1000
0000
,
0001
0000
0001
0000
,
0000
0000
1000
0000
,
0010
0000
0010
0000
,
0001
0000
0001
0000
,
1000
2002
0000
0000
,
3003
0000
0000
0001
,
1000
0010
1010
0000
,
0001
0010
0011
0000
,
1000
1000
0001
0001
,
0100
0000
0001
1000
,
1001
0100
0001
0000
,
1000
1000
0001
0001
,
1001
0100
0010
0010
,
0001
0100
0010
1000
,
1001
0000
0000
1000
0000
0000
1000
0000
,
0001
0000
0000
0001
0000
0000
0001
0000
,
0100
0000
0000
0100
0000
0000
0100
0000
,
0010
0000
0000
0010
0000
0000
0010
0000
,
1000
0100
0001
0001
,
0000
1000
0010
0010
,
0000
0100
0001
0100
,
1000
0100
0010
0010
,
1001
1000
0001
0001
,
1000
0001
1000
0000
,
0010
0100
0100
0010
,
0100
0000
0000
0000
0001
0000
0000
0000
0010
0000
0000
0010
0000
0000
0010
0000
,
0000
0001
1000
1000
,
0001
1000
0001
0000
,
0010
0100
0100
0010
,
0100
0000
0000
0000
1000
0000
0000
0000
0010
0000
0000
0010
0000
0000
0010
0000
,
0000
1000
0100
0001
,
0001
0000
0000
0000
0001
0000
1000
1000
,
0000
0000
0001
0001
0000
0000
0001
0000
,
1000
0000
0000
0000
0100
0000
0000
0000
0010
0000
0000
0010
0000
0000
0010
0000
,
0000
0001
0100
1000
,
1000
0000
0000
0000
0100
0000
0001
0001
,
0000
0000
1000
1000
0000
0000
0001
0000
,
0010
0000
0000
0000
0100
0000
0000
0000
0010
0000
0000
0010
0000
0000
0020
0000
,
0000
0000
0000
0030
,
0001
1000
1000
0001
,
0001
0100
0110
0000
,
0010
0010
1000
1000
,
0100
0010
1001
0000
,
0001
0100
0001
0000
,
1000
0100
1000
0000
,
0010
0100
0010
0010
,
0100
0100
0010
1001
,
0100
0000
0000
0000
,
0010
0010
0110
1001
,
1000
0100
1000
0000
,
0001
0100
0001
0001
,
1000
1000
0001
0000
,
0001
0001
0100
0000
,
0010
0010
0100
0010
,
0001
1000
0001
0010
,
0110
0100
0010
0010
,
0100
0010
0100
0000
,
0001
1000
1000
0001
,
1000
0000
0000
0000
0100
0000
0000
0000
0010
0000
0000
0010
0000
0000
0010
0000
,
0000
0001
1000
1000
,
0001
1000
0001
0000
,
0010
0100
0100
0010
,
0100
0000
0000
0000
0100
0000
0000
0000
0010
0000
0000
0010
0000
0000
0010
0000
,
0000
0001
0100
1000
,
1000
0000
0000
0000
0001
0000
1000
1000
,
0000
0000
0001
0001
0000
0000
0001
0000
,
1000
0000
0000
0000
0100
0000
0000
0000
0010
0000
0000
0010
0000
0000
0010
0000
,
0000
0001
0100
1000
,
1000
0000
0000
0000
0100
0000
0001
0001
,
0000
0000
1000
1000
0000
0000
0001
0000
,
0010
0000
0000
0000
0100
0000
0000
0000
0010
0000
0000
0010
0000
0000
0010
0000
,
0000
1000
0001
0010
,
0100
0000
0000
0000
;

//--------------- dance-single - DJSuperNOVA ----------------
#NOTES:
     dance-single:
     DJSuperNOVA:
     Medium:
     9:
     0,0,0,0,0:
0000
0000
0000
0000
,
0001
1000
0000
0000
0100
0000
0000
0000
,
1000
0001
0000
0000
0100
0000
0000
0000
,
0010
1000
0000
0000
0100
0000
0000
0000
,
1000
0000
0100
0000
1000
0001
1000
0100
,
0010
0001
0000
0000
0100
0000
0000
0000
,
0001
1000
0000
0000
0100
0000
0000
0000
,
0010
0002
2000
0000
3003
1000
0020
0000
,
0200
0000
0330
0001
,
1001
0000
1000
0010
0100
0000
0010
0000
,
0100
0000
0001
0010
0100
0000
0010
0000
,
0001
0000
0000
0001
0000
0000
1000
0000
0001
0000
0010
0000
0100
0000
1000
0000
,
0001
0000
1000
0001
1000
0010
0100
0010
,
0100
0000
0100
0010
1000
0000
0101
0000
,
0001
0000
0000
0010
0000
0000
0100
0000
0000
0000
0010
0000
0100
0000
1000
0000
,
0001
0000
1000
0001
1000
0001
0100
0010
,
0000
0010
1000
0001
0100
0001
1000
0000
,
1001
0000
0000
0000
0010
0000
0000
0000
0100
0000
0000
0110
0000
0000
0000
0000
,
1001
0000
0000
0000
1000
0000
0001
0000
1000
0000
0000
1001
0000
0000
0000
0000
,
0001
0000
1000
0000
0001
0000
0100
0000
0010
0000
0000
0010
0000
0000
1000
0000
,
0100
0000
1000
0000
0100
0000
0010
0000
0001
0000
0000
0001
0000
1000
0000
0001
,
0000
1000
1000
0000
0001
0100
0001
0000
,
1000
0100
1000
0000
0010
0100
0010
0000
,
1000
0100
0010
0001
1000
0000
0001
0100
,
0001
0000
0000
0100
0000
0010
0000
1000
0000
0000
0000
0000
1001
0000
0000
0000
,
0110
0000
0010
0001
0100
0001
1000
0000
,
0001
0000
0000
0001
0000
0000
0001
0000
0000
0000
1000
0000
0010
0000
1000
0000
,
0000
0000
0010
0100
0001
1000
0001
0200
,
0000
0000
0310
0000
0100
0000
0010
0000
1000
0000
0000
1000
0000
0000
0001
0000
,
1000
0000
0010
1000
0010
1000
0001
0010
,
0001
0000
0000
0001
0000
0000
0001
0000
0000
0000
1000
0000
0010
0000
1000
0000
,
0000
0001
0100
0001
0010
0100
1000
0100
,
1000
0000
0010
0000
0100
0000
0001
0000
1000
0000
0000
1000
0000
0000
0001
0000
,
1000
0000
0010
1000
0010
0100
0001
1000
,
0100
0000
0000
0100
0000
0000
0010
0000
0001
0000
0010
0000
0001
0000
1000
0000
,
0000
1000
0001
1000
0000
0010
0100
0000
,
0110
0000
0000
0000
0010
0000
1000
0000
0001
0000
0000
0001
0000
0000
1000
0000
,
0100
0000
0010
0001
0010
0001
1000
0010
,
0100
0000
0000
0100
0000
0000
0001
0000
0010
0000
0001
0000
1000
0000
0010
0000
,
0000
1000
0010
1000
0000
0010
0100
0000
,
0110
0000
0000
0000
0010
0000
1000
0000
0001
0000
0000
0001
0000
0000
1000
0000
,
0200
0000
0000
0300
,
1000
0001
1000
0000
1001
0000
0100
0000
,
0010
0001
0011
1100
,
0001
0100
0001
0000
0101
0000
0010
0000
,
1000
0010
0110
1001
,
0110
0000
1000
0001
0100
0010
0000
0010
,
1000
0000
0000
0001
0000
0000
1000
0000
0001
0000
0010
0000
0100
0000
0000
0000
,
0110
0010
1001
1000
,
0001
0100
0010
1000
0001
0000
0100
0000
,
1001
0000
0000
0000
,
1000
0000
1000
0000
0001
0100
0001
1000
,
0001
0000
0001
1000
0100
0000
0100
0000
,
1000
0000
0000
1000
0000
0000
0010
0000
0100
0000
0001
0000
0100
0000
0001
0000
,
1000
0000
0000
0000
0001
0000
0000
0000
0010
0000
0000
0010
0000
0000
0100
0000
,
0010
0100
0010
0001
1000
0000
1001
0000
,
0001
0000
0000
0000
0101
0000
0000
0000
0100
0000
0000
0100
0000
0000
0010
0000
,
1000
1010
0100
1001
,
0110
0000
0010
0001
0100
0001
1000
0000
,
0001
0000
0000
0010
0000
0000
0001
0000
0000
0000
1000
0000
0010
0000
1000
0000
,
0000
0000
0010
0100
0001
1000
0001
0200
,
0000
0000
0310
0000
0100
0000
0010
0000
1000
0000
0000
1000
0000
0000
0001
0000
,
1000
0000
0010
1000
0100
1000
0001
0010
,
0001
0000
0000
1000
0000
0000
0001
0000
0000
0000
1000
0000
0010
0000
1000
0000
,
0000
0001
0100
0001
0010
0100
1000
0010
,
1000
0000
0010
0000
0100
0000
0001
0000
1000
0000
0000
1000
0000
0000
0001
0000
,
1000
0000
0010
1000
0100
1000
0001
1000
,
0100
0000
0000
0100
0000
0000
0010
0000
0001
0000
0010
0000
0001
0000
1000
0000
,
0000
1000
0001
1000
0000
0010
0100
0000
,
0100
0000
0001
0000
0010
0000
0100
0000
1000
0000
0000
0001
0000
0000
1000
0000
,
0100
0000
0010
0001
0100
0001
1000
0010
,
0100
0000
0000
0100
0000
0000
0001
0000
0010
0000
0001
0000
1000
0000
0010
0000
,
0000
1000
0010
1000
0000
0010
0100
0000
,
0110
0000
0000
0000
0010
0000
1000
0000
0001
0000
0000
0001
0000
0000
1000
0000
,
0100
0000
0000
0000
0100
0000
1000
0000
0001
0000
0000
0001
0000
0000
1000
0000
,
0001
0000
0000
0000
;

//--------------- dance-single - DJSuperNOVA ----------------
#NOTES:
     dance-single:
     DJSuperNOVA:
     Hard:
     12:
     0,0,0,0,0:
0000
0000
0000
0000
,
0001
1000
0000
0000
0100
0000
2000
0000
,
3010
0100
0000
0000
0001
0000
0200
0000
,
0310
1000
0000
0000
0100
0000
2000
0000
,
3001
0000
1000
0000
0100
0010
0001
1000
,
0010
0100
0000
0000
0001
0000
0200
0000
,
0301
1000
0000
0000
0100
0000
2000
0000
,
3001
1000
0010
0000
0000
0010
0200
0000
,
0020
0000
0000
0000
0330
0000
0000
0000
0010
0000
1000
0000
0001
1000
0001
0000
,
0100
0000
0000
0000
0100
0000
0001
0000
1000
0000
0100
1000
0100
0000
0010
0000
,
0100
0000
0000
0000
0100
0000
0010
0000
0100
0000
0010
0001
0010
0000
0001
0000
,
1000
0000
0010
1000
0000
0010
0100
0000
0001
0000
0010
0000
0100
0000
1000
0000
,
0100
0000
0000
0000
0100
0000
1000
0000
0100
0000
0010
0001
0010
0000
0001
0000
,
0100
0000
0000
0000
0101
0000
0001
0000
1000
0000
0100
0000
0010
0000
0001
0010
,
0001
0000
0001
0100
0000
0100
0010
0000
1000
0000
0001
0000
1000
0000
0100
0000
,
0010
0000
0110
0010
0001
1000
0001
0010
,
0100
0000
1000
0000
0010
0000
0100
0000
0001
0000
1000
0001
0000
1000
0000
0000
,
1001
0000
0000
0000
0110
0000
0000
0000
1010
0000
0000
1010
0000
0000
0000
0000
,
0001
0100
0000
0000
0010
0000
1000
0000
0001
1000
0000
1001
0000
0000
0100
0000
,
0001
0000
1000
0000
0010
0000
1000
0000
0001
0100
0000
0010
0000
0000
1000
0000
,
0100
0000
1000
0000
0100
0000
0010
0000
0001
0010
0000
0001
0000
0100
0000
0001
,
0000
1000
1000
0000
0001
0001
0100
0000
,
0100
0001
1000
0000
1000
1000
0010
0000
,
0100
0001
0010
0100
1000
0000
1001
0000
,
1000
0100
0000
0010
0000
0100
0000
1000
0001
0000
0000
0000
0110
0000
0000
0000
,
1001
0000
0001
0100
0001
1000
0010
0100
,
0001
0000
0000
0100
0001
0000
1000
0000
0100
0000
1000
0000
0010
0000
0100
0000
,
0010
0000
0000
0010
1000
0000
0001
0000
1000
0000
0100
0000
0010
0000
0100
0000
,
1000
0000
0001
0000
0100
0001
0100
0000
0010
0000
0000
0100
0000
0000
0010
0000
,
1010
0000
0010
1000
0100
1000
0001
0100
,
0010
0000
0000
0100
0010
0000
1000
0000
0100
0000
1000
0000
0100
0000
0010
0000
,
0001
0010
0001
1000
0001
0010
0100
0010
,
0001
0000
1000
0000
0010
0100
0010
0000
0100
0000
0000
0100
0000
0000
0010
0000
,
0110
0000
0010
1000
0010
0100
0010
1000
,
0001
0000
0000
0001
0000
0000
1000
0000
0001
0000
0100
0000
0010
0000
1000
0000
,
0000
0100
0010
0001
0000
1000
0001
1000
,
0100
0000
0010
0000
0001
0010
0001
0000
1000
0000
0000
1000
0000
0000
0001
0000
,
1001
0000
0010
0001
0010
0100
0010
0001
,
1000
0000
0000
1000
0000
0000
0001
0000
1000
0000
0100
0000
0010
0000
0001
0000
,
0000
0100
0010
1000
0000
0001
1000
0001
,
0100
0000
0010
0000
1000
0010
1000
0000
0001
0000
0000
0001
0000
0000
1000
0000
,
0200
0000
0000
1000
0000
0000
1000
0000
0000
1000
0000
0000
0310
0000
0000
0000
,
0011
0010
0001
0100
1000
0100
0001
0010
,
0100
0010
0001
0100
0010
1000
0010
0000
,
1010
0010
1000
0100
0001
0100
1000
0010
,
0100
0010
1000
0001
0100
0001
0000
1000
,
1001
0000
0001
0100
0010
1000
0000
1000
,
0001
0000
0001
0100
0000
0100
0010
0000
1000
0000
0100
0000
0010
0000
0100
0000
,
1000
1000
0010
0100
0001
0001
0010
0100
,
1000
0100
1000
0010
0100
0001
1000
0000
,
1001
0000
0000
0000
,
0001
0000
1000
0000
0010
0100
0110
0010
,
1000
0000
0001
1000
0001
0000
1000
0000
0100
0000
0010
0000
0001
0000
0100
0000
,
0010
0000
0010
1000
0000
1000
0001
0000
0100
0000
0001
0000
1001
0000
1000
0001
,
1000
0000
0000
0000
1100
0000
0000
0000
0110
0000
0000
0010
0100
0000
0010
0000
,
0001
0000
0100
0000
0001
0000
1000
0000
0010
0000
1000
0010
1000
0000
0010
0000
,
0100
0000
0000
0000
0101
0000
0100
0000
0010
1000
0000
0010
0000
0000
0100
0000
,
0001
0000
0000
0000
1000
0000
0100
0000
0010
0001
0000
0010
0000
0000
0000
0000
,
1001
0000
0001
0100
0001
1000
0010
0100
,
0001
0000
0000
0010
0001
0000
1000
0000
0010
0000
0100
0000
0001
0000
0100
0000
,
0010
0000
0000
0010
1000
0000
0001
0000
1000
0000
0100
0000
0010
0000
0100
0000
,
1000
0000
0001
0000
0100
0001
0100
0000
0010
0000
0000
0100
0000
0000
0010
0000
,
1010
0000
0010
1000
0100
1000
0100
0010
,
0001
0000
0000
0001
0100
0000
0010
0000
1000
0000
0100
0000
1000
0000
0100
0000
,
0010
0100
1000
0010
0100
0001
0100
0010
,
1000
0000
0001
0000
0010
0100
0010
0000
0100
0000
0000
0010
0000
0000
0010
0000
,
0110
0000
0010
0001
0010
0100
0010
0001
,
1000
0000
0000
1000
0000
0000
0001
0000
1000
0000
0100
0000
0010
0000
0001
0000
,
0000
0100
0010
1000
0000
0001
1000
0001
,
0100
0000
0010
0000
1000
0010
1000
0000
0001
0000
0000
0001
0000
0000
1000
0000
,
1001
0000
0010
1000
0010
0100
0010
1000
,
0001
0000
0000
0001
0000
0000
1000
0000
0001
0000
0100
0000
0010
0000
1000
0000
,
0000
0100
0010
0001
0000
1000
0001
1000
,
0100
0000
0010
0000
0001
0010
0001
0000
1000
0000
0000
1000
0000
0000
0001
0000
,
0100
0000
0000
0000
0100
0000
0010
0000
0100
0000
0000
0100
0000
0000
0010
0000
,
1000
0000
0000
0000
;
