#TITLE:Toss A Coin To Your Witcher;
#SUBTITLE:(Model Nation Nightcore Remix);
#ARTIST:Original by dj-Jo feat. Zenpaku;
#TITLETRANSLIT:;
#SUBTITLETRANSLIT:;
#ARTISTTRANSLIT:;
#GENRE:;
#CREDIT:DJSuperNOVA;
#MUSIC:Toss A Coin To Your Witcher.ogg;
#BANNER:Toss a Coin to Your Witcher.png;
#BACKGROUND:Toss a Coin to Your Witcher-bg.png;
#CDTITLE:;
#SAMPLESTART:101.922;
#SAMPLELENGTH:15.863;
#SELECTABLE:YES;
#OFFSET:-0.302;
#BPMS:0.000=121.037;
#STOPS:;
#BGCHANGES:;
#FGCHANGES:;

//--------------- dance-single - seanstar12 ----------------
#NOTES:
     dance-single:
     seanstar12:
     Beginner:
     3:
     0,0,0,0,0:
0000
0000
0000
0000
,
0000
0000
0000
0000
,
0000
0000
0000
0000
,
0000
0000
0000
0000
,
0000
0000
0000
0000
,
0000
0000
0000
0000
,
1000
0000
0100
0000
,
0001
0000
0100
0000
,
1000
0000
1000
0000
,
0001
0000
0001
0000
,
0010
0000
1000
0000
,
0001
0000
0100
0000
,
0001
0000
0100
0000
,
1000
0000
0100
0000
,
0010
0000
0010
0000
,
0001
0000
1000
0000
,
0100
0000
1000
0000
,
0001
0000
0100
0000
,
1000
0000
1000
0000
,
0001
0000
0001
0000
,
1000
0000
0000
0010
,
0010
0000
1000
0000
,
1000
0000
0100
0000
,
0010
0000
0010
0000
,
0001
0000
1000
0000
,
0001
0000
0001
0000
,
0100
0000
1000
0000
,
2000
0000
0000
0000
,
0002
0000
0000
0000
,
0000
0000
3003
0000
,
1000
0000
0100
0000
,
0001
0000
0100
0000
,
0100
0000
0001
0000
,
0010
0000
1000
0000
,
0010
0010
0010
0000
,
0100
0100
0100
0000
,
0010
0000
0001
0000
,
1000
0000
0100
0000
,
0001
0000
0100
0000
,
1000
0000
0001
0000
,
1000
1000
1000
0000
,
0001
0001
0001
0000
,
1001
0000
1000
0000
,
0100
0000
1000
0000
,
0001
0000
0100
0000
,
0001
0000
0001
0000
,
1000
0000
0010
0000
,
1000
0000
0001
0000
,
0010
0000
0100
0000
,
1000
0000
0001
0000
,
2002
0000
0000
3003
,
0000
0010
0010
0010
,
0000
1000
0001
1000
,
0001
0000
0001
0000
,
1000
0000
1000
1000
,
0001
0000
0010
0000
,
0001
0000
0010
0000
,
1000
0001
1000
0001
,
2002
0000
0000
3003
,
1000
0000
0001
0000
,
0100
0000
0010
0000
,
0100
0100
0100
0000
,
0010
0010
0010
0000
,
0001
0000
0100
0000
,
1000
0000
0100
0000
,
0001
0001
0001
0000
,
1000
1000
1000
0000
,
1001
0000
1000
0000
,
0001
0000
0100
0000
,
0001
0001
1000
0000
,
1000
1000
0001
0000
,
0100
0000
0001
0000
,
1000
0000
0001
0000
,
0010
0010
0010
0000
,
0100
0100
0100
0000
,
1001
0000
0000
0000
;

//--------------- dance-single - seanstar12 ----------------
#NOTES:
     dance-single:
     seanstar12:
     Easy:
     5:
     0,0,0,0,0:
0000
0000
0000
0000
,
0000
0000
0000
0000
,
0000
0000
0000
0000
,
0000
0000
0000
0000
,
0001
0000
0000
0000
,
1000
0000
0001
0000
,
1000
0000
0010
0000
,
0100
0100
0010
0000
,
0100
0000
0001
0000
,
0001
0000
1000
0100
,
0001
0000
0001
0000
,
1000
0100
0001
0001
,
1000
0000
0001
0100
,
1000
0000
0001
0010
,
1000
0000
1000
0100
,
0010
0010
0001
1000
,
0001
0000
1000
0010
,
0001
0000
0001
0010
,
0100
0000
0100
0010
,
0001
1000
0100
0100
,
0010
0000
0100
0010
,
1001
0000
0001
0000
,
1000
0000
0100
0000
,
0001
0000
0100
0000
,
1000
0000
0010
0100
,
1001
0000
1000
0000
,
0100
0000
1000
0000
,
0001
0000
0100
0000
,
2000
0000
0002
0000
,
3003
0000
0000
0000
,
1001
0100
0001
0000
,
0100
0001
1000
1000
,
0001
0000
1000
0100
,
0010
0010
0001
0100
,
0110
0100
1001
0000
,
1000
0010
0100
0001
,
1001
0000
0001
0100
,
1000
0000
1000
0100
,
0001
0000
1000
0001
,
1000
1000
0001
0100
,
1001
0100
0110
0010
,
0001
1000
0110
0100
,
1001
0000
1000
0100
,
0001
0000
0001
0010
,
1000
0100
1000
0001
,
0010
0010
1000
1000
,
0001
0000
0001
0100
,
1000
0000
1000
0010
,
0001
0000
1000
0001
,
0010
0100
0010
0001
,
1000
0100
0001
0100
,
0010
1001
0001
0100
,
1000
1000
0010
0001
,
1000
0010
1000
1010
,
0010
0001
0100
0101
,
0002
1003
0010
0010
,
0100
0100
0010
0001
,
0011
0100
1100
0010
,
0210
0000
0000
0310
,
1001
0110
0001
1000
,
0001
0100
1000
0100
,
0110
0001
1000
0010
,
0100
0001
0010
0110
,
1000
1000
0001
0001
,
1000
0100
0001
0100
,
1000
1000
0010
0010
,
0100
0100
0001
0001
,
1001
0110
0010
0100
,
1000
0001
0010
0010
,
0001
0100
0010
1010
,
0010
0100
0001
1001
,
1000
0000
0001
0000
,
0010
0010
0100
0100
,
0001
0100
1000
0100
,
0010
0010
0100
0100
,
0010
0000
0000
0000
;

//--------------- dance-single - seanstar12 ----------------
#NOTES:
     dance-single:
     seanstar12:
     Medium:
     8:
     0,0,0,0,0:
0000
0000
0000
0000
,
0000
0000
0000
0000
,
0000
0000
0000
0000
,
0000
0000
0000
0000
,
0001
0000
0000
0000
,
1000
0000
0100
0000
,
0010
0000
0000
0000
0001
0010
0001
0000
,
0100
0000
0000
0000
1000
0010
1000
0000
,
0100
0000
0000
0000
0010
0001
0010
0000
,
0001
0000
1000
0001
,
0100
0000
0000
0000
0001
0100
0001
0000
,
1000
0000
0000
0000
0001
0010
0100
0000
,
1001
0000
0000
0000
0010
1000
0100
0000
,
0010
0000
0000
0100
0010
0001
0100
0000
,
0010
0000
0000
0000
1000
0100
1000
0010
,
0000
0100
0000
0001
0010
0001
0100
0000
,
0010
0000
0000
0000
0000
0000
0000
0000
0001
0000
0000
0100
0010
0100
0000
0000
,
0010
0000
0000
0000
1000
0100
0010
0000
,
0010
0000
0000
0001
0100
0001
0100
0010
,
0100
0000
0000
0000
0010
1000
0001
1000
,
0001
0000
0000
0010
0100
0000
0110
0000
,
1001
0000
1000
0100
0010
0000
0100
0010
,
0001
0100
0000
0100
0001
0010
0100
0000
,
0001
0000
1000
0000
0010
0100
0010
0000
,
1000
0000
0001
0000
1000
0001
1000
0000
,
0110
0000
0001
0100
0010
0000
1000
0010
,
1000
0001
0000
1000
0001
0010
0100
0000
,
0010
0100
0010
0100
,
2002
0000
0000
0000
,
3003
0000
0000
0100
,
1001
0000
0000
0000
0001
0010
0100
1000
,
0001
0000
0000
0000
1000
0010
0100
0001
,
1000
0000
0000
0000
1000
0010
0100
0010
,
0000
1000
0000
0100
0010
0001
1000
0001
,
1000
0001
1001
1000
,
0001
0100
0010
0100
,
1001
0000
0000
0000
0010
0100
1000
0001
,
0100
0000
0000
0000
0010
0100
0001
1000
,
0100
0000
0000
0100
1000
0001
0010
0001
,
0000
1000
0000
0000
1000
0010
0100
0001
,
1000
0100
0110
0010
,
0001
0010
0100
1000
,
1001
0000
0000
0000
0001
0100
1000
0000
,
0001
0000
0000
0000
1000
0100
0010
0000
,
0001
0000
1000
0100
1000
0001
0100
0001
,
0000
1000
0000
0001
1000
0100
0010
0000
,
0001
0000
0000
0000
0000
0000
0000
0000
0010
0000
0001
0000
0100
0001
0000
0100
,
0000
0000
0000
0000
0000
0000
0100
0000
0010
0000
0000
0010
1000
0000
0000
1000
,
0001
0000
0000
1000
0010
0100
0001
1000
,
0000
0100
0000
1000
0010
1000
0010
0000
,
0100
0100
0010
0010
,
0200
0000
0310
1000
0100
0000
1000
0001
,
1000
0010
0000
0010
0100
0001
1000
0000
,
0010
1010
0001
0011
,
1000
0010
1000
0010
1000
0100
1000
0000
,
0002
0000
1003
0100
0010
0000
0001
0100
,
0010
1000
0000
1000
1000
0001
0010
0000
,
0001
1000
1001
0010
,
0220
0000
0000
0330
,
1001
0000
0001
0100
0010
1000
0100
0010
,
0001
1000
0000
1000
0001
0010
0100
0000
,
0001
1001
0100
0110
,
0010
0001
0010
0001
0100
0001
0100
0000
,
1001
0000
1000
0001
0100
0000
0100
0001
,
1000
0001
0000
1000
0001
0010
0100
0000
,
0001
0001
1000
1000
,
0010
0010
0100
0110
,
0010
0000
1000
0100
0010
0010
0001
0100
,
0001
0100
0000
0010
1000
0100
1000
0000
,
1000
1100
0001
0101
,
0010
0100
1000
0100
0010
0001
0010
0000
,
0110
0000
0001
0100
0010
0000
1000
0100
,
0010
0001
0000
1000
0001
0100
0010
0000
,
0001
1000
0001
1000
0001
1000
0001
0000
,
0010
0100
0010
0100
0010
0100
0010
0000
,
0110
0000
0000
0000
;

//--------------- dance-single - seanstar12 ----------------
#NOTES:
     dance-single:
     seanstar12:
     Hard:
     11:
     0,0,0,0,0:
0000
0000
0000
0000
,
0000
0000
0000
0000
,
0000
0000
0000
0000
,
0000
0000
0000
0000
,
0000
0000
0000
0000
,
0010
0000
1000
0000
,
0001
0000
0000
0000
1000
0000
0001
0000
0010
0000
0000
0001
0010
0000
0100
0000
,
1000
0000
0000
1000
0001
0010
0100
1000
,
0100
1000
0000
0001
0100
0010
1000
0100
,
0001
0100
1000
0100
0010
0001
0100
0001
,
1000
0000
0000
0000
0001
1000
0001
1000
,
0010
0100
0010
0100
0001
1000
0100
1000
,
0010
0000
0000
0000
0100
0001
0010
0001
,
0100
0000
0000
1000
0100
0001
0100
1000
,
0010
0000
0000
0001
0100
0001
0010
0100
,
0010
0001
0000
0010
0001
0100
1000
0100
,
0001
0000
0000
0000
0000
0000
0000
0000
0100
0000
0000
0010
1000
0010
0000
0000
,
1010
0000
0000
0000
0000
0000
0000
1000
0100
0000
0010
0000
0001
0000
0100
0000
,
0001
0000
0000
0001
0010
0001
1000
0100
,
1000
0000
0000
0000
0010
0000
0000
1000
0010
0000
0100
0000
0001
0000
1000
0000
,
0001
0000
0000
0100
0010
0001
1000
0000
,
1001
0000
1000
0100
0010
0000
0010
0001
,
0100
0001
0000
1000
0001
0010
0100
1000
,
0001
1000
0001
1000
0010
1000
0100
1000
,
0001
1000
0001
0100
0010
1000
0100
0010
,
0001
0000
1000
0100
0010
0000
0001
0100
,
0010
1000
0000
1000
0010
0100
0001
0010
,
0100
0010
0100
0010
1000
0010
0100
0010
,
0001
0010
0100
1000
0002
0000
0000
0000
,
0003
0000
0000
0000
0000
0000
0001
0010
,
0100
0000
0000
0100
0000
0000
0100
0000
0010
0000
0001
0000
0010
0000
0001
0000
,
1000
0000
1000
0000
0010
1000
0100
1000
,
0010
0000
0000
0100
0000
0000
0010
0000
1000
0000
0010
0000
0100
0000
0001
0000
,
0000
1000
0000
0001
0010
0100
1000
0001
,
1000
0100
0010
0100
0001
0100
0010
0001
,
1000
0000
0010
0000
0100
0000
0010
0000
1000
0000
0000
0010
1000
0000
0000
1000
,
0001
0000
0000
0100
0000
0000
0001
0000
0010
0000
0100
0000
0010
0000
0001
0000
,
1000
0000
1000
0000
0010
0100
0001
0100
,
0010
0000
0000
0010
0000
0000
0010
0000
1000
0000
0100
0000
1000
0000
0001
0000
,
1000
0001
0000
0100
0001
0100
1000
0100
,
0010
0000
0000
1000
0010
0000
0100
0001
0100
0000
0000
0001
0000
0000
0010
0000
,
0100
0000
0000
0010
0000
0000
0100
0000
1000
0001
0000
1000
0001
0000
0000
0100
,
0010
0000
0000
0010
0000
0000
0000
0000
0001
0000
0010
0000
0100
0000
1000
0000
,
0001
0000
0000
0000
0100
0010
1000
0010
,
0100
0000
0000
0010
0100
0000
0001
0000
0010
0000
0001
0000
0100
0000
0010
0000
,
0000
1000
0010
0000
0000
0000
1000
0000
0001
0000
0010
0000
0100
0000
1000
0000
,
0001
0000
0000
0001
0000
0000
0000
0000
1000
0000
0010
0000
0100
0010
0000
0010
,
0100
0000
0000
0000
0000
0000
0001
0000
0100
0000
0000
0010
1000
0000
0000
1000
,
0001
0000
0000
0001
0000
0000
1000
0000
0001
0000
0010
0000
0001
0000
1000
0000
,
0100
1000
0000
1000
0010
0001
0010
1000
,
0001
0010
0001
0010
0000
0000
0100
1000
0100
1000
0000
0000
,
1001
0000
1000
0100
0010
0000
0100
0010
,
0001
1000
0000
0001
1000
0010
0100
0001
,
1000
0100
1000
0100
0010
0001
0010
0001
,
1000
0010
0001
0010
0100
0001
0100
0001
,
0010
0000
0001
1000
0100
0000
1000
0100
,
1000
0001
0000
1000
0001
1000
0001
0100
,
0010
0000
1001
0000
,
0220
0000
0000
0330
,
1001
0000
1000
0100
0010
0100
0010
0001
,
1000
0100
0000
0100
1000
0010
0100
0001
,
1000
0100
1000
0001
1000
0100
0010
0001
,
0100
0001
1000
0001
0100
0001
0010
0100
,
0010
0000
0010
0001
0100
0000
0100
0010
,
1000
0010
0000
0100
0001
0100
0010
1000
,
0001
0100
0001
0100
0000
0000
1000
0100
1000
0100
0000
0000
,
0010
0100
0010
0100
0000
0000
0001
1000
0001
1000
0000
0000
,
1001
0000
0000
0000
0010
0000
1000
0100
0000
0000
0100
0000
0010
0001
0000
0000
,
0100
0010
0000
0000
1000
0000
0001
1000
0000
0000
1000
0000
0001
0000
0000
0000
,
1001
0000
0001
0100
1000
0000
0001
0010
,
1000
0000
0000
0000
0000
0000
1000
0000
0000
0001
0000
0000
0100
0000
0000
0010
0000
0000
1000
0000
0100
0000
0010
0000
,
0001
0000
0001
1000
0010
0000
1000
0001
,
0010
0001
0000
1000
0001
0010
0100
1000
,
0010
0010
0100
0100
0001
0001
1000
1000
,
0001
0100
0001
0100
0001
0100
0001
0010
0100
1000
0000
0000
,
1001
0000
0000
0000
;
