#TITLE:Think;
#SUBTITLE:;
#ARTIST:Kaleida;
#TITLETRANSLIT:;
#SUBTITLETRANSLIT:;
#ARTISTTRANSLIT:;
#GENRE:;
#CREDIT:raikohtech;
#MUSIC:Think.ogg;
#BANNER:Think.png;
#BACKGROUND:Think-bg.png;
#CDTITLE:;
#SAMPLESTART:59.219;
#SAMPLELENGTH:27.826;
#SELECTABLE:YES;
#OFFSET:-0.089;
#BPMS:0.000=138.000;
#STOPS:;
#BGCHANGES:;
#FGCHANGES:;

//--------------- dance-single - raikohtech, DJSuperNOVA ----------------
#NOTES:
     dance-single:
     raikohtech, DJSuperNOVA:
     Easy:
     7:
     0,0,0,0,0:
0000
0000
0000
0000
,
0000
0000
0000
0000
,
0010
0000
0000
0010
0000
0000
0100
0000
,
1000
0000
0000
1000
0000
0000
0100
0000
,
0001
0000
0000
0001
0000
0000
0100
0000
,
0010
0000
0000
0010
0000
0000
0100
0000
,
0001
0000
0000
0001
0000
0000
1000
0000
,
1001
0000
0000
0100
,
0110
0000
0000
0010
0000
0000
0001
0000
,
1000
0000
0000
1000
0000
0000
0001
0000
,
0011
0000
0000
0010
0000
0000
0100
0000
,
1000
0000
0000
0001
0000
0000
1000
0000
,
1001
0000
0000
0100
0000
0000
0010
0000
,
0001
0000
0000
0001
0000
0000
0100
0000
,
0110
0000
0000
0010
0000
0000
1000
0000
,
1010
0000
0000
0010
,
0110
0000
0000
0100
0000
0000
0001
0000
,
1000
0000
0000
0100
0000
0000
1000
0000
,
1010
0000
0000
0010
0000
0000
0100
0000
,
0001
0000
0000
0001
0000
0000
1000
0000
,
1001
0000
0000
0010
0000
0000
0100
0000
,
1000
0000
0000
0100
0000
0000
0010
0000
,
0011
0000
0000
0001
0000
0000
1000
0000
,
0110
0002
0000
0003
,
1001
0010
0100
1000
,
0100
1000
0001
0000
,
0100
0001
0010
0100
,
1000
0001
1001
1000
,
0010
0010
0100
0100
,
0001
0010
0100
1000
,
1001
0001
1000
0100
,
0010
0001
2002
3003
,
0001
0000
1000
1000
0000
0000
1000
0000
,
0100
0000
0010
0010
0000
0000
0010
0001
,
0010
1001
1000
0100
,
0010
0011
0001
0010
,
0001
0100
0010
1000
,
1001
1000
0010
0010
,
0100
1001
0010
0100
,
1100
0100
0010
0001
,
0011
0100
0010
1000
,
1001
0001
0100
0010
,
0110
0100
0100
0001
,
2000
3001
0001
0100
,
0020
0130
0010
1000
,
0002
1003
0100
0010
,
0001
1001
0100
1000
,
0100
0011
0010
0001
,
1001
0010
0100
0010
,
0110
0010
1000
0001
,
1001
0000
0000
0000
0001
0000
0000
0010
,
0000
0100
0000
0000
1000
0000
0001
0000
,
1001
0000
0000
0100
0000
0000
0100
0000
,
1000
0000
0000
0001
0000
0000
0010
0000
,
1001
0000
0000
0100
0000
0000
0010
0000
,
0010
0000
0000
0100
0000
0000
1000
0000
,
1001
0000
0000
0010
0000
0000
0100
0000
,
0010
0000
0000
0001
0000
0000
1000
0000
,
1001
0000
0000
0010
0000
0000
0100
0000
,
0110
0020
0000
0030
,
1001
0010
0100
1000
,
0100
1000
0001
0000
,
0100
0001
0010
0100
,
1000
0001
1001
1000
,
0010
0010
0100
0100
,
0001
0010
0100
1000
,
1001
0001
1000
0100
,
0010
0001
2002
3003
,
1001
0000
0000
0001
0000
0000
1000
0000
,
1100
0000
0000
0010
0000
0000
0100
0000
,
0110
1001
1000
0100
,
0010
0110
0001
0010
,
0001
0100
0010
1000
,
1001
1000
0010
0010
,
0100
1001
0010
0100
,
1000
1100
0010
0001
,
1000
0001
0010
1000
,
1001
0001
0100
0010
,
0110
0100
0100
0001
,
2000
3001
0001
0100
,
0020
0130
0010
1000
,
0002
1003
0100
0010
,
0001
1001
0100
1000
,
0100
0110
0001
1000
,
1001
1000
0010
0100
,
0110
0010
1000
0001
,
1001
0000
0000
1000
0000
0000
0001
0000
,
0100
0000
0000
0100
0000
0000
0001
0000
,
0110
0000
0000
0010
0000
0000
0100
0000
,
1000
0000
0000
0001
0000
0000
1000
0000
,
1001
0000
0000
0001
0000
0000
0010
0000
,
0010
0000
0000
0100
0000
0000
0010
0000
,
0011
0000
0000
0001
0000
0000
1000
0000
,
0001
0000
0000
0100
0000
0000
0010
0000
,
1001
0000
2000
3000
0000
0000
0001
0000
,
1000
0000
0020
0030
0000
0000
0010
0000
,
0100
0000
0002
0003
0000
0000
1000
0000
,
0001
0000
0200
0300
0000
0000
0100
0000
,
0001
0000
2000
3000
0000
0000
1000
0000
,
0001
0000
0020
0030
0000
0000
0010
0000
,
0001
0000
0200
0300
0000
0000
0100
0000
,
0001
0000
1000
0001
0000
0000
0100
0000
,
0110
1001
0001
0100
,
0010
0110
0010
1000
,
0100
0010
0001
1000
,
1001
0001
0010
0100
,
1000
1001
0100
0010
,
0001
0011
0001
0100
,
0010
1000
1010
0010
,
0100
0001
0010
0100
,
0110
0010
0001
1000
,
0200
1300
0001
0100
,
0020
1030
0001
0010
,
0200
1300
0001
1001
,
0010
0110
0100
0001
,
1000
1010
0010
0100
,
0001
0010
0100
1000
,
1001
0001
0100
0010
,
0110
0000
0000
0010
0000
0000
1000
0000
,
0001
0000
0000
0001
0000
0000
0010
0000
,
0110
0000
0000
0100
0000
0000
1000
0000
,
0001
0000
0000
1000
0000
0000
0100
0000
,
0110
0000
0000
0010
0000
0000
0001
0000
,
1000
0000
0000
0010
0000
0000
0100
0000
,
0110
0000
0000
0010
0000
0000
0001
0000
,
1000
0000
0000
0001
0000
0000
0100
0000
,
1001
0001
0010
0100
,
2000
3100
0010
0001
,
0200
0310
1000
0001
,
0020
0031
1000
0100
,
0010
0011
0001
0100
,
0010
1010
0010
0100
,
0001
1000
0100
0010
,
0011
0001
1000
0001
;

//--------------- dance-single - raikohtech, DJSuperNOVA ----------------
#NOTES:
     dance-single:
     raikohtech, DJSuperNOVA:
     Medium:
     9:
     0,0,0,0,0:
0000
0000
0000
0000
,
0000
0000
0000
0000
,
0001
0000
0000
0001
0000
0000
1000
0000
,
0010
0000
0000
0010
0000
0000
0100
0000
,
0110
0000
0000
0010
0000
0000
0001
0000
,
1001
0000
0000
0100
0000
0000
1000
0000
,
1001
0000
0000
0010
0000
0000
0100
0000
,
0110
0000
0000
0010
0000
0010
0001
0000
,
1001
0000
0000
0001
0100
0000
0010
0000
,
1010
0000
0000
1000
0000
0001
0100
0000
,
0110
0000
0000
1000
0000
0100
1000
0000
,
0001
0000
0000
0100
0000
0001
0010
0000
,
0110
0000
0000
0100
0000
1000
0001
0000
,
1001
0000
0000
0100
0000
0010
0001
0000
,
0011
0000
0000
0001
0000
1000
0100
0000
,
1100
0000
0000
0000
0000
0100
1000
0000
,
0001
0000
0000
1000
0001
1000
0001
0000
,
0100
0000
0000
0010
0100
0010
0100
0000
,
0001
0000
0000
1000
0100
1000
0100
0000
,
0001
0000
0000
0100
0001
0100
0001
0000
,
1000
0000
0000
0010
0100
0010
0100
0000
,
0001
0000
0000
0001
0010
0001
0010
0000
,
0100
0000
0000
0100
1000
0100
1000
0000
,
0010
0220
0000
0330
,
1001
0000
0001
1000
0000
1000
0001
0000
,
0100
0010
0110
0100
,
0001
0000
1000
0100
0000
0100
0010
0000
,
0001
0010
0110
0100
,
1000
0000
0001
0100
0000
0100
0001
0000
,
1000
0010
1010
0000
,
0001
0000
0100
0001
0000
1000
0010
0000
,
0100
0001
1001
0001
,
0010
0000
0100
0100
0000
0000
0100
0000
,
1001
0000
0010
0010
0000
0000
0010
0000
,
1001
0000
0110
0000
0000
0001
1000
0000
,
1010
0000
1000
0100
0000
0100
1000
0000
,
1100
0000
0100
0010
0000
0010
0001
0000
,
0011
0000
0001
1000
0000
0001
0100
0000
,
0010
0000
0110
0000
0000
0010
1000
0000
,
1001
0000
0100
0001
0000
1000
0001
0000
,
0101
0000
0010
1000
0000
0001
0100
0000
,
0110
0000
0010
1000
0001
1000
0001
0000
,
0110
0000
1000
0000
0001
0100
0001
0000
,
0010
0000
0100
1000
0100
0000
1000
0000
,
0010
0000
0100
0001
0100
0000
0010
0000
,
1000
0000
0001
1000
0001
0000
0100
0000
,
0110
0000
1001
0000
0000
0001
1000
0000
,
0100
0000
0010
0001
0000
0001
0010
0000
,
0110
0000
0100
1000
0000
0001
1000
0000
,
0010
0000
0100
0010
0100
0010
0100
0000
,
0001
1000
0000
1000
0001
0000
0000
1000
,
0100
1000
0000
0000
0001
0100
0001
0000
,
1001
0000
0000
0001
0000
0001
1000
0000
,
0010
0000
0000
0010
0000
1000
0100
0000
,
0010
0000
0000
0010
0000
0001
0100
0000
,
0001
0000
0000
0010
0000
0100
1000
0000
,
1001
0000
0000
0100
0000
0010
0001
0000
,
1000
0000
0000
0001
0000
0010
0100
0000
,
0110
0000
0000
0010
0000
0001
1000
0000
,
0010
0220
0000
0330
,
1001
0000
0001
1000
0000
1000
0001
0000
,
0100
0010
0110
0100
,
0001
0000
1000
0100
0000
0100
0010
0000
,
0001
0010
0110
0100
,
1000
0000
0001
0100
0000
0100
0001
0000
,
1000
0010
1010
0000
,
0001
0000
0100
0001
0000
1000
0010
0000
,
0000
0001
0000
1000
0001
0000
1001
0000
,
0010
0000
0100
0100
0000
0000
0100
0000
,
1001
0000
0010
0001
1000
0000
0001
0000
,
1001
0000
0110
0000
0000
0001
1000
0000
,
1010
0000
1000
0100
0000
0100
1000
0000
,
1100
0000
0100
0010
0000
0010
0001
0000
,
0011
0000
0001
1000
0000
0001
0100
0000
,
0010
0000
0110
0000
0000
0010
1000
0000
,
1001
0000
0100
0001
0000
1000
0001
0000
,
0101
0000
0010
1000
0000
0001
0100
0000
,
0110
0000
0010
1000
0001
1000
0001
0000
,
0110
0000
1000
0000
0001
0100
0001
0000
,
0010
0000
0100
1000
0100
0000
1000
0000
,
0010
0000
0100
0001
0100
0000
0010
0000
,
1000
0000
0001
1000
0001
0000
0100
0000
,
0110
0000
1001
0000
0000
0001
1000
0000
,
0100
0000
0010
0001
0000
0001
0010
0000
,
0110
0000
0100
1000
0000
0001
1000
0000
,
0010
0000
0100
0010
0100
0010
0100
0000
,
0001
0000
0000
1000
0001
0000
0010
0000
,
0110
0000
0000
0100
1000
0000
0100
0000
,
1100
0000
0000
0100
0010
0000
0001
0000
,
0011
0000
0000
0001
1000
0000
0010
0000
,
0110
0000
0000
0100
0000
0001
1000
0000
,
1001
0000
0000
0001
0000
0010
0100
0000
,
0110
0000
0000
1000
0000
0010
0100
0000
,
0110
0000
0000
0100
0000
0001
1000
0000
,
1001
0000
0001
0001
0000
1000
1000
0000
,
0010
0000
0100
0100
0000
0001
0001
0000
,
1000
0000
0001
0001
0000
1000
1000
0000
,
0010
0000
0100
0100
0000
0010
0010
0000
,
1000
0000
0100
0100
0000
0010
0010
0000
,
0001
0000
1000
1000
0000
0001
0001
0000
,
0100
0000
0001
0001
0000
1000
1000
0000
,
0010
0000
0100
0010
0000
0010
0100
0000
,
1001
0000
0110
0000
0000
0001
1000
0000
,
1010
0000
1000
0100
0000
0100
1000
0000
,
1100
0000
0100
0010
0000
0010
0001
0000
,
0011
0000
0001
1000
0000
0001
0100
0000
,
0010
0000
0110
0000
0000
0010
1000
0000
,
1001
0000
0100
0001
0000
1000
0001
0000
,
0101
0000
0010
1000
0000
0001
0010
0000
,
0110
0000
0010
0100
0010
0100
0010
0000
,
0110
0000
0001
0000
0001
0100
0001
0000
,
0010
0000
0100
1000
0100
0000
1000
0000
,
0010
0000
0100
0001
0100
0000
0010
0000
,
1000
0000
0001
1000
0001
0000
0100
0000
,
0110
0000
1001
0000
0000
0001
1000
0000
,
0100
0000
0010
0001
0000
0001
0010
0000
,
0110
0000
0100
1000
0000
0001
1000
0000
,
0010
0000
0100
0010
0100
0010
0100
0000
,
0001
0000
1000
0001
0000
0000
0100
0000
,
0110
0000
0010
1000
0000
0000
0001
0000
,
0101
0000
0100
0010
0000
0010
1000
0000
,
0001
0000
0000
1000
0000
0100
0010
0000
,
0100
0000
0011
0000
0000
0010
0001
0000
,
1000
0000
0010
1000
0000
0000
1001
0000
,
0001
0000
0010
1000
0000
0000
0001
0000
,
1000
0000
0000
0100
0000
0010
0001
0000
,
0011
0000
0001
0000
1000
0100
1000
0000
,
0010
0000
0100
0001
0100
0000
0001
0000
,
0010
0000
0100
1000
0100
0000
0010
0000
,
0001
0000
1000
0001
1000
0000
0100
0000
,
0110
0000
1001
0000
0000
1000
0001
0000
,
0100
0000
0010
1000
0000
1000
0010
0000
,
0110
0000
0100
0001
0000
1000
0001
0000
,
0010
0000
0100
0010
0100
0010
0100
0000
;
