#TITLE:TURN IT UP;
#SUBTITLE:;
#ARTIST:TWICE;
#TITLETRANSLIT:;
#SUBTITLETRANSLIT:;
#ARTISTTRANSLIT:;
#GENRE:;
#CREDIT:DJSuperNOVA;
#MUSIC:TURN IT UP.ogg;
#BANNER:TURN IT UP.png;
#BACKGROUND:TURN IT UP-bg.png;
#CDTITLE:;
#SAMPLESTART:55.927;
#SAMPLELENGTH:18.000;
#SELECTABLE:YES;
#OFFSET:1.573;
#BPMS:0.000=120.000;
#STOPS:;
#BGCHANGES:;
#FGCHANGES:;

//--------------- dance-single - DJSuperNOVA ----------------
#NOTES:
     dance-single:
     DJSuperNOVA:
     Beginner:
     2:
     0,0,0,0,0:
0000
0000
0000
0000
,
0000
0000
0000
0000
,
0000
0000
0000
0000
,
0000
0000
0000
0000
,
0000
0000
0000
0000
,
0010
0000
0010
0000
,
0100
0000
0100
0000
,
0001
0000
1000
0000
,
0001
0001
0001
0000
,
1000
0000
1000
0000
,
0001
0000
0001
0000
,
0100
0000
0010
0000
,
1000
1000
1000
0000
,
0001
0000
1000
0000
,
0010
0010
0010
0000
,
0001
0001
0001
0000
,
1000
0000
1001
0000
,
2000
3000
0000
0000
0002
0003
0000
0000
,
1000
1000
1000
0000
,
0001
0000
0001
0000
,
1000
0000
1000
0000
,
0010
0000
0001
0000
,
1000
0000
0000
0000
,
0001
0000
1000
0000
,
0010
0000
0000
0000
,
1000
1000
1000
0000
,
0001
0001
0001
0000
,
0010
0000
0100
0000
,
2002
0000
3003
0000
,
1000
0000
1000
0000
,
0001
0000
0001
0000
,
0010
0010
0010
0000
,
0010
0010
0010
0000
,
1000
0000
0100
0000
,
0001
0000
0100
0000
,
0010
0010
0010
0000
,
0010
0010
0010
0000
,
2002
3003
0000
0000
,
1000
0000
0001
0000
,
1000
0000
0001
0000
,
0010
0010
0020
0030
,
1000
0000
1000
0000
,
0001
0000
0001
0000
,
0100
0000
0010
0000
,
1000
1000
0001
0001
,
0001
0000
1000
0000
,
0010
0010
0010
0000
,
1000
1000
1000
0000
,
0001
1000
0001
0000
,
0100
0000
0010
0000
,
1000
0000
0001
0000
,
0100
0100
0100
0000
,
0010
0010
0010
0000
,
1000
0000
0100
0000
,
0001
0000
0000
0000
,
0001
0000
0100
0000
,
1000
0000
0000
0000
,
1000
1000
1000
1000
,
0001
0001
0001
0001
,
0010
0000
0100
0000
,
2002
0000
3003
0000
,
1000
0000
1000
0000
,
0001
0000
0001
0000
,
0010
0010
0010
0000
,
0010
0010
0010
0000
,
1000
0000
0100
0000
,
0001
0000
0100
0000
,
0010
0010
0010
0000
,
0010
0010
0010
0000
,
2002
3003
0000
0000
;

//--------------- dance-single - DJSuperNOVA ----------------
#NOTES:
     dance-single:
     DJSuperNOVA:
     Easy:
     5:
     0,0,0,0,0:
0000
0000
0000
0000
,
0000
0000
0000
0000
,
0000
0000
0000
0000
,
0000
0000
0000
0000
,
0000
0000
0000
0010
,
1000
1000
0001
0000
,
0001
0001
0100
0000
,
0010
0000
0010
0000
,
1000
0001
1000
0000
,
0100
0100
0001
0000
,
0010
0010
1000
0000
,
1000
0000
0001
0000
,
1000
0001
0100
0001
,
1000
1000
1000
0000
,
0001
0001
0001
0000
,
0010
0010
0100
0100
,
0010
0100
1001
0000
,
1000
0000
0001
0000
,
1000
0001
1000
0100
,
0010
0010
0100
0100
,
0001
1000
1001
0000
,
2000
0000
3200
0000
,
0310
0000
0001
0100
,
0002
0000
0203
0000
,
0310
0000
1000
0001
,
1000
1000
1000
0000
,
0001
0001
0001
0000
,
0100
0010
0100
0000
,
1000
0100
0010
1001
,
1000
1000
0001
0001
,
1000
0010
1000
0000
,
0010
0010
0100
0100
,
0010
0100
0010
1001
,
1000
0100
0001
0100
,
1000
1000
0001
0000
,
0010
0010
0100
0100
,
0010
0100
0010
0000
,
0220
0330
0000
0000
,
1000
0100
0100
0000
,
0001
0100
0100
0000
,
1000
0001
1000
1001
,
1000
0100
1000
0000
,
0001
0100
0001
0000
,
1000
0100
0001
0100
,
1000
0000
0001
0100
,
0010
0010
0010
0000
,
1000
0001
1000
0000
,
0100
0100
0010
0010
,
1000
0001
1001
0000
,
0001
0000
1000
0000
,
0001
0001
1000
1001
,
1000
0100
0010
0001
,
1000
0100
0020
0030
,
2000
0000
3002
0000
,
0103
0000
0100
0001
,
2000
0000
3002
0000
,
0013
0000
0010
0001
,
1000
0000
0001
0000
,
0100
0000
0010
0000
,
1000
1000
0100
0000
,
0010
0010
0001
1001
,
1000
1000
0001
0001
,
1000
0001
1000
0000
,
0010
0010
0100
0100
,
0010
0100
0010
0110
,
0100
0010
1000
0001
,
1000
1000
0001
0000
,
0010
0010
0100
0100
,
0010
0100
0010
0100
,
0220
0330
0000
0000
;

//--------------- dance-single - DJSuperNOVA ----------------
#NOTES:
     dance-single:
     DJSuperNOVA:
     Medium:
     8:
     0,0,0,0,0:
0000
0000
0000
0000
,
0000
0000
0000
0000
,
0000
0000
0000
0000
,
0000
0000
0000
0000
,
0000
0000
0000
0000
,
1000
0000
1000
0000
0001
0100
0001
0000
,
0000
1000
0100
1000
0001
0000
0000
0000
,
0001
0000
0000
0001
0000
0000
0000
0000
1000
0000
0000
1000
0000
0000
0001
0000
,
0100
1000
0100
0110
,
0001
0000
0001
0000
1000
0100
1000
0000
,
0000
0001
0100
0001
1000
0000
0000
1000
,
0001
0000
0000
0001
0000
0000
0000
0000
1000
0000
0000
1000
0000
0000
0001
0000
,
1000
0000
0100
0000
0010
0001
1000
0000
,
1001
0000
1010
0000
0101
0000
0001
0100
,
0010
1000
0001
0100
,
0011
0000
1100
0000
0011
0000
1000
0100
,
0010
0000
0010
0100
0010
0000
1000
0000
,
0002
0103
2000
3100
,
0010
0001
0010
0000
0001
0000
1001
0000
,
1000
0000
1000
0000
0010
0100
0001
0000
,
1000
0001
2002
3003
,
1000
0100
1000
0100
,
0020
0000
0001
0031
,
0001
0100
0001
0100
,
0020
0000
1000
1030
,
0001
0000
0000
0001
0000
0000
0000
0000
1000
0000
0000
0000
1000
0000
0000
0000
,
0010
0000
0000
0001
0000
0000
0100
0000
0000
0000
0000
0000
0000
0000
0000
0000
,
1000
0010
1000
0000
0001
0010
0001
0000
,
0100
0010
0100
0010
0100
0000
0110
0000
,
1001
0000
0100
0000
0010
0100
0010
0000
,
1000
0000
0010
0000
0100
0000
0001
0000
0000
0000
1000
0000
0010
0000
0000
0010
,
0000
0000
0001
0000
0010
0000
0000
0010
0000
0000
1000
0000
0100
0000
0000
0010
,
0000
0000
0001
0000
0100
0000
0000
0010
0000
0000
0000
0000
1000
0000
0000
0000
,
0001
0000
1000
0000
0010
1000
0010
0000
,
1000
0000
0100
0000
1000
0000
0001
0000
0000
0000
1000
0000
0010
0000
0000
0010
,
0000
0000
0001
0000
0010
0000
0000
0010
0000
0000
1000
0000
0100
0000
0000
0010
,
0000
0001
0100
0000
0010
1000
0100
0000
,
0220
0330
0000
0001
,
1000
0000
1000
0100
0010
0000
0001
0000
,
1000
0000
0001
0100
0010
0000
1000
0000
,
0001
0000
0000
1000
0000
0000
0001
0000
1000
0000
0000
0000
0110
0000
0000
0000
,
1000
0000
1000
0000
0001
0000
0001
0000
1000
0000
0000
0001
0000
0000
1000
0000
,
0010
0000
0010
0000
0100
0000
0100
0000
0010
0000
0000
0100
0000
0000
0000
0000
,
0001
0000
0000
0001
0000
0000
0001
0000
1000
0000
0000
1000
0000
0000
1000
0000
,
0100
0010
0220
0330
,
1000
0001
1000
0001
1000
0000
0001
0100
,
0010
1000
0001
0100
,
1010
0000
0101
0000
0011
0000
1000
0100
,
0010
0000
0001
0100
0001
0000
1000
0000
,
0001
0000
0000
0001
0000
0000
1000
0000
0010
0000
0000
0000
0100
0000
0000
0000
,
0001
0000
0000
0001
0000
0000
1000
0000
0001
0000
0000
0000
0110
0000
0000
0000
,
0001
0000
0001
0000
0010
0100
1000
0000
,
0010
0100
2002
3003
,
1000
0100
1000
0100
,
0020
0000
0001
0031
,
0001
0100
0001
0100
,
0020
0000
1000
1030
,
0001
0000
0000
0001
0000
0000
0000
0000
1000
0000
0000
0000
1000
0000
0000
0000
,
0010
0000
0000
0001
0000
0000
0100
0000
0000
0000
0000
0000
0000
0000
0000
0000
,
1000
0010
1000
0000
0001
0010
0001
0000
,
0100
0010
0100
0010
0100
0000
0110
0000
,
1001
0000
0100
0000
0010
0100
0010
0000
,
1000
0000
0010
0000
0100
0000
0001
0000
0000
0000
1000
0000
0010
0000
0000
0010
,
0000
0000
0001
0000
0010
0000
0000
0010
0000
0000
1000
0000
0100
0000
0000
0010
,
0000
0000
0001
0000
0100
0000
0000
0010
0000
0000
0000
0000
1000
0000
0000
0000
,
0001
0000
1000
0000
0010
1000
0010
0000
,
1000
0000
0100
0000
1000
0000
0001
0000
0000
0000
1000
0000
0010
0000
0000
0010
,
0000
0000
0001
0000
0010
0000
0000
0010
0000
0000
1000
0000
0100
0000
0000
0010
,
0000
0001
0100
0000
0010
0000
0100
0000
,
2002
3003
0000
0000
;

//--------------- dance-single - DJSuperNOVA ----------------
#NOTES:
     dance-single:
     DJSuperNOVA:
     Hard:
     12:
     0,0,0,0,0:
0000
0000
0000
0000
,
0000
0000
0000
0000
,
0000
0000
0000
0000
,
0000
0000
0000
0000
,
0000
0000
0000
0000
,
0100
0001
0100
0010
1000
0100
1000
0000
,
0001
1000
0100
1000
0001
0000
0000
1000
,
0001
0000
0010
0001
0000
0000
0100
0000
0010
0000
1000
0010
0000
0000
1000
0000
,
0001
0000
0010
0000
0100
0000
1000
0001
0000
0000
0000
0000
1001
0000
0000
0000
,
0001
0100
0001
1000
0010
1000
0100
0000
,
0010
0001
0100
0001
1000
0000
0000
0001
,
1000
0000
0100
1000
0000
0000
0000
0000
0010
0000
0100
0001
0000
0000
1000
0000
,
0100
0000
0010
0000
0001
0000
1000
0100
0000
0000
1000
0000
0010
0000
0100
0000
,
0001
0001
1000
1000
0010
0100
0001
0000
,
0100
0001
1000
0100
1000
0010
0100
0010
,
1010
0000
0000
0000
0101
0000
0000
0000
1010
0000
0000
0000
0001
0100
0001
1000
,
0000
0000
0100
0000
1000
0000
0010
0000
0100
0000
0001
0000
1000
0001
1000
0000
,
0020
0000
0000
0000
1030
0001
1000
0000
0200
0000
0000
0000
1300
0000
0001
0000
,
0100
0001
0010
0100
1000
0000
1001
0000
,
0010
0001
0010
0001
1000
0100
1000
0100
,
0010
0001
0100
0010
1000
0000
0101
0000
,
1000
0100
2000
0000
3001
0100
0002
0000
,
0200
0000
0303
0000
0001
0100
0010
0000
,
0001
0010
0002
0000
1003
0010
2000
0000
,
0020
0000
3030
1000
0010
0100
0010
1000
,
0100
0000
0000
0100
0000
0000
0001
0000
0100
0000
0010
0000
1000
0000
0100
0000
,
0010
0000
0000
0010
0000
0000
0001
0000
1000
0000
0001
0000
1000
0000
0100
0000
,
0010
0001
0100
0000
0010
1000
0100
0000
,
0001
0100
1000
0100
0001
0000
1001
0000
,
0010
0010
0100
0001
0010
0010
0100
1000
,
0001
0000
1000
0000
0100
0000
0010
0000
0000
0000
0001
0010
0001
0010
0000
0010
,
0000
0000
1000
0010
1000
0010
0000
0010
0000
0000
0001
0100
0001
0100
0000
0100
,
0000
0000
1000
0100
1000
0100
0000
0010
0000
0000
1000
0000
0100
0000
0010
0000
,
0001
0001
0100
0010
1000
1000
0001
0100
,
0010
0000
0010
0000
0100
0000
0001
0000
0000
0000
0010
1000
0010
1000
0000
1000
,
0000
0000
0010
0001
0010
0001
0000
0001
0000
0000
1000
0100
1000
0010
0000
0010
,
0000
0001
0100
0010
1010
0000
0110
0000
,
0102
2000
3003
1001
,
1000
0100
0001
0100
1000
0010
0100
0000
,
0001
0100
1000
0100
0001
0100
0010
1000
,
0001
0000
1000
0100
0000
0010
0001
0000
1000
0000
0001
0000
1001
0000
0000
0000
,
1000
0000
1000
0000
0001
0000
0001
0000
0100
0000
0010
0100
0000
0000
0001
0000
,
0010
0000
0010
0000
0100
0000
0100
0000
1000
0000
0001
1000
0000
0000
0010
0100
,
0010
0000
0000
0010
0000
0000
1000
0000
0001
0000
0000
0001
0000
0000
1000
0000
,
0200
0000
0000
0000
0310
0002
0000
0000
2000
0000
0000
0000
3003
0000
0000
0000
,
0010
0010
0100
0100
0010
0000
0110
0000
,
0100
1000
0001
0100
0001
0010
0100
0010
,
0011
0000
0000
0000
1100
0000
0000
0000
0011
0000
0000
0000
1000
0100
1000
0010
,
0000
0100
0001
0010
0100
1000
0100
1000
,
0010
0000
0000
0010
0000
0000
0100
0000
0001
0000
0100
0000
1000
0000
0100
0000
,
0010
0000
0000
0010
0000
0000
1000
0100
0010
0000
0001
0100
0020
0000
0000
0000
,
1030
0010
1000
0010
0100
0001
0100
0001
,
1000
0001
0010
0100
1000
0000
0011
0000
,
1000
0100
2000
0000
3001
0100
0002
0000
,
0200
0000
0303
0100
0001
0100
0010
0000
,
0001
0010
0002
0000
1003
0010
2000
0000
,
0020
0000
3030
1000
0010
0100
0010
1000
,
0100
0000
0000
0100
0000
0000
0001
0000
0100
0000
0010
0000
1000
0000
0100
0000
,
0010
0000
0000
0010
0000
0000
0001
0000
1000
0000
0001
0000
1000
0000
0100
0000
,
0010
0001
0100
0000
0010
1000
0100
0000
,
0001
0100
1000
0100
0001
0000
0001
1000
,
0010
0010
0100
0001
0010
0010
0100
1000
,
0001
0000
1000
0000
0100
0000
0010
0000
0000
0000
0001
0010
0001
1000
0000
1000
,
0000
0000
1000
0010
1000
0001
0000
0001
0000
0000
0001
0100
0001
0010
0000
0010
,
0000
0000
1000
0010
1000
0100
0000
0100
0000
0000
1000
0000
0100
0000
0010
0000
,
0001
0001
0100
0010
1000
1000
0001
0100
,
0001
0000
0010
0000
0100
0000
1000
0000
0000
0000
0010
1000
0010
1000
0000
0100
,
0000
0000
0010
0001
0010
0001
0000
0100
0000
0000
0010
0000
1000
0010
1000
0010
,
0000
1000
0100
0010
0110
0000
1001
0000
,
0220
0330
0000
0000
;
