#TITLE:Siesta;
#SUBTITLE:;
#ARTIST:Weki Meki;
#TITLETRANSLIT:;
#SUBTITLETRANSLIT:;
#ARTISTTRANSLIT:;
#GENRE:;
#CREDIT:DJSuperNOVA;
#MUSIC:Siesta.ogg;
#BANNER:Siesta.png;
#BACKGROUND:Siesta-bg.png;
#CDTITLE:;
#SAMPLESTART:58.130;
#SAMPLELENGTH:18.000;
#SELECTABLE:YES;
#OFFSET:-0.130;
#BPMS:0.000=120.000;
#STOPS:;
#BGCHANGES:;
#FGCHANGES:;

//--------------- dance-single - DJSuperNOVA ----------------
#NOTES:
     dance-single:
     DJSuperNOVA:
     Beginner:
     2:
     0,0,0,0,0:
0000
0000
0000
0000
,
0000
0000
0000
0000
,
0000
0000
0000
0000
,
0000
0000
0000
0000
,
0000
0000
0000
0000
,
0200
0000
0300
0000
,
1000
0000
0000
0000
,
1000
0000
0000
0000
,
0001
0000
0000
0000
,
0001
0000
0000
0000
,
0010
0000
0000
0000
,
0010
0000
0000
0000
,
0100
0000
0000
0000
,
0100
0000
0000
0000
,
1000
0000
1000
0000
,
0001
0000
0000
0000
,
0001
0000
0001
0000
,
1000
0000
0000
0000
,
0100
0000
0100
0000
,
0010
0000
0000
0000
,
0010
0000
0100
0000
,
0010
0000
0100
0000
,
0001
0000
0001
0000
,
1000
0000
1000
0000
,
0010
0000
0010
0000
,
0100
0000
0100
0000
,
1000
1000
1000
0000
,
0001
0001
0001
0000
,
1000
0000
0001
0000
,
2002
0000
3003
0000
,
1000
1000
1000
0000
,
0001
0001
0001
0000
,
0010
0010
0020
0030
,
0100
0100
0200
0300
,
0001
0001
0001
0000
,
1000
1000
1000
0000
,
0010
0010
0020
0030
,
0100
0100
0200
0300
,
0001
0000
0001
0000
,
1000
0000
1000
0000
,
0200
0000
0000
0300
,
0020
0000
0000
0030
,
0001
0000
0001
0000
,
1000
0000
1000
0000
,
0100
0100
0200
0300
,
0010
0010
0020
0030
,
2002
0000
0000
3003
0000
0000
1000
0000
,
1000
0000
0000
0001
,
0001
0000
0000
0100
,
0100
0000
0010
0000
,
0010
0000
0000
0000
,
1000
0000
0100
0000
,
0010
0000
0001
0000
,
0100
0000
0010
0000
,
1000
0000
0001
0000
,
2002
0000
3003
0000
,
0001
0001
0001
0000
,
1000
1000
1000
0000
,
0010
0010
0020
0030
,
0100
0100
0200
0300
,
0001
0000
1000
0000
,
0001
0000
1000
0000
,
0100
0100
0200
0300
,
0010
0010
0020
0030
,
0001
0000
1000
0000
,
0001
1000
0001
0000
,
1000
0000
0001
0000
,
1000
1000
1000
0000
,
0010
0000
0100
0000
,
0010
0100
0010
0000
,
0100
0000
0010
0000
,
0010
0010
0010
0000
,
2002
0000
0000
0000
,
3003
0000
0000
0000
;

//--------------- dance-single - DJSuperNOVA ----------------
#NOTES:
     dance-single:
     DJSuperNOVA:
     Easy:
     5:
     0,0,0,0,0:
0000
0000
0000
0000
,
0000
0000
0000
0000
,
0000
0000
0000
0000
,
0000
0000
0000
0000
,
0000
0000
0000
0000
,
0020
0000
0030
0000
,
1000
0000
1000
0000
,
0001
0000
0001
0000
,
1000
1000
0001
1000
,
0001
0000
0001
0100
,
0100
0000
0010
0000
,
1000
0000
0010
0000
,
0100
0100
0001
0001
,
1000
0000
0001
1000
,
1001
0100
0010
0000
,
0010
0001
0100
0000
,
0010
0010
0100
0100
,
0001
1000
0001
0000
,
1000
1000
0100
0010
,
0001
0001
1000
0000
,
0010
0000
0000
0010
0000
0000
0100
0000
,
0100
0000
0000
0100
0000
0000
1001
0000
,
0001
0000
0001
0000
,
1000
0000
1000
0000
,
0010
0000
0010
0000
,
0100
0001
1000
0110
,
0010
0100
0010
0000
,
1000
0001
1000
0000
,
1000
0100
0010
0001
,
2002
0000
3003
0000
,
0001
0100
1000
0100
,
0001
0100
0001
0000
,
1000
0100
0010
0110
,
0001
0100
0010
0110
,
1000
0100
0001
0100
,
1000
0100
1000
0000
,
0001
0100
0010
0110
,
1000
0100
0010
1001
,
1000
1000
0001
0001
,
0100
0001
1000
0100
,
1000
1000
0001
1001
,
0001
0001
1000
1001
,
0010
0100
0010
0001
,
1000
0100
1000
0100
,
1000
0010
0001
1001
,
0100
0010
1000
1001
,
0020
0000
0030
1000
,
1000
0000
0000
0001
,
0001
0000
0000
1000
,
0100
0000
0010
0000
,
0002
0000
0003
0000
,
1000
0100
1000
1000
,
0001
0100
0001
0000
,
1000
0010
0100
0001
,
2000
3000
0200
0300
,
0020
0030
0002
0003
,
1000
0010
0001
0010
,
1000
0010
1000
0000
,
0010
0100
0001
1001
,
0010
0100
1000
1001
,
0001
0010
1000
0010
,
0001
0010
0001
0100
,
0010
1000
0001
1001
,
0010
0100
1000
1001
,
0100
0000
0010
0010
,
1000
1000
1001
0000
,
0001
0100
1000
0100
,
0001
0001
1000
0110
,
0001
0000
1000
1000
,
0010
0010
0110
0000
,
0001
1000
0100
0001
,
1000
0100
0010
0001
,
2002
0000
0000
0000
,
3003
0000
0000
0000
;

//--------------- dance-single - DJSuperNOVA ----------------
#NOTES:
     dance-single:
     DJSuperNOVA:
     Medium:
     8:
     0,0,0,0,0:
0000
0000
0000
0000
,
0000
0000
0000
0000
,
0000
0000
0000
0000
,
0000
0000
0000
0000
,
0000
0000
0000
0000
,
0200
0000
0300
0001
,
1000
0000
1000
0000
1000
0001
0100
0000
,
0001
0000
0001
0000
0001
1000
0001
0000
,
0100
0100
0010
0010
,
1000
0100
1000
0001
,
1000
0000
1000
0000
0100
0000
0010
0001
,
0010
0000
0001
0000
0001
1000
0100
0000
,
0010
0010
0100
0100
,
1000
0000
0001
0000
1000
0001
1000
0000
,
0010
0000
0110
0000
0100
0001
0100
0000
,
0010
0010
1000
0001
,
1000
1000
0000
0001
0001
0000
0100
0100
,
0000
0010
0110
0100
,
0001
1000
0100
0010
,
0001
0001
1000
0100
,
1000
1000
0000
0001
0001
0000
0100
0000
,
0010
0010
0000
1000
1000
0000
1001
0000
,
0001
0000
0100
0000
0010
0100
0010
0000
,
1000
0000
0100
0000
0010
0000
0001
0001
,
1000
0001
0100
0010
,
1000
0100
0001
1001
,
0100
0000
0100
0000
0100
0000
0000
0010
0000
0000
0010
0000
0000
0000
0000
0000
,
1000
0000
1000
0000
1000
0000
0000
0001
0000
0000
0001
0000
0000
0000
0000
0000
,
1000
0100
1000
0000
0001
0100
0001
0010
,
0000
0110
1001
0110
,
1000
0000
1000
0000
0001
0100
0001
0000
,
1000
0000
1000
0000
0010
1000
0010
0000
,
1000
0000
0000
1000
0000
0000
0001
0000
0000
1000
0000
0000
1001
0000
0000
0000
,
0010
0000
0000
0010
0000
0000
0100
0000
0000
0010
0000
0000
0110
0000
0000
0000
,
0001
0000
0001
0000
1000
0001
0100
0000
,
0001
0000
0001
0000
1000
0100
0010
0000
,
0001
0000
0000
0001
0000
0000
0010
0000
0000
0100
0000
0000
0110
0000
0000
0000
,
1000
0000
0000
0100
0000
0000
0010
0000
0000
0001
0000
0000
1001
0000
0000
0000
,
0100
0000
0100
0000
0100
0000
0000
0001
0000
0000
0001
0000
0000
0000
0000
0000
,
0100
0000
0100
0000
0100
0000
0000
1000
0000
0000
1000
0000
0000
0000
0000
0000
,
0010
0000
0000
0010
0000
0000
0010
0000
0000
0100
0000
0000
0110
0000
0000
0000
,
0100
0000
0000
0100
0000
0000
0100
0000
0000
0010
0000
0000
1001
0000
0000
0000
,
1000
0000
0100
0000
0001
0100
0001
0000
,
1000
0000
0010
0000
1000
0100
1000
0000
,
0100
0000
0000
0010
0000
0000
0001
0000
0000
1000
0000
0000
1010
0000
0000
0000
,
0100
0000
0000
0010
0000
0000
1000
0000
0000
0001
0000
0000
0011
0000
0000
0000
,
0200
0000
0000
0000
0000
0300
1000
0000
,
0001
1000
1000
0010
,
0100
0001
0001
1000
,
0100
0000
0000
0100
0000
0000
0000
0000
0010
0000
0000
0010
0000
0000
0000
0000
,
0002
0000
2000
3003
,
0001
0000
0000
0001
0000
0000
0000
0000
1000
0000
0000
1000
0000
0000
0000
0000
,
0010
0000
0000
0010
0000
0000
0000
0000
0110
0000
0000
0000
0000
0000
0000
0000
,
1000
0100
0010
0001
,
2000
0000
3020
0000
,
0230
0301
1001
0110
,
1000
0100
0001
0100
,
1000
0010
1000
0000
0001
0010
0001
0000
,
1000
0000
0000
0100
0000
0000
0010
0000
0000
0001
0000
0000
1001
0000
0000
0000
,
0001
0000
0000
0100
0000
0000
0010
0000
0000
1000
0000
0000
1001
0000
0000
0000
,
0001
0100
1000
0100
,
0001
0100
0001
0000
1000
0100
1000
0000
,
0010
0000
0000
0100
0000
0000
0001
0000
0000
1000
0000
0000
0110
0000
0000
0000
,
0100
0000
0000
0010
0000
0000
0001
0000
0000
1000
0000
0000
0110
0000
0000
0000
,
0001
0000
0100
0001
1000
1000
0000
0000
,
0001
0100
0001
0000
1001
0000
0000
0000
,
1000
0000
0100
1000
0001
0001
0000
0000
,
0100
0000
0000
0010
0000
0000
0001
0000
0000
1000
0000
0000
1001
0000
0000
0000
,
0010
0000
0100
0010
1000
1000
0000
0000
,
0001
0100
0001
0000
1001
0000
0000
0000
,
0100
0000
0010
1000
0010
0010
0000
0000
,
0100
0000
0000
0001
0000
0000
1000
0000
0000
0100
0000
0000
0110
0000
0000
0000
,
0020
0000
0000
0000
,
0030
0000
0000
0000
;

//--------------- dance-single - DJSuperNOVA ----------------
#NOTES:
     dance-single:
     DJSuperNOVA:
     Hard:
     11:
     0,0,0,0,0:
0000
0000
0000
0000
,
0000
0000
0000
0000
,
0000
0000
0000
0000
,
0000
0000
0000
0000
,
0000
0000
0000
0000
,
2002
0000
3003
1000
,
0001
0000
0100
0001
0001
0000
1000
0000
,
0100
0000
1000
0100
1000
0000
0010
0000
,
0100
0000
0000
0100
0000
0000
0001
0000
1000
0000
0000
1000
0000
0000
0100
0000
,
0010
0000
0000
0010
0000
0000
0000
0000
0010
0000
0000
0000
0001
0000
1000
0000
,
0001
0000
0100
0100
0000
0000
0010
0000
,
1000
0000
0100
1000
0100
0000
0010
0000
,
0100
0000
0000
0100
0000
0000
1000
0000
0001
0000
0000
1000
0000
0000
0100
0000
,
0010
0000
0000
0100
0000
0000
0000
0000
0010
0000
0001
0000
0100
0000
0010
0000
,
1000
0000
1010
0000
0100
1000
0001
0100
,
0000
0010
0100
0010
1000
0001
1000
0100
,
0010
0010
0000
0001
0001
0000
1000
1000
,
0000
0001
1000
0100
0010
0000
0110
0000
,
0100
0000
1000
0010
0100
0010
1000
0001
,
0000
0100
0010
0100
0001
1000
0100
0010
,
0001
0001
0000
1000
1000
0010
1000
0100
,
0010
0010
0000
0100
0100
0000
1001
0000
,
1000
0100
0010
0001
1000
0100
1000
0010
,
0100
0001
0010
0100
0010
0001
2000
0000
,
3001
0100
0010
0100
0001
0010
0100
2000
,
0000
3010
0100
0001
0100
0000
0101
0000
,
0010
0000
1000
0000
0010
0000
1000
0010
0000
0010
1000
0000
0000
0000
0000
0000
,
0001
0000
0010
0000
0001
0000
0010
0001
0000
0001
0010
0000
0000
0000
0000
0000
,
0001
1000
0100
0010
0001
0100
0010
2000
,
0002
0000
3003
0000
,
1001
0000
0000
0000
0010
0000
0100
0000
0010
0000
1000
0000
0100
0000
0010
0001
,
0000
0010
0001
0100
0010
1000
0010
0100
,
0001
0000
0000
0100
0000
0000
0010
0000
0000
1000
0000
0000
1010
0000
0000
0000
,
1000
0000
0000
0100
0000
0000
0010
0000
0000
0001
0000
0000
0011
0000
0000
0000
,
1001
0000
0001
0100
0010
1000
0100
1000
,
0010
0000
0000
0100
0000
0000
0001
0000
0000
0000
0001
0000
0010
0000
0100
0000
,
1000
0000
0000
0010
0000
0000
0100
0000
0000
0001
0000
0000
0101
0000
0000
0000
,
0001
0010
0000
0010
0100
0000
0100
1000
0000
1000
0001
0000
1001
0000
0000
0000
,
1000
0000
0100
0000
1000
0000
0001
1000
0000
0000
1001
0000
0000
0000
0000
0000
,
0001
0000
0100
0000
0001
0000
1000
0001
0000
0000
1001
0000
0000
0000
0000
0000
,
1000
0000
0000
0100
0000
0000
0010
0000
0000
0001
0000
0000
0010
0001
0010
0000
,
0001
0000
0000
0100
0000
0000
0010
0000
0000
1000
0000
0000
0100
1000
0100
0000
,
1100
0000
0100
0010
0001
0010
0100
1000
,
0010
0000
0000
0100
0000
0000
0001
0000
0000
0000
1000
0000
0001
0000
1000
0000
,
0100
0000
0000
0010
0000
0000
0100
0000
0000
1000
0000
0000
0011
0000
0000
0000
,
0010
0000
0000
0100
0000
0000
0010
0000
0000
0001
0000
0000
1100
0000
0000
0000
,
2002
0000
0000
0000
3003
0000
0001
0100
,
0001
0000
0000
0010
0000
0000
0010
0000
0000
1000
0010
1000
,
0100
0000
1000
0000
1000
0000
0001
0100
,
0010
0000
0000
0100
0000
0000
0010
0000
1000
0000
0000
0100
0000
0000
0010
0000
,
0002
0000
0003
0200
0020
0000
0330
0010
,
1000
0000
0000
0100
0000
0000
0010
0000
0100
0000
0000
0010
0000
0000
0001
0000
,
1000
0000
0000
0100
0000
0000
0010
0000
0010
0000
0000
0000
0000
0000
0001
0000
,
0100
0010
1000
0001
0000
0001
0100
0000
0100
0010
0000
0010
,
2000
0000
0000
3001
0200
0000
0000
0301
,
0010
0000
0001
0000
1000
0000
0100
0000
0010
0000
0001
1000
0000
0000
0001
0000
,
1001
0000
0000
0000
1000
0000
0100
0000
0010
0000
0100
0000
1000
0000
0100
1000
,
0000
0001
0100
0001
1000
0100
0010
0001
,
1000
0000
0000
0100
0000
0000
0010
0000
0000
0001
0000
0000
0011
0000
0000
0000
,
0001
0000
0000
0100
0000
0000
0010
0000
0000
1000
0000
0000
1010
0000
0000
0000
,
0110
0000
0010
0100
0001
1000
0100
0010
,
0001
0000
0000
0010
0000
0000
0100
0000
0000
0000
0010
0000
0100
0000
1000
0000
,
0001
0000
0000
0010
0000
0000
0100
0000
0000
1000
0000
0000
1100
0000
0000
0000
,
1000
0010
0000
0010
0100
0000
0100
0001
0000
0001
1000
0000
1001
0000
0000
0000
,
0220
0000
0330
0100
0010
0100
0001
0000
,
1000
0100
1000
0000
0100
1000
0100
0000
0010
0000
0001
0000
0000
0000
0000
0000
,
2002
0000
3003
0001
1000
0001
0100
0000
,
0010
0000
0000
1000
0000
0000
0100
0000
0000
0010
0000
0000
0001
1000
0001
0000
,
0220
0000
0330
0100
0010
0100
1000
0000
,
0001
0100
0001
0000
0100
0001
0100
0000
0010
0000
0010
0000
0000
0000
0000
0000
,
2002
0000
3003
1000
0001
1000
0100
0000
,
0010
0000
0000
0001
0000
0000
0100
0000
0000
0010
0000
0000
1000
0001
1000
0000
,
0200
0000
0000
0000
,
0300
0000
0000
0000
;
