#TITLE:Shots Fired;
#SUBTITLE:;
#ARTIST:Le Castle Vania;
#TITLETRANSLIT:;
#SUBTITLETRANSLIT:;
#ARTISTTRANSLIT:;
#GENRE:;
#CREDIT:raikohtech;
#MUSIC:Shots Fired.ogg;
#BANNER:Shots Fired.png;
#BACKGROUND:Shots Fired-bg.png;
#CDTITLE:;
#SAMPLESTART:78.041;
#SAMPLELENGTH:16.000;
#SELECTABLE:YES;
#OFFSET:-0.041;
#BPMS:0.000=120.000;
#STOPS:;
#BGCHANGES:;
#FGCHANGES:;

//--------------- dance-single - raikohtech, DJSuperNOVA ----------------
#NOTES:
     dance-single:
     raikohtech, DJSuperNOVA:
     Easy:
     6:
     0,0,0,0,0:
0000
0000
0000
0000
,
0000
0000
0000
0000
,
0010
0010
0010
0000
,
0100
0100
0100
0100
,
0001
0001
0001
0000
,
1000
1000
1000
1000
,
1001
0001
0100
0001
,
0100
0010
0100
0001
,
1000
0010
0100
0010
,
1000
0100
0010
0011
,
0010
0001
1000
0010
,
1000
0001
0100
0001
,
0001
0100
0010
1000
,
0010
1000
0100
1100
,
1000
0001
0100
0010
,
0100
0001
1000
0100
,
0010
0011
0010
1010
,
0100
0101
0110
1100
,
1001
0001
0000
0001
,
0100
0001
0010
0110
,
1000
0100
0000
0100
,
1000
0010
0100
0110
,
0010
1000
0001
1000
,
0000
0001
0010
0110
,
1000
0010
0100
0001
,
0000
1000
0010
0110
,
1001
0001
0100
0100
,
0010
0010
1000
1000
,
0100
0100
0010
0010
,
0001
0001
1000
1000
,
0001
0010
0100
1000
,
0010
0100
0001
1000
,
0001
0010
0100
1000
,
0100
0010
0001
0100
,
0110
0010
0100
0100
,
0001
0010
0100
1100
,
1000
0010
0100
0001
,
0100
0010
0100
1001
,
0200
0010
0010
0310
,
1001
0100
0001
0100
,
1000
0100
1000
1100
,
0010
0100
0001
0100
,
0001
0010
0001
0011
,
0100
0001
0100
1000
,
0100
0001
0100
0110
,
0010
1000
0010
0001
,
0010
1000
0010
1001
,
0100
1000
0001
0100
,
0001
1000
0010
1010
,
0001
0100
0001
1000
,
0100
1000
0001
0101
,
0001
0010
0001
1000
,
0010
1000
0001
1001
,
1000
0010
0100
0001
,
0010
0100
1000
1001
,
0001
0100
0001
0000
,
0001
0010
0100
1100
,
1000
0010
0100
0000
,
0100
0001
0010
0100
,
0110
0000
0010
0000
,
0010
0000
0100
0000
,
0010
0000
0100
0000
,
0100
0000
0010
0000
,
2002
0000
0000
3003
,
0001
0100
0010
1000
,
1001
0101
1001
1100
,
0010
0100
0001
1000
,
1001
1100
1001
0101
,
0110
0010
1000
0001
,
0110
1010
0110
0101
,
0100
0010
1000
0001
,
0110
1001
0110
1001
,
0001
0100
0001
1000
,
0100
1100
0001
0101
,
0010
1000
0001
0100
,
1000
1010
0001
0011
,
1000
0100
0001
0100
,
0010
0110
0100
1001
,
0001
0100
1000
1100
,
0010
0011
1001
0110
,
1001
0100
0001
0100
,
0101
1000
0100
0101
,
0011
0110
1100
1000
,
1100
0110
0011
0001
,
0101
0110
1010
0110
,
2002
0000
0000
0000
,
3003
0000
0000
0000
;

//--------------- dance-single - raikohtech, DJSuperNOVA ----------------
#NOTES:
     dance-single:
     raikohtech, DJSuperNOVA:
     Medium:
     9:
     0,0,0,0,0:
0000
0000
0000
0000
,
0000
0000
0000
0000
,
0100
1000
0100
1000
0100
1000
0000
0001
,
0100
0001
0100
0001
0100
0001
0100
0000
,
0001
0010
0001
0010
0001
0010
0000
1000
,
0010
1000
0010
1000
0010
1000
0010
0000
,
1001
0100
0110
0010
,
0100
0010
0100
0001
0100
0010
0100
0000
,
1001
0010
0110
0100
,
0001
1000
0001
0100
0001
1000
0001
0000
,
0110
1000
1001
0100
,
0010
1000
0010
0100
0010
1000
0010
0000
,
1010
0010
0110
0100
,
0001
1000
0001
0010
0001
1000
0001
0000
,
0110
0000
1000
0100
1000
0100
0000
0010
,
0001
0010
0001
0100
0001
0100
0001
0000
,
0010
0100
0010
0000
0001
1000
0001
1000
,
0010
1000
0010
1000
0100
1000
0100
0000
,
0110
1001
0110
0010
,
0100
0001
0100
0001
0010
0000
0110
0000
,
0100
1100
0001
0101
,
1000
0100
1000
0001
1000
0000
1001
0000
,
0010
0110
0100
0110
,
0010
1000
0010
0100
0010
0000
1010
0000
,
0001
0011
0010
0011
,
0001
0010
0001
0010
0001
1000
0001
0000
,
1001
0010
0100
0010
,
0001
0010
0100
1000
,
0100
0010
0100
1000
,
0100
0001
0100
1000
,
0010
1010
1000
1001
,
0100
0101
0010
0011
,
0100
0101
0100
0110
,
0010
1010
1000
1001
,
0100
0000
0001
0000
1000
0001
1000
0000
,
0010
0000
0100
0000
0010
0100
0010
0000
,
1000
0000
0001
0000
1000
0100
0010
0000
,
0001
0000
0100
0000
0001
0100
0010
0000
,
1000
0001
1000
0001
1000
0001
1000
0000
,
0110
0000
1001
0000
0110
0000
0010
1000
,
0010
1000
0010
1000
0010
0000
0110
0000
,
0100
0000
0101
0000
1001
0000
0001
1000
,
0010
1000
0010
1000
0010
0000
0101
0000
,
0110
0000
0010
0000
1000
0000
0100
1000
,
0100
1000
0100
1000
0001
0000
1001
0000
,
0010
0000
0110
0000
0100
0000
0100
0010
,
0100
0010
0100
0010
1000
0000
1001
0000
,
0110
0000
0001
0000
1000
0000
0001
0100
,
0001
0100
0001
0100
0010
0000
0110
0000
,
0100
0000
0001
0000
1000
0000
0100
0010
,
0100
0010
0100
0010
0001
0000
0011
0000
,
0100
0110
1000
1001
,
0001
0101
0100
0110
,
0010
1010
1000
1001
,
0010
1001
0100
1001
,
0010
0000
0010
0000
0110
0000
0100
0010
,
0100
0010
0001
0000
,
1000
0000
1010
0000
0010
0000
0100
0010
,
0100
0001
0101
0001
,
1000
0001
1000
0001
,
1000
0010
1000
0010
,
0100
0010
0100
0010
,
0100
0001
0100
0001
,
2002
0000
0000
3003
,
0010
0100
0010
0100
0010
0100
0000
0100
,
0001
0100
0001
0100
0001
0100
0000
0000
,
1000
0010
1000
0010
1000
0010
0000
0010
,
0100
0010
0100
0010
0100
0010
0000
0000
,
0100
0001
1000
0001
0100
0001
0000
0001
,
0010
0100
0010
0100
1000
0001
0000
0000
,
1000
0010
1000
0010
0100
0010
0000
0010
,
0100
0001
0100
0001
1000
0001
0000
0000
,
0110
0000
0011
0000
1100
0000
0100
1000
,
0100
1000
0100
1000
0100
1000
0001
0000
,
0110
0000
0101
0000
0011
0000
0010
0001
,
0010
0001
0010
0001
0010
0001
1000
0000
,
1001
0000
0110
0000
1001
0000
0001
0100
,
0001
1000
0001
1000
0001
0100
0001
0000
,
0110
0000
1001
0000
1100
0000
0010
0001
,
0010
0001
0010
0001
1000
0100
1000
0000
,
0101
0000
1100
0000
0101
0000
0100
0010
,
0100
0010
1000
0010
0100
0001
0100
0000
,
1010
0000
0011
0000
1010
0000
0010
0100
,
0001
0100
0001
1000
0001
1000
0100
0000
,
1100
0011
1100
0011
,
2002
0000
0000
0000
,
3003
0000
0000
0000
;
