#TITLE:Pārvatī;
#SUBTITLE:;
#ARTIST:BEMANI Sound Team "U1 overground";
#TITLETRANSLIT:;
#SUBTITLETRANSLIT:;
#ARTISTTRANSLIT:;
#GENRE:;
#CREDIT:DJSuperNOVA;
#MUSIC:Parvati.ogg;
#BANNER:Parvati.png;
#BACKGROUND:Parvati-bg.png;
#CDTITLE:;
#SAMPLESTART:13.723;
#SAMPLELENGTH:18.732;
#SELECTABLE:YES;
#OFFSET:0.326;
#BPMS:0.000=51.250
,12.000=205.000
,76.000=102.500
,92.000=205.000
,132.000=102.500
,132.500=205.000
,193.000=102.500
,195.000=205.000
,223.000=102.500
,225.000=205.000
,273.000=102.500
,277.000=205.000
,299.000=102.500
,300.000=205.000
,316.000=102.500
,324.000=51.250
;
#STOPS:125.000=0.439
,126.500=0.439
,129.000=0.585
,130.500=0.439
;
#BGCHANGES:;
#FGCHANGES:;

//--------------- dance-single - DJSuperNOVA ----------------
#NOTES:
     dance-single:
     DJSuperNOVA:
     Beginner:
     5:
     0,0,0,0,0:
0000
0000
0000
0000
,
0000
0000
0000
0000
,
0000
0000
0000
0000
,
0010
0000
0100
0000
,
0001
0001
0001
0000
,
0010
0000
0100
0000
,
1000
1000
1000
0000
,
0001
0000
0100
0000
,
1000
0100
1000
0000
,
0010
0000
0100
0000
,
0001
0100
0001
0000
,
1000
0000
0100
0000
,
1000
1000
1000
0000
,
0001
0000
0100
0000
,
0001
0001
0001
0000
,
0010
0000
0100
0000
,
1000
1000
1000
0000
,
0001
0000
1000
0000
,
0001
1000
0001
0000
,
1001
0000
0100
0100
,
0010
0000
0001
1000
,
0001
0100
0010
0010
,
1000
0001
2002
3003
,
1000
0000
1000
0000
,
0001
0000
0001
0000
,
0010
0000
0100
0000
,
0020
0000
0000
0030
,
0001
0000
1000
0000
,
0100
0000
0100
0000
,
1000
0000
0001
0000
,
0010
0000
0000
0000
,
0010
0000
0000
0100
0000
0000
0100
0000
,
0000
0000
0000
1000
0000
0000
0001
0000
,
0000
1000
0000
0000
,
0000
0100
0000
0000
,
0000
0001
0000
0000
,
0000
0100
0000
0000
,
0000
0010
0000
0010
,
0000
0100
0000
0100
,
0000
1000
0000
0001
,
0000
1000
0000
0001
,
0000
1000
0000
0000
,
0000
1000
0000
0000
,
0000
0001
0000
0001
,
0000
0001
0000
0001
,
0000
0100
0100
0100
,
0000
0010
0010
0010
,
0000
1000
0000
0001
,
0000
2002
3003
0010
,
0000
1000
0000
0010
,
0000
1000
0000
0001
,
0000
0100
0000
0010
,
0010
0010
0000
1000
,
0000
0100
0000
1000
,
0000
0100
0000
0010
,
0000
0001
0000
1000
,
1001
0001
0000
0100
,
0000
0001
0001
0001
,
0000
1000
0000
0100
,
0000
1000
1000
1000
,
0000
0010
0000
0100
,
0000
0010
0010
0010
,
0000
1000
0000
0001
,
0000
0100
0010
0100
,
0000
0001
0000
1000
,
0000
0001
0001
0001
,
0000
1000
0000
0100
,
0000
0010
0010
0010
,
0000
0100
0000
0100
,
0000
0001
0000
0001
,
0000
1000
0001
1000
,
0000
0010
0010
0010
,
0000
0100
0100
0100
,
0000
0001
0000
0001
,
0000
1000
0000
2000
,
3001
0100
0001
0000
,
1000
0100
1000
0000
,
0010
0100
0010
0000
,
1001
0000
0110
0000
,
1001
0000
0100
0000
,
0001
0000
1000
0000
,
0010
0000
0000
0000
;

//--------------- dance-single - DJSuperNOVA ----------------
#NOTES:
     dance-single:
     DJSuperNOVA:
     Easy:
     9:
     0,0,0,0,0:
0000
0000
0000
0000
,
0000
0000
0000
0000
,
0000
0000
0000
0000
,
0010
0001
0100
0100
,
0010
1000
0001
1001
,
1000
0100
0010
0001
,
1000
0001
1000
1001
,
0010
0100
1000
1000
,
0020
0230
0301
0001
,
0010
0100
1000
0001
,
0010
0100
0110
1001
,
0010
1000
0100
0010
,
0010
0001
0100
1000
,
0100
0001
0010
1000
,
0010
0001
0100
0110
,
0020
0000
0100
0130
,
0002
0000
2003
0000
3001
1000
0001
0000
,
1000
0100
0010
0001
,
1000
0001
1001
1001
,
1000
0000
0001
0100
0001
0000
0101
0000
,
0010
0000
0100
0000
0010
0100
1000
0000
,
0001
0000
1001
0000
1000
0100
0010
0000
,
0001
0000
1001
0000
0100
0100
0002
0000
,
1003
1000
0001
0001
,
0010
0100
0010
0001
,
0100
0010
1000
0010
,
1000
0001
2002
3003
,
0100
0010
1000
1000
,
0100
0010
0001
0001
,
0100
0000
0010
0000
0100
0010
0100
0000
,
0001
1000
0001
1001
,
1000
0000
1000
0100
0000
0100
0010
0000
,
0010
0000
0010
0001
0000
0001
1000
0000
,
1000
0001
0100
0001
,
0001
0010
0100
1000
,
1000
0020
0230
0302
,
2003
3002
0023
0230
,
2300
0000
3001
0000
0000
1000
0001
0000
,
0100
0010
0100
0110
,
0000
0000
1000
0000
0000
0001
1000
0000
,
0010
0100
0001
1001
,
0000
0001
1000
0001
,
0010
0000
0100
1000
,
0010
0000
0010
0000
,
0010
0000
0010
0000
,
0010
1000
0100
0010
,
0010
0001
0100
0010
,
0010
1000
0001
0020
,
0000
0200
0330
1000
,
1000
0100
0100
0010
,
0010
0001
0001
1000
,
0001
1000
0001
0020
,
0230
2300
3002
1003
,
1001
0100
0110
0010
,
1001
0100
1001
0010
,
0100
0000
1000
0000
0001
0000
0100
0100
,
0002
1003
0100
0010
,
0010
0001
0100
0010
,
0010
1000
0100
0001
,
0100
1000
0001
1001
,
0000
1000
0001
0010
,
0010
0100
0100
1000
,
0001
1000
1000
0100
,
0010
0001
0100
0010
,
0110
0010
1000
0001
,
0001
0010
0100
0010
,
0010
0001
1000
0100
,
0100
1000
0001
0100
,
0110
0000
0010
0000
1000
0000
0100
0100
,
0002
1003
0100
1000
,
0001
0100
0010
1000
,
1001
0001
0001
1000
,
1000
0010
0100
0010
,
0100
0001
0010
0100
,
1000
0001
1000
0020
,
0130
0100
0001
0001
,
1000
1000
0100
0010
,
0001
0000
0100
0000
0010
0100
0010
0000
,
1001
0110
2002
3003
,
1000
0100
1000
1000
,
0001
0100
0001
0001
,
1000
0000
0000
0000
;

//--------------- dance-single - DJSuperNOVA ----------------
#NOTES:
     dance-single:
     DJSuperNOVA:
     Medium:
     12:
     0,0,0,0,0:
0000
0000
0000
0000
,
0000
0000
0000
0000
,
0000
0000
0000
0000
,
0001
0000
0001
0000
0010
0100
1000
0000
,
0010
0100
0010
0000
1010
0000
0101
0000
,
0001
0000
0100
0000
1000
0100
0001
0000
,
0100
0000
1000
0000
0001
0100
1000
0000
,
1001
0000
1000
0000
0100
0010
0100
0000
,
0020
0000
0032
0000
1003
0001
1000
0000
,
0010
0100
0010
0000
0110
0000
0100
0000
,
0001
1000
0001
0000
1001
0000
1001
0000
,
1000
0000
1000
0000
0010
0100
0001
0000
,
0010
0100
0010
0000
1100
0000
0011
0000
,
1000
0000
0100
0000
0001
0100
1000
0000
,
0001
0000
0100
0000
1000
0100
0001
0000
,
1000
0010
0100
0100
,
0002
0000
2003
0000
3001
1000
0100
0000
,
0010
0001
0010
0000
0011
0000
0010
0000
,
0100
1000
0100
0000
1001
0000
1001
0000
,
0001
0000
0000
0000
0000
0000
2000
0000
0000
0000
0000
0000
3010
0000
0010
0000
0000
0000
0100
0000
0000
0001
0000
0000
,
1000
0100
0010
0000
0001
0100
0020
0030
,
1000
0001
1001
0000
1000
0100
0010
0010
,
0001
0100
0110
0000
0001
1000
2002
3003
,
0001
0001
1000
1000
,
0010
0100
0010
1000
,
0001
0100
0010
1000
,
0020
0230
0301
1001
,
1000
0000
0001
0000
1000
0100
0001
0000
,
1000
0000
0001
0000
0001
0010
1000
0000
,
0001
0010
0100
0100
,
0010
0100
0010
0000
1001
0000
0100
0000
,
0010
1000
0010
0100
0001
0100
0010
1000
,
0010
1000
0010
0100
0001
0100
0001
1000
,
0001
1000
0100
0010
,
0100
1000
0001
1000
,
1001
0002
0203
0320
,
2030
3200
0320
0032
,
2003
0000
3001
0000
1000
0100
0010
0000
,
0100
0000
1000
0001
0100
0000
0010
0000
,
0100
0002
0023
0230
,
2300
3020
0230
0302
,
2003
0000
3001
0100
0001
0000
1000
0000
,
0010
0000
1000
0100
1000
0000
0001
0000
,
0010
0000
0001
1000
0001
0000
1000
0001
,
1000
0000
0010
0100
0010
0000
0100
0010
,
0100
0010
0010
0100
,
0100
0001
0001
1000
,
1000
0000
0100
0010
0001
1000
0100
0010
,
0001
1000
0200
0000
0020
0330
0010
0000
,
0011
0001
0101
0100
,
0110
0010
1010
1000
,
1001
0001
1001
2000
,
3020
0130
0110
0010
,
1001
0100
1001
0010
,
1001
0110
1001
1000
,
1001
0100
0110
0020
,
0200
0330
1000
0000
0001
0000
1000
0001
,
1000
0000
0010
0000
0100
0000
0010
0100
,
0010
0000
1000
0000
0000
1000
0001
0000
,
0100
0000
0000
0010
0000
0100
0000
0010
0000
0100
0000
0000
,
0110
0000
0010
0000
1000
0000
0100
1000
,
0100
0000
1000
0000
0001
0000
0010
0100
,
0010
0001
0010
0100
,
1100
0010
0100
0001
,
0101
0000
0100
0000
0010
0000
1000
0010
,
1000
0000
0100
1000
0001
0000
0110
0000
,
1001
0000
1000
0100
0010
0000
0001
0000
,
0100
0010
1000
0000
0001
0000
1001
0000
,
0110
0000
0001
0000
1000
0000
0010
0100
,
0110
0000
0010
0000
1000
0000
0001
0010
,
0001
0000
1000
0010
1000
0000
0110
0000
,
0110
0101
0100
0110
,
0010
1010
1000
1001
,
0001
1001
1000
1100
,
0100
0000
0000
0110
0000
0000
0010
0000
0000
0010
0001
0010
,
0001
0011
1000
1010
,
0100
0101
0110
1001
,
1000
0001
1000
0000
0010
0100
0010
0000
,
1000
0100
0010
0001
1000
0100
0010
0000
,
0001
0000
1000
0000
0001
0100
0010
0000
,
1000
0000
0001
0000
1000
0100
0010
0000
,
0001
0000
0000
0000
;

//--------------- dance-single - DJSuperNOVA ----------------
#NOTES:
     dance-single:
     DJSuperNOVA:
     Hard:
     14:
     0,0,0,0,0:
0000
0000
0000
0000
,
0000
0000
0000
0000
,
0000
0000
0000
0000
,
1100
0000
0001
0010
0100
1000
0010
0100
,
0001
0100
0001
0010
0100
1000
0001
0000
,
1000
0010
0100
0010
1000
0100
1000
0001
,
1000
0001
0100
0001
0010
0100
1000
0000
,
0001
0100
1000
0000
1000
0100
0001
0010
,
1000
0000
1001
0000
1000
0010
0001
0000
,
0001
0010
0001
0100
0010
1000
0100
0001
,
0100
1000
0010
0100
0001
0000
0101
0000
,
1001
0000
1000
0010
0100
0001
1000
0100
,
0010
0001
0010
0001
1000
0010
0100
0000
,
0100
0001
0010
0001
1000
0010
1000
0100
,
1000
0001
0010
0100
1000
0001
0100
0000
,
0100
1000
0010
0001
1000
0000
1001
0000
,
1000
0001
0010
1000
0100
0000
0110
0000
,
0010
0001
1000
0100
0010
0100
0010
0100
,
1000
0001
0100
1000
0100
0001
1000
0000
,
1001
0000
0000
0000
0000
0000
0000
0000
0000
0000
0000
0000
0001
0000
0000
0000
0000
0000
0100
0000
0000
0000
0000
0000
0010
0000
0000
0000
1000
0000
0000
0000
0010
0000
0000
0000
1000
0000
0000
0000
0000
0000
0100
0000
0000
0010
0000
0000
,
0001
0000
1000
0000
0001
0000
0100
0001
1000
0000
0001
0000
1000
0100
0010
0000
,
0110
0000
0100
0010
0001
0000
1000
0000
0010
0100
0010
0000
1010
0000
0100
0000
,
0101
0000
0001
1000
0100
0000
1000
0000
0001
0100
0010
0000
0110
0000
0110
0000
,
0010
0000
0010
1000
0010
1000
0001
0100
,
0001
0100
0010
1000
0001
0000
1000
0001
,
0100
0010
1000
0100
0010
0000
0001
0010
,
0001
1000
0100
0010
0001
0000
1001
0000
,
1000
0000
0001
0100
0010
1000
0010
1000
,
0001
0100
1000
0100
0001
0000
1000
0100
,
0001
0100
1000
0010
0100
0001
0010
0100
,
1000
0010
0001
0010
1000
0100
1000
0000
,
0001
0010
0100
1000
0010
0100
0001
1000
,
0010
1000
0100
0010
0001
0100
0010
1000
,
0001
0000
1000
0001
1000
0001
0010
0100
,
1000
0000
0001
0100
0010
0100
0001
1000
,
0001
0010
0200
0000
2300
0000
3020
0000
,
0032
0203
2300
3020
,
0032
0000
1003
0100
1000
0001
0010
0100
,
0010
0001
1000
0100
0001
0100
1000
0010
,
0100
0001
2000
0000
3002
0000
0023
0000
,
2030
3200
0302
0023
,
0032
0000
1003
0100
1000
0001
0100
0000
,
0101
0000
0001
0100
0001
1000
0100
0000
,
1100
0000
0010
0001
0100
0000
0010
1000
,
0100
0000
0010
0001
0100
0000
0010
1000
,
0100
0000
1000
0100
0001
0100
1000
0100
,
0001
0100
1000
0010
0001
0010
1000
0010
,
0001
0010
1000
0010
0100
0001
0010
0100
,
1000
0001
2000
0000
0002
3003
0001
0000
,
0100
0000
0100
0010
0000
0010
1000
0000
1000
0100
0000
0100
,
0010
0000
0010
0001
0000
0000
1000
0000
0000
0001
0000
0000
,
0100
0000
0010
1000
0000
1000
0001
0000
0000
1000
0000
0000
,
0100
0000
0010
0001
0000
0001
1000
0000
0000
0001
0000
0000
,
1001
0000
1000
0001
0000
0100
0000
0000
0101
0000
0000
0001
,
1000
0000
0000
0000
1000
0000
0010
0000
0000
0000
0000
0000
0110
0000
0000
0000
0000
0000
0100
0000
0000
0001
0000
0000
,
1000
0100
0010
0001
0100
0010
1000
1001
,
0001
1001
1000
0001
0010
0100
1000
0001
,
0100
0001
1000
0100
0010
0001
1000
0100
,
0001
0100
1000
0000
0001
0010
1000
0000
,
1100
0000
0000
0001
0000
0100
0000
0100
0000
0010
0000
0000
,
1001
0000
0001
0100
0020
0000
1030
0100
,
1000
0100
0010
0001
0100
1000
0100
0001
,
0010
0001
1000
0010
1000
0100
0010
0100
,
0010
0100
1000
0010
0100
0001
1000
0100
,
0010
0001
1000
1000
0001
0010
0100
1000
,
0010
0100
0001
1000
0001
0100
0010
1000
,
0100
0000
0100
1000
0001
0100
0001
0010
,
0100
0010
0001
0100
1000
0100
0001
0010
,
0100
0000
0000
0000
0110
0000
0000
0010
0001
0000
1000
0000
0010
0100
0010
0000
,
0110
1010
1000
0001
1000
0001
0100
0010
,
0100
0010
1000
0100
0010
0001
1000
0000
,
1001
0000
0001
0100
0010
1000
0001
0010
,
0100
1000
0100
1000
0010
0100
0001
1000
,
0100
0010
0001
0100
0010
1000
0100
1000
,
0001
0000
0000
0100
0000
0000
0001
0000
0000
0010
0000
0000
0100
0000
0000
1000
0000
0000
0001
0000
1000
0000
0001
0000
,
1000
0100
0010
0001
0100
0010
1000
0100
,
0010
0001
0100
0010
1000
0001
0010
0100
,
1000
0010
0010
0100
0001
0001
0010
0100
,
0010
0100
1000
0100
0010
0001
1000
0000
,
0001
0001
0100
0001
0010
0100
1000
0100
,
1000
0010
1000
0001
0010
0100
1000
0100
,
0001
0000
0000
0000
;

//--------------- dance-single - DJSuperNOVA ----------------
#NOTES:
     dance-single:
     DJSuperNOVA:
     Challenge:
     18:
     0,0,0,0,0:
0000
0000
0000
0000
,
0000
0000
0000
0000
,
0000
0000
0000
0000
,
0100
0000
1000
0000
0010
0100
0010
0001
0010
0000
1000
0100
1000
0000
0001
0000
,
1000
0100
1000
0100
0010
0001
0010
0001
1000
0010
0100
0000
0001
1000
0001
0000
,
1000
0000
0001
0000
0010
0000
0100
0000
0010
0001
0010
0100
0010
0100
1000
0010
,
0100
0000
0000
0001
0000
0000
1000
0000
0000
0000
0000
0000
1000
0000
0000
0000
0100
0000
0000
0000
0010
0000
0000
0000
0100
0000
0000
0000
0010
0000
0000
0000
0001
0000
0000
0000
0100
0000
0000
0000
0000
0000
0000
0000
0000
0000
0000
0000
,
0110
0010
1010
1000
0100
0001
0100
1000
,
1020
0000
0000
0000
0230
0000
0000
0000
0301
0000
0100
0000
0010
1000
0010
1000
,
0001
0010
1000
0010
0001
0010
0001
0100
,
1000
0000
0100
0000
0001
0000
0100
0010
1000
0010
0100
0000
0110
0000
0000
0000
,
0100
0000
0001
0000
0010
0100
0010
0001
0010
0000
0001
0100
0001
0000
1000
0000
,
0100
1000
0100
1000
0001
0010
0001
0010
0001
1000
0100
0000
1000
0001
1000
0000
,
0001
0000
0001
0000
0010
0000
0100
0000
0010
0001
0010
0100
0010
0100
1000
0010
,
0100
0000
0000
0001
0000
0000
1000
0000
0000
0000
0000
0000
1000
0000
0000
0000
0100
0000
0000
0000
0001
0000
0000
0000
1000
0000
0000
0000
0010
0000
0000
0000
0001
0000
0000
0000
0100
0000
0000
0000
0000
0000
0000
0000
0000
0000
0000
0000
,
0001
0000
0100
0000
0010
0000
1000
0010
1000
0000
0010
0100
0010
0000
1000
0000
,
0200
0000
0000
0000
0320
0000
0000
0000
0031
0000
0100
0000
0001
1000
0001
1000
,
0100
1000
0001
0100
0010
1000
0010
0100
,
0001
0010
0100
1000
0001
0000
0010
0000
0110
0000
0100
0000
1001
0000
0000
0000
,
1000
0000
0000
0000
0000
0000
0001
0000
0000
0000
0000
0000
1000
0000
0100
0000
0010
0000
0001
0000
0100
0000
0010
0000
1000
0000
0000
0000
1010
0000
0000
0000
0100
0000
0000
0000
0110
0000
0000
0000
0000
0000
0001
0000
0000
0100
0000
0000
,
0101
0000
0000
0001
0000
0000
0000
0000
0000
0010
0000
0000
0110
0000
0000
0000
0000
0000
0100
0000
0000
1000
0000
0000
1001
0000
0000
0010
0000
0000
0100
0000
0000
1000
0000
0000
0010
0000
1000
0000
0010
0000
0100
0000
0001
0000
0100
0000
,
0010
0000
1000
0000
0100
0000
0010
0000
0000
0001
0000
0000
0011
0000
0000
0000
0000
0000
0010
0000
0001
0000
1000
0000
0100
0000
0000
0000
0000
0000
0100
0000
1000
0000
0001
0000
0100
0000
0000
0001
0000
0000
0010
0000
0000
0001
0000
0000
,
1000
0000
0100
0000
0010
0000
0000
0000
0110
0000
0000
0000
0010
0000
0001
0000
1000
0010
1000
0010
0100
0010
0100
0010
0100
0001
0100
0001
0010
0100
1000
0001
,
1000
0000
0001
1000
0100
1000
0010
0100
,
0001
0100
1000
0100
0001
0000
0001
0010
,
1000
0010
0001
0010
0100
0000
0100
1000
,
0001
0100
0010
1000
0001
0010
0100
1000
0010
0000
0000
0000
1010
0000
0000
0000
,
0101
0000
0110
0010
1000
0100
0010
0001
,
0011
0001
0100
0010
1010
1000
0010
0100
,
0001
0000
1000
0001
0010
0100
1000
0100
0010
0001
0010
0001
0100
0001
0100
0001
,
1000
0010
0100
1000
0100
0010
1000
0000
,
1010
0110
0110
0101
0110
0110
1001
0100
,
0010
0100
1001
0011
0110
1100
1100
0110
,
0010
0002
0000
0000
1003
0000
0010
0000
0100
0000
0010
0000
0001
0000
0010
0000
,
1000
0000
0100
0010
0001
1000
0010
0100
,
1000
0000
0000
0100
0000
0000
0010
0000
1000
0000
0100
0000
0001
0000
0100
0000
1000
0000
0010
0000
0001
0000
0010
0000
,
0100
0001
1000
0100
0010
0100
1000
0001
0100
1000
0001
0010
,
1000
0000
0000
0000
0100
0000
0000
0000
0010
0000
0000
0000
0001
0000
0000
0000
0000
0000
0010
0000
0000
0001
0000
0000
0010
0000
0000
0000
0000
0000
0001
0000
0000
0000
0000
0000
0010
0000
0000
0000
0000
0000
0001
0000
0000
0000
0000
0000
,
0100
0010
1000
0010
0100
0010
1000
0100
,
0001
0000
0000
0100
0000
0000
1000
0000
0010
0000
0100
0000
0001
0000
0010
0000
0100
0000
0001
0000
0100
0000
1000
0000
,
0001
0000
0000
0000
0010
0000
0000
0000
0001
0000
0000
0000
1000
0000
0000
0000
0010
0000
0000
0000
0001
0000
0000
0000
0010
0000
0000
0000
0100
0000
0000
0000
0001
0000
0000
0000
1000
0000
0000
0001
0000
0000
1000
0000
0000
0001
0000
0000
,
0100
0001
0100
0001
1000
0000
0010
0000
0010
0000
0000
0000
0110
0000
0000
0000
,
0110
0000
0001
0010
0010
0000
0110
0000
,
0110
0000
0000
0000
1000
0000
0010
0100
0010
0000
0100
0000
0001
0000
0010
0100
,
0010
0000
0001
0000
1000
0000
0010
0100
0010
0000
0100
0000
0001
0000
0010
0100
,
0010
0000
0001
0000
1000
0001
0100
0010
1000
0100
1000
0100
0010
0001
0010
0001
,
1000
0010
1000
0010
0100
0001
0100
0001
0010
0100
1000
0001
0010
0100
1000
0001
,
0100
0010
1000
0001
0100
0010
1000
0001
0010
0100
1000
0010
0100
0001
0010
0100
,
1000
0000
0000
0010
0000
0000
0100
0000
0000
0001
0000
0000
2000
0000
0000
0000
0000
0000
0100
0000
0000
0000
0000
0000
0002
0000
0000
0000
0000
0000
3003
0000
0000
0000
0000
0000
1001
0000
0000
0000
0000
0000
0000
0000
1000
0000
0000
0000
,
0100
0000
0100
0010
0000
0010
0001
0000
0001
0100
0000
0100
,
0010
0000
0010
1000
0000
0000
1010
0000
0100
0001
0010
0100
,
1000
0100
0001
0100
1000
0010
0100
0001
0010
1000
0010
0001
,
0100
0010
1000
0001
0000
0010
0100
0000
0000
1100
0000
0000
,
1100
0000
0010
0001
0000
0001
0100
0000
0010
1000
0000
0001
,
1000
0000
0100
0010
0000
0010
0001
0000
1000
0001
0000
0010
,
0100
0000
0000
1000
0000
0000
0100
0000
0000
1000
0000
0000
0001
0000
0000
0100
0000
0000
0001
0000
0000
0100
0000
0000
0010
0000
0000
1000
0000
0000
0010
0000
0000
1000
0000
0000
0001
0000
0000
0000
0010
0000
1000
0000
0000
0000
0010
0000
,
0001
0000
0000
0000
1000
0000
0100
0000
0000
0000
0000
0000
0100
0000
0000
0000
0000
0000
1000
0000
0000
0000
0000
0000
0010
0000
0000
0100
0000
0000
0010
0000
0000
0001
0000
0000
0010
0000
0000
0000
0000
0000
1000
0000
0000
0100
0000
0000
,
1000
0000
0001
0000
1000
0100
1000
0100
0010
0001
0010
0001
1000
0010
1000
0010
,
0100
0001
0100
0001
1000
0000
0001
0100
0010
1000
0010
1000
0100
0010
0001
0010
,
0001
1000
0100
0010
0001
0000
0010
0000
1000
0000
0010
0000
0001
0000
0010
0001
,
0010
0100
1100
1000
0002
0100
0103
1000
,
0100
0001
0100
1000
0020
0100
0130
0001
,
0010
0100
0010
0000
0001
0000
0100
0000
0010
0000
1000
0000
1010
0000
0010
0000
,
0100
0000
0001
0000
1000
0010
1000
0010
0100
0001
0100
0001
1000
0100
1000
0100
,
0010
0001
0010
0001
0100
0000
0001
0000
0010
0100
0010
0001
0010
0000
0001
0100
,
0001
0000
1000
0000
0100
1000
0100
1000
0001
0010
0001
0010
0001
1000
0100
0000
,
1000
0001
1000
0000
0001
0000
0001
0000
0010
0000
0100
0000
0010
0001
0010
0100
,
0010
0000
0000
0100
0000
0000
1000
0000
0000
0010
0000
0000
0100
0000
0000
0001
0000
0000
1000
0000
0000
0000
0000
0000
1000
0000
0000
0000
0100
0000
0000
0000
0001
0000
0000
0000
1000
0000
0000
0000
0010
0000
0000
0000
0001
0000
0000
0000
,
0100
0000
0000
0000
0000
0000
0000
0000
0001
0000
0100
0000
0010
0000
1000
0000
0010
0000
0000
0000
1100
0000
0000
0000
0100
0010
0100
0000
0010
0100
0010
0000
,
0001
1000
0010
0010
0100
0000
0001
0000
1000
0000
0100
0000
0010
0000
0100
0000
,
0001
0100
1000
0100
1000
1000
0200
0000
,
0000
0000
0000
0000
0310
0001
1000
0010
0100
0001
0010
0100
1000
0010
0100
0010
,
1000
0001
0010
0100
1000
0100
0010
0100
1000
0001
0100
0010
0100
0001
1000
0010
,
0100
0010
1000
0001
0010
0100
1000
0010
0100
0010
1000
0001
0100
0010
1000
0100
,
0010
0000
0000
0001
0000
0000
1000
0000
0000
0010
0000
0000
0100
0000
0000
0001
0000
0000
0100
0000
0000
0010
0000
0000
1000
0000
0000
0001
0000
0000
0010
0000
0000
0100
0000
0000
1000
0000
0000
0000
1010
0000
0000
0000
0100
0000
0000
0000
,
0001
0100
0010
0100
0001
0010
0100
1000
0100
1000
0100
0010
0001
0010
0100
1000
,
0010
0100
0001
0000
0010
0100
1000
0000
0001
0100
0001
0000
1000
0100
1000
0000
,
0100
0011
0110
0100
1100
1001
0100
0101
,
0100
0001
0010
1000
0010
0001
0100
0001
0010
0100
1000
0100
0001
0100
0010
0001
,
1000
0010
0100
0000
0110
0000
0010
0000
0101
0000
0100
0000
0001
0000
1000
0000
,
0100
0000
1000
0000
1010
0000
0010
0000
0100
0001
0100
0001
0010
0100
1000
0001
,
2000
3000
0000
0000
;
