#TITLE:MAX SBY -428-;
#SUBTITLE:;
#ARTIST:Ω r;
#TITLETRANSLIT:MAX SBY -428-;
#SUBTITLETRANSLIT:;
#ARTISTTRANSLIT:omega R;
#GENRE:TECHNO;
#CREDIT:DJSuperNOVA;
#MUSIC:MAX SBY -428-.ogg;
#BANNER:MAX SBY -428-.png;
#BACKGROUND:MAX SBY -428--bg.png;
#CDTITLE:;
#SAMPLESTART:27.272;
#SAMPLELENGTH:17.455;
#SELECTABLE:YES;
#OFFSET:-1.090;
#BPMS:0.000=110.000
,16.000=220.000
,48.000=110.000
,64.000=220.000
,131.000=110.000
,147.000=230.000
,196.000=240.000
,253.000=480.000
,255.000=240.000
,291.000=480.000
,292.000=300.000
,324.000=428.000
,340.000=140.000
;
#STOPS:253.000=0.063
,253.500=0.063
,254.000=0.063
,254.500=0.063
,291.000=0.125
;
#DISPLAYBPM:110.000:428.000;
#BGCHANGES:;
#FGCHANGES:;

//--------------- dance-single - DJSuperNOVA ----------------
#NOTES:
     dance-single:
     DJSuperNOVA:
     Beginner:
     6:
     0,0,0,0,0:
0000
0000
0000
0000
,
0000
0000
0000
0000
,
0000
0000
0001
0000
,
1000
0000
0100
0000
,
0020
0000
0000
0000
,
0030
0000
0000
0000
,
0002
0000
0000
0000
,
0003
0000
0000
0000
,
0200
0000
0000
0000
,
0300
0000
0000
0000
,
2000
0000
0000
0000
,
3000
0000
0000
0000
,
1000
1000
1000
0000
,
0001
0001
0001
0000
,
0010
0000
0010
0000
,
0100
0100
0001
0000
,
1000
0000
0001
0000
,
1000
0000
0000
0000
,
0001
0000
0100
0000
,
0001
0000
1001
0000
,
0100
0000
0010
0000
,
0100
0000
0000
0000
,
1000
0000
0100
0000
,
1000
0000
1001
0000
,
1000
0000
1000
0000
,
0001
0000
0001
0000
,
0010
0000
0010
0000
,
0100
0000
1001
0000
,
0001
0000
0001
0000
,
1000
0000
1000
0000
,
0100
0000
0010
0000
,
0001
0000
1000
0000
,
0000
0000
0000
0002
,
0000
0000
0003
2000
,
0000
0000
3000
0020
,
0000
0000
0030
0200
,
0000
0000
0300
0000
,
0110
0000
0000
0010
,
0000
0000
0000
1000
,
0000
1000
0000
0000
,
0001
0000
0000
0000
,
0000
0000
0001
0000
,
0000
1000
0000
0000
,
0001
0000
0000
0000
,
0000
0000
0001
0000
,
0000
0000
0000
0000
,
0100
0000
0000
0000
,
0000
0000
0010
0000
,
0000
1000
0000
0000
,
0001
0000
0001
0000
,
0001
0000
0000
0000
,
1000
0000
1000
0000
,
0001
0000
1001
0000
,
0100
0000
0100
0000
,
0001
0000
0000
0000
,
0100
0000
0100
0000
,
1000
0000
0000
0000
,
0010
0000
0010
0000
,
0010
0000
0010
0000
,
0100
0000
0100
0000
,
0100
0000
0000
0000
,
0001
0000
0100
0000
,
0001
0000
0100
0000
,
0020
0000
0000
0000
0000
0030
0000
0000
,
0000
1000
0000
0000
,
0000
0001
0000
0000
,
0000
0100
0000
0010
,
0000
0010
0000
0010
,
0000
0010
0000
1000
,
0000
1000
0000
0001
,
0000
0001
0000
0100
,
0000
0010
0000
0100
,
0000
0000
0000
0000
0220
0330
0000
0000
,
0001
0000
0000
0000
,
0000
0000
0000
0000
,
0001
0000
0000
0000
,
0000
0000
0000
0000
,
1000
0000
0000
0000
,
0000
0000
0000
0000
,
1000
0000
0000
0000
,
0010
0000
0010
0000
,
0020
0000
0000
0000
,
0000
0000
0000
0000
,
0100
0000
0000
0000
,
0000
0000
0000
0000
,
0130
0000
0000
0000
,
0000
0000
0000
0000
,
2002
0000
0000
0000
,
3003
0000
0000
0000
;

//--------------- dance-single - DJSuperNOVA ----------------
#NOTES:
     dance-single:
     DJSuperNOVA:
     Easy:
     9:
     0,0,0,0,0:
0000
0000
0000
0000
,
0000
0000
0000
0000
,
0000
0000
0010
0000
,
1000
0000
0001
0000
,
1000
0010
1000
0000
,
0100
0100
0001
0000
,
0001
0100
0001
0000
,
0010
0010
1000
0000
,
0001
1000
0100
0000
,
0001
0001
1000
0000
,
1000
0001
0100
0000
,
1000
1000
0001
0000
,
0001
0001
0010
0010
,
0100
0100
1000
0001
,
1000
0100
1000
0001
,
0100
0000
0001
0000
0100
0100
0002
0000
,
1003
0100
0010
0001
,
1000
0100
1000
0000
,
0001
0100
0010
1000
,
0001
0100
0001
0000
,
1000
0100
0010
0001
,
1000
0100
0010
0000
,
0001
0100
0010
1000
,
0001
0100
0010
0000
,
1000
1000
0001
0001
,
0100
0010
0100
0000
,
0001
0001
1000
1000
,
0010
0100
0010
0000
,
1000
0100
0010
0001
,
0100
0010
1000
0000
,
0001
0010
0100
1000
,
0100
1000
0001
1000
,
0002
0000
0000
1003
,
0000
1000
0000
0000
1000
0000
0001
0000
,
0000
0001
0000
0000
0001
0001
0010
0000
,
0000
0010
0000
0000
0010
0000
0100
0000
,
0000
0100
0000
0000
0100
0000
0000
0000
,
1001
0000
0001
1000
,
0000
0100
1000
0001
,
0001
0000
1000
0000
0010
0000
0000
0100
,
0001
0000
1000
0000
1000
0000
0000
0100
,
1000
0001
0000
0001
,
0010
0100
1000
0001
,
1000
0100
1000
0010
,
0010
0100
0001
1000
,
0100
0000
0010
0000
0100
0000
0000
1000
,
0001
0100
0001
0001
,
0000
1000
0000
0010
1000
0000
0000
0001
,
0100
0001
1000
1001
,
1000
0100
0010
0001
,
1000
0100
1000
0000
,
0001
0100
0010
1000
,
0001
0100
0001
0000
,
1000
0010
0100
0001
,
1000
0100
1000
0000
,
0001
0010
0100
1000
,
0001
0100
0001
1001
,
1000
0100
1000
0000
0001
0000
0000
0000
,
0001
0100
0001
0000
1000
0000
0000
0000
,
0010
0100
0010
0000
0100
0000
0000
0000
,
0001
1000
0001
0000
1001
0000
0000
0000
,
0100
0010
0100
0000
0110
0000
0000
0000
,
0010
0100
0010
0000
0110
0000
0000
0000
,
0001
0000
0002
0003
2000
3000
0001
0000
,
0010
0010
0000
0010
,
0000
1000
0000
1000
,
0000
0001
0000
0001
,
0000
0010
0000
0100
,
0000
1000
0000
0001
,
1000
0001
1000
0010
,
0100
0010
0100
0002
,
0000
0023
0000
0230
,
0300
0000
1000
0000
0000
1000
0000
0000
0002
0000
0000
0000
0003
0000
0000
0000
,
1000
0000
1000
0000
,
0001
0000
0001
0000
,
1000
0000
0100
0000
,
0010
0001
1000
0000
,
0001
0000
0100
0000
,
0001
0000
0010
0000
,
0100
0000
1000
0000
,
0001
0100
0001
0000
,
0002
0000
0003
0000
,
0020
0000
0030
0000
,
0200
0000
0300
0000
,
2000
0000
0000
0000
,
3000
0000
0000
0000
,
0000
0000
0000
0000
,
2002
0000
0000
0000
,
3003
0000
0000
0000
;

//--------------- dance-single - DJSuperNOVA ----------------
#NOTES:
     dance-single:
     DJSuperNOVA:
     Medium:
     16:
     0,0,0,0,0:
0000
0000
0000
0000
,
0000
0000
0000
0000
,
0000
0000
0001
0000
,
0100
0000
0010
0000
,
1000
0000
0001
0000
1000
0001
0000
0100
,
0000
0100
0010
0000
0010
1000
0000
0000
,
0001
0000
1000
0000
0001
1000
0000
0100
,
0000
0100
0010
0001
1000
0100
1000
0000
,
0001
0000
0100
0000
0001
0100
0000
0010
,
0000
0010
1000
0000
0001
1000
0000
1000
,
0001
1000
0100
0000
1000
0001
0000
0001
,
1000
0100
0010
0001
0100
0010
1000
0001
,
1000
0000
1000
0000
0001
0100
0001
0000
0010
0100
0010
0000
0100
0000
1000
0000
,
0010
0000
0010
0000
0100
0000
0100
0001
1000
0001
1000
0001
0000
1000
0010
0000
,
0200
0000
0000
0300
0000
0001
1000
0000
0100
0010
0001
1000
0010
0000
0010
0000
,
1000
0000
1000
0000
0001
0000
0100
0010
1000
0001
0100
0010
1000
0000
1001
0000
,
0001
0000
1000
0000
0100
0000
0000
0000
0010
0000
0000
0001
0000
0000
0010
0000
,
0001
0000
1000
0000
0100
0000
0000
0000
1000
0000
0000
0001
0000
0000
1000
0000
,
0001
0000
0100
0000
0001
0000
0000
0000
1000
0000
0000
0010
0000
0000
0100
0000
,
0001
0010
0001
0000
1000
0010
2000
0000
,
3001
0000
0100
0000
0010
0000
0000
0000
1000
0000
0000
1000
0000
0000
1000
0000
,
0010
0000
0100
0000
0010
0000
0000
0000
0100
0000
0000
0100
0000
0000
0100
0000
,
0010
0000
1000
0000
0001
0000
0000
0000
0010
0000
0000
0010
0000
0000
0010
0000
,
0100
0000
1000
0000
0001
0000
0100
0000
0001
0000
0000
0001
0000
0000
0001
0000
,
1000
0100
0010
0001
0100
0010
1000
0001
,
0100
0001
0010
0100
1000
0001
0100
0001
,
1000
0100
0010
0100
1000
0001
0100
0010
,
0100
0001
0010
0100
1000
0001
1000
0000
,
1000
0001
0010
0001
1000
0010
1000
0001
,
0100
0001
0010
0100
1000
0001
1000
0100
,
1000
0001
0010
0001
1000
0100
0010
0100
,
1000
1000
0001
0100
0010
1000
0010
0100
,
0020
0000
0000
0000
0100
0000
0000
0000
0100
0000
0000
0000
0230
0000
0000
0001
,
0000
0000
0010
0000
0000
0001
0000
0000
0001
0000
0000
0000
0302
0000
0000
1000
,
0000
0000
0010
0000
0000
0100
0000
0000
1000
0000
1000
0000
2003
0000
0000
0100
,
0000
0000
0001
0000
0000
0100
0000
0000
0010
0000
0000
0000
3020
0000
0000
0100
,
0000
0000
0001
0000
0000
1000
0000
0000
0130
0000
0100
0000
0010
0000
0000
0000
,
0110
0000
0010
1000
0001
0000
0001
0000
,
1000
0100
0010
0100
1000
0000
0001
0000
,
0100
0000
0010
0000
1000
0000
0001
1000
,
0001
0100
0010
0000
0010
0000
1000
0100
,
0010
0000
0010
0000
0001
0010
0001
1000
,
0010
0100
0001
0010
0100
1000
0001
1000
,
0100
0000
0010
0000
0001
0010
0001
0010
,
0001
1000
0010
0100
,
0001
0000
0100
0001
1000
0000
0100
1000
,
0001
0000
0010
0000
0100
0010
0100
0000
,
1000
0001
0100
0001
1000
0000
0010
0100
,
0010
0100
0100
0001
,
1000
0100
0010
0001
0100
0001
0100
0010
,
1000
0010
0100
0001
0010
0100
1000
0100
,
1000
0001
0100
0001
1000
0010
1000
0100
,
0010
0001
0010
0001
1000
0100
0020
0000
,
0031
0100
0010
1000
0100
1000
0100
0010
,
0001
0010
0100
1000
0010
0100
0001
0100
,
0001
1000
0100
1000
0001
0010
0001
0100
,
0010
1000
0010
1000
0001
0100
0010
1000
,
0001
0100
1000
0100
0001
0100
1000
0100
,
0010
0100
1000
0100
0001
0010
0100
1000
,
0100
0001
0100
1000
0100
0010
0100
1000
,
0100
0010
0001
0100
0010
1000
0001
0000
,
1000
0010
0001
0010
1000
0100
0001
0100
,
1000
0001
0100
1000
0100
0001
1000
0100
,
0010
0001
1000
1000
0001
0001
1000
0010
,
0100
0100
0001
0010
0010
0100
1000
0001
,
1000
0100
1000
0001
0001
0100
0010
1000
,
0100
0100
0010
0001
1000
0010
0100
0000
,
0001
0100
0101
0000
1000
0100
1100
0000
,
0010
0001
0011
0000
1000
0010
1010
0000
,
0011
1100
1010
0101
,
1001
0000
1100
0000
0101
0000
0001
0010
,
0100
1000
0010
0100
0001
0010
0200
0000
,
0300
0000
2000
0000
3000
0002
0000
0003
0020
0000
0000
0000
0030
0000
0000
0000
,
0001
0000
0100
0000
0010
1000
0000
0010
,
1000
0000
0100
0000
0010
0001
0000
0010
,
0001
0000
1000
0000
0001
0100
0000
0010
,
1000
0001
0001
0000
,
1000
0000
0100
0000
0010
0001
0000
0010
,
0001
0000
0100
0000
0010
1000
0000
0010
,
1000
0000
0001
0000
1000
0100
0000
0010
,
0001
1000
1000
0000
,
0001
0010
0100
1000
,
0010
0100
0001
0010
,
0100
1000
0010
0100
,
0001
0010
0100
1000
,
0001
0000
0001
0000
,
1000
0000
1000
0000
,
2002
0000
0000
0000
,
3003
0000
0000
0000
;

//--------------- dance-single - DJSuperNOVA ----------------
#NOTES:
     dance-single:
     DJSuperNOVA:
     Hard:
     18:
     0,0,0,0,0:
0000
0000
0000
0000
,
0000
0000
0000
0000
,
0001
0000
0000
0010
0000
0000
0100
0000
1000
0000
0000
0010
0000
0000
0100
0000
,
0001
0000
0000
0000
0000
0000
0000
0000
0000
1000
0000
0000
0000
0000
0000
0000
0000
0000
0001
0000
0000
0000
0000
0000
0010
0000
0000
0000
0100
0000
0000
0000
1000
0000
0000
0000
0001
0000
0000
0000
0000
0000
0000
0000
0000
0000
0000
0000
,
1000
0001
0100
0010
1000
0001
0000
1001
,
0000
1000
0100
0010
0001
1000
0000
0000
,
0001
1000
0010
0100
0001
1000
0000
1001
,
0000
0000
0001
0100
0001
0000
1000
0010
1000
0000
0001
1000
0001
0000
1000
0000
,
0100
0010
0001
0000
1000
0100
0000
0110
,
0000
0010
0001
0100
0010
1000
0000
0001
,
0100
0001
1000
0000
0001
0100
0000
0110
,
0000
0000
0010
1000
0010
0000
0100
0001
0100
0000
0010
0100
0010
0000
1000
0000
,
0002
0000
0203
0000
0310
1000
0010
0001
0010
1000
0100
0010
0001
0000
0011
0000
,
1000
0000
1010
0000
0001
0000
0100
0001
0100
1000
0100
0010
0100
0001
1000
0000
,
2002
0000
0000
3003
0000
1000
0001
0100
0001
0010
0100
1000
0001
0000
0110
0000
,
0001
0000
0011
0000
0010
0000
0110
0000
0100
1000
0010
0100
0001
1000
0001
0000
,
1000
0001
1000
0000
0100
0000
0010
0000
0001
0000
0010
0001
0000
0100
0001
0000
,
1000
0010
1000
0000
0001
0000
0100
0000
0010
0000
1000
0001
0000
1000
0100
0000
,
1000
0010
1000
0000
0001
0000
0100
0000
0010
0000
1000
0001
0000
0100
0010
0000
,
1000
0100
1000
0000
0100
0000
0010
0000
0001
0100
0010
1000
0001
0000
0000
0000
,
1000
0010
1000
0000
0001
0000
0100
0000
0010
0000
1000
0001
0000
0100
0010
0000
,
1000
0001
1000
0000
0001
0000
0010
0000
0100
0000
1000
0001
0000
1000
0100
0000
,
0010
0001
0010
0000
0001
0000
0100
0000
0010
0000
1000
0001
0000
1000
0010
0000
,
0100
0001
0100
0000
0010
0000
1000
0000
0001
1000
0100
0010
0001
0000
0000
0000
,
0100
0010
0100
0000
0010
0100
0010
0000
0001
1000
0100
0010
0001
0100
0010
0000
,
1000
0010
1000
0000
0001
0100
0001
0000
1000
0010
0100
0001
0010
0100
1000
0000
,
0001
0100
0001
0000
1000
0100
1000
0000
0001
0010
0100
1000
0001
1000
0001
0000
,
1000
0010
1000
0000
0001
0100
0001
0000
1000
0001
0010
0100
1000
0100
0010
0000
,
0001
0010
0001
0000
1000
0010
1000
0000
0001
0100
0010
1000
0001
1000
0010
0000
,
0100
0001
0100
0000
0001
1000
0001
0000
1000
0010
1000
0001
0010
0001
1000
0000
,
0001
0100
0001
0000
0100
0001
0100
0000
0010
1000
0001
1000
0100
0010
0001
0000
,
1000
0010
1000
0000
0100
1000
0100
0000
1000
0100
0010
0001
1000
0010
1000
0000
,
1020
0000
0000
0000
0100
0000
0000
0000
0100
0000
0000
0000
0130
0000
0000
0101
,
0000
0000
0100
0000
0000
0010
0000
0000
1001
0000
0000
0000
0100
0000
0000
1100
,
0000
0000
1000
0000
0000
0001
0000
0000
1001
0000
1000
0000
0010
0000
0000
0110
,
0000
0000
0100
0000
0000
0001
0000
0000
1001
0000
0000
0000
0010
0000
0000
0110
,
0000
0000
0100
0000
0000
1000
0000
0000
0001
0000
1001
0000
1000
0000
0000
0000
,
1001
0001
1000
0100
0010
0001
1000
0000
,
0001
0100
0001
1000
0100
0010
0001
1000
,
0001
0100
0001
0010
0001
1000
0100
0010
,
0001
1000
0001
0100
0010
0000
1000
0010
,
0100
0000
0100
0001
0010
0100
1000
0001
,
1000
0100
0010
0001
1000
0100
1000
0001
,
0100
0010
0100
0001
0100
1000
0100
0010
,
0100
0001
1000
0000
0001
0000
0010
0000
,
0100
0000
0010
0100
1000
0000
0001
1000
,
0001
1000
0100
0010
0001
0100
0001
0010
,
0100
0010
0001
1000
0001
1000
0010
0100
,
0010
1000
0001
0010
0100
1000
0001
1000
,
0001
0100
0001
0000
1000
0000
0100
0000
0010
0000
0100
1000
0000
0001
0100
0000
,
0001
0100
0001
0000
1000
0000
0010
0000
1000
0000
0001
0100
0000
0001
1000
0000
,
0100
0010
0100
0000
1000
0000
0001
0000
1000
0000
0010
0100
0000
0010
1000
0000
,
0001
0100
0001
0000
1000
0000
0100
0000
0010
0001
0100
0010
1000
0000
0000
0000
,
0001
0100
0001
0000
1000
0010
1000
0000
0001
0010
0100
1000
0100
0000
1000
0000
,
0010
1000
0010
0000
0100
0001
0100
0000
0001
0100
0010
1000
0010
0000
0001
0000
,
0100
0001
0100
0000
0010
1000
0010
0000
0100
0010
0100
0010
1000
0000
0010
0000
,
1000
0001
0010
0000
0001
1000
0100
0000
1000
0001
0010
0100
0010
0001
1000
0000
,
0001
0100
0010
0100
0010
0000
1000
0100
1000
0000
0100
0001
1000
0010
0100
0000
,
0001
0100
0001
1000
0010
0000
0100
0010
0100
0000
1000
0001
1000
0010
1000
0000
,
0001
0010
0100
0010
0100
0000
0010
0100
1000
0000
0100
0010
0001
1000
0100
0000
,
1000
0100
0010
0001
0010
0000
1000
0001
0100
0000
0000
0001
0000
0000
1000
0000
,
0001
0100
0001
0100
0001
0000
0100
0001
0010
0000
0100
1000
0100
1000
0001
0000
,
1000
0100
1000
0100
1000
0000
0001
0010
0001
0000
0010
0100
0010
1000
0100
0000
,
1000
0100
0010
0001
1000
0000
0100
0000
0010
0000
0001
0000
0100
0001
1000
0000
,
0000
0001
0000
0000
0000
0000
1000
0000
0000
0000
0001
0000
1000
0000
0010
0000
0100
0000
0001
0000
1000
0000
0000
0000
0001
0000
1000
0000
0100
0000
0000
0000
,
1000
0000
0100
0000
0010
0001
0010
0001
0010
0001
0100
0000
0001
0000
1000
0000
,
0100
0000
0010
0000
0100
0010
0100
0010
0100
0010
0100
0000
1000
0000
0002
0000
,
0103
0010
1000
0010
1000
0000
0002
0000
1003
0100
1000
0100
0010
0000
0002
0000
,
0103
0010
1000
0010
1000
0000
0002
0000
1003
0100
1000
0100
0010
0000
0002
0000
,
1003
0100
2000
0000
3100
0010
0200
0000
0310
0001
0020
0000
0130
1000
0200
0000
,
1300
0001
2000
0000
3001
0100
0002
0000
0013
0100
2000
0000
3001
0100
0010
0100
,
0010
0100
0010
0100
0001
1000
0001
1000
0001
1000
0001
1000
0001
1000
0001
0000
,
0000
0000
1000
0100
0000
0010
0001
0000
2000
0000
0000
0000
3000
0000
0000
0000
,
0001
0000
0010
0000
0100
0000
1000
0000
0000
0001
0000
0000
0010
0000
0000
0100
0000
0000
1000
0000
0000
0001
0000
0000
,
0010
0100
0010
0001
0010
0100
1000
0000
,
0001
0000
0100
0000
0010
0000
1000
0000
0000
0001
0000
0000
0100
0000
0000
0010
0000
0000
1000
0000
0000
0001
0000
0000
,
0100
0010
0100
0001
0100
0010
1000
0000
,
0010
1000
0010
1000
0001
0100
0001
0100
,
0001
0010
0100
1000
0001
1000
0100
0000
,
1000
0100
1000
0000
0001
0100
0001
0000
,
0100
0000
0001
0000
0100
0000
0001
0000
0000
1000
0000
0000
0100
0000
1000
0000
0100
0000
1000
0000
0000
0000
0000
0000
,
0001
0000
0000
0000
0100
0000
0000
0000
0010
0000
0000
1000
0000
0000
0010
0000
,
1000
0000
0000
0000
0100
0000
0000
0000
0010
0000
0000
0001
0000
0000
0010
0000
,
0001
0000
0000
0000
1000
0000
0000
0000
0010
0000
0000
0100
0000
0000
0010
0000
,
0100
0000
0000
0000
0001
0000
0000
0000
1000
0000
0000
0001
0000
0000
1000
0000
,
0002
0000
1000
0000
,
1000
0000
1003
0000
,
2002
0000
0000
0000
,
3003
0000
0000
0000
;

//--------------- dance-single - DJSuperNOVA ----------------
#NOTES:
     dance-single:
     DJSuperNOVA:
     Challenge:
     20:
     0,0,0,0,0:
0000
0000
0000
0000
,
0000
0000
0000
0000
,
0001
0000
0100
0000
0001
1000
0000
0001
1000
0000
0100
0000
1000
0001
0000
1000
,
0001
0000
0000
0000
0000
0000
0010
0000
0000
0000
0000
0000
0100
0000
0000
1000
0000
0000
0000
0000
0000
0001
0000
0000
1000
0000
0000
0000
0010
0000
0000
0000
0100
0000
0000
0000
0001
0000
0000
0000
0000
0000
0000
0000
0000
0000
0000
0000
,
1000
0100
0010
0000
0100
1000
0000
0101
,
0000
0001
0100
0000
0001
1000
0000
0000
,
0001
0100
0010
0000
0100
0001
0000
1100
,
0000
0000
1000
0100
1000
0001
0010
0100
1000
0100
0010
0001
1000
0100
1000
0001
,
0100
0001
1000
0000
0100
1000
0000
0011
,
0000
0010
0001
1000
0100
1000
0000
0001
,
0100
0001
1000
0000
0010
1000
0000
0101
,
0000
0000
0001
0100
0001
1000
0010
1000
0001
0010
0100
1000
0001
1000
0100
0010
,
0002
0000
0000
0000
1003
0000
1000
0000
0001
0000
0010
0000
0100
0000
0010
0000
0100
1000
0100
0000
0010
0000
0001
0000
2000
0000
0000
0000
3002
0000
0000
0000
,
0103
0000
0110
0000
1010
0000
0010
1000
0001
0100
0100
0001
0000
0010
0100
0000
,
1200
0000
0000
0000
2300
0000
0000
0000
3000
0000
0001
0000
0100
0000
0001
0000
1000
0010
1000
0000
0010
0000
0100
0000
0010
0000
0000
0000
0110
0000
0000
0000
,
0010
0000
0100
0000
0010
1000
0010
0000
1000
0000
0100
0000
0010
0000
0001
0000
0010
0000
0001
0000
0100
0000
0001
0000
1000
0001
1000
0000
1001
0000
0000
0000
,
0010
1000
0001
0000
0100
0001
1000
0000
0100
0000
0010
0001
0000
0010
0001
0000
,
0100
0010
1000
0000
0010
1000
0100
0000
0010
0000
0001
0100
0000
0001
0100
0000
,
0001
1000
0100
0000
1000
0001
0100
0000
0001
0000
1000
0010
0000
1000
0010
0000
,
1000
0100
0010
0100
1000
0100
0010
0001
0100
0001
1000
0000
1001
0000
0000
0000
,
0010
0001
1000
0000
0100
1000
0001
0000
0100
0000
0010
1000
0000
0010
1000
0000
,
0100
0010
0001
0000
0010
0001
0100
0000
0001
0000
0100
0010
0000
0100
0010
0000
,
1000
0001
0100
0000
0001
1000
0100
0000
1000
0000
0001
0100
0000
0001
0100
0000
,
0001
1000
0010
0000
1000
0001
0010
0100
1000
0000
0000
0110
0000
0000
0011
0000
,
1000
0100
1000
0100
0010
0100
1000
0100
1000
0001
0100
0001
1000
0010
1000
0001
,
0100
0001
0100
0001
0010
0001
0100
0001
0100
0001
0010
0001
1000
0010
1000
0001
,
1000
0010
1000
0010
0100
0010
1000
0010
1000
0001
0100
0001
0010
0001
1000
0100
,
1000
0100
0010
0001
0010
0100
1000
0001
0100
0001
1000
0001
1000
0000
0000
0000
,
0001
0100
0001
0100
0010
0100
0001
0100
0001
1000
0100
1000
0001
0010
0001
1000
,
0100
1000
0100
1000
0010
1000
0100
1000
0100
1000
0010
1000
0001
0010
0001
1000
,
0001
0010
0001
0010
0100
0010
0001
0010
0001
1000
0100
1000
0010
1000
0001
0100
,
0001
0100
0001
1000
0010
0100
0001
1000
0100
1000
0001
1000
0001
0000
1000
0000
,
0020
0000
0000
0000
0100
0000
0000
0000
0100
0000
0000
0000
0230
0000
0001
0001
,
0000
0010
0010
0000
0001
0001
0000
0000
0002
0000
0003
0000
0302
0000
0010
0010
,
0000
1000
1000
0000
0100
0100
0000
0000
1000
0000
2003
0000
3020
0000
0100
0100
,
0000
0001
0001
0000
1000
1000
0000
0000
0200
0000
0300
0000
0230
0000
0001
0001
,
0000
1000
1000
0000
0010
0010
0000
0000
0001
0000
0302
0000
1003
0000
0000
0000
,
1001
0000
0001
0100
0010
0000
1010
0000
,
1000
0001
0100
0001
1000
0000
0100
0000
,
0010
0000
0001
0010
0001
0000
1000
0001
,
0100
0100
0001
0000
0011
0000
0100
1000
,
0001
0000
1001
0000
0100
1000
0001
0100
,
0010
1000
0010
0001
0010
1000
0100
1000
,
0001
0000
0101
0000
1000
0100
0010
0100
,
1000
0001
0100
0001
,
0100
0000
0010
1000
0001
0000
0100
0001
,
1000
0000
0100
0010
0001
0010
0001
0000
,
0100
0010
1000
0010
1000
0000
1000
0100
,
0010
0001
1000
0001
0010
0100
1000
0001
,
0010
1000
0001
0000
0100
0001
1000
0000
0100
0000
0010
0001
0000
0010
0001
0000
,
0100
0010
1000
0000
0010
1000
0100
0000
0010
0000
0001
0100
0000
0001
0100
0000
,
0001
1000
0100
0000
1000
0001
0100
0000
0001
0000
1000
0010
0000
1000
0010
0000
,
1000
0100
0010
0000
0100
1000
0000
0001
1000
0001
1000
0000
1001
0000
0000
0000
,
0010
0001
1000
0000
0100
1000
0001
0000
0100
0000
0010
1000
0000
0010
1000
0000
,
0100
0010
0001
0000
0010
0001
0100
0000
0001
0000
0100
0010
0000
0100
0010
0000
,
1000
0001
0100
0000
0001
1000
0100
0000
1000
0000
0001
0100
0000
0001
0100
0000
,
0001
1000
0010
0000
1000
0001
0010
0100
1000
0000
0000
1010
0000
0000
0101
0000
,
0001
0100
0010
1000
0100
0010
0001
0100
0010
1000
0100
0010
0001
0010
0100
0010
,
0100
1000
0100
1000
0010
0100
0001
0010
0001
0010
0100
0010
0001
0100
0010
1000
,
0010
0100
0001
0010
0100
0010
0001
0100
0010
1000
0010
0100
0010
1000
0010
0100
,
0010
1000
0010
0100
0001
0010
0100
1000
0010
0100
0010
1000
0001
0000
0000
0000
,
0001
0100
0010
1000
0010
0100
0001
0010
0100
0010
0001
0100
0010
1000
0010
0100
,
0010
1000
0010
0100
0010
1000
0010
0100
0001
0010
0100
1000
0010
0100
0010
1000
,
0001
0010
0100
1000
0200
0300
0200
0300
0020
0030
0020
0030
0001
1000
0010
0000
,
0000
0100
0000
0010
0000
0000
1000
0000
0010
0000
1000
0000
0010
0000
0100
0000
0010
0000
1000
0000
0010
0000
1000
0000
0001
0000
0100
0000
0001
0000
0010
0000
,
0001
1000
0100
1000
0100
0010
0001
0010
0100
1000
0001
0100
0001
1000
0001
1000
,
0001
0100
0001
0100
0010
0100
0001
0100
0001
1000
0100
1000
0001
0010
0001
1000
,
0001
0100
0010
1000
0001
0000
1000
0001
0100
0001
0010
0001
1000
0000
0001
0000
,
1000
0001
1000
0100
1000
0000
0001
0000
0100
0010
1000
0001
0100
0000
0001
0000
,
1000
0010
1000
0000
0010
0100
0010
0000
0100
0001
0100
0000
0001
0010
0001
0000
,
0100
0010
0100
0000
1000
0100
1000
0000
0001
1000
0001
0000
1000
0100
0010
0100
,
1000
0100
0010
0100
1000
0100
0001
0100
1000
0100
0001
0100
1000
0010
0100
0000
,
0000
0000
0000
0000
0000
0000
0001
0000
0000
0100
0000
0000
0000
0000
0000
0001
0000
0000
0100
0000
0000
0000
0000
0000
0001
0000
1000
0000
0001
0000
1000
0000
0001
0000
1000
0000
0001
0000
0000
0000
0000
0000
0000
0000
0000
0000
0000
0000
,
1000
0001
1000
0000
0010
0000
0100
0000
0001
0000
0100
0001
0000
1000
0010
0000
,
1000
0100
1000
0000
0100
0000
1000
0000
0001
0000
0100
0001
0000
1000
0001
0000
,
0010
0100
0010
0000
0001
0000
0100
0000
0010
0000
1000
0001
0000
1000
0100
0000
,
1000
0001
0100
0000
0001
0000
1000
0000
0001
0100
0010
1000
0001
0000
0000
0000
,
1000
0001
1000
0000
0001
0100
0001
0000
1000
0000
0001
1000
0000
0001
1000
0000
,
0001
0100
0010
0000
0100
0010
1000
0000
0001
0000
0100
0001
0000
1000
0001
0000
,
1000
0010
1000
0000
0010
0100
0010
0000
1000
0000
0001
0100
0000
0001
1000
0000
,
0100
0010
0100
0000
1000
0100
1000
0000
0001
0000
1000
0001
0000
0100
0010
0000
,
1000
0000
0000
0100
0000
0000
0010
0000
0001
0000
0010
0000
0001
0000
0010
0000
0001
0000
0010
0000
0000
0001
0000
0000
,
1000
0000
0000
0010
0000
0000
1000
0000
0010
0000
1000
0000
0010
0000
1000
0000
0010
0000
1000
0000
0000
0010
0000
0000
,
0100
0000
0000
0001
0000
0000
0100
0000
0010
0000
0100
0000
0010
0000
0100
0000
0010
0000
0100
0000
0000
0010
0000
0000
,
1000
0000
0000
0100
0000
0000
1000
0000
0100
0000
1000
0000
0100
0000
1000
0000
0100
0000
1000
0000
0000
0001
0000
0000
,
2000
0000
0001
0000
,
0001
0000
3001
0000
,
2002
0000
0000
0000
,
3003
0000
0000
0000
;
