#TITLE:MAISON;
#SUBTITLE:;
#ARTIST:Dreamcatcher;
#TITLETRANSLIT:;
#SUBTITLETRANSLIT:;
#ARTISTTRANSLIT:;
#GENRE:;
#CREDIT:DJSuperNOVA;
#MUSIC:MAISON.ogg;
#BANNER:MAISON.png;
#BACKGROUND:MAISON-bg.png;
#CDTITLE:;
#SAMPLESTART:48.495;
#SAMPLELENGTH:16.000;
#SELECTABLE:YES;
#OFFSET:-0.495;
#BPMS:0.000=120.000;
#STOPS:;
#BGCHANGES:;
#FGCHANGES:;

//--------------- dance-single - DJSuperNOVA ----------------
#NOTES:
     dance-single:
     DJSuperNOVA:
     Beginner:
     3:
     0,0,0,0,0:
0000
0000
0000
0000
,
0000
0000
0000
0000
,
0000
0000
0000
0000
,
0000
0000
0000
0000
,
1000
0000
0010
0000
,
0001
0000
0010
0000
,
1000
0000
0001
0000
,
0010
0010
0010
0000
,
1001
0000
0000
0000
,
0100
0000
0100
0000
,
0001
0000
0000
0000
,
1000
0000
1000
0000
,
0010
0000
0000
0000
,
0001
0000
0001
0000
,
0100
0000
0000
0000
,
0010
0000
1000
0000
,
1000
0000
0100
0000
,
0001
0000
0001
0000
,
0010
0000
0001
0000
,
0100
0000
0100
0000
,
1000
0000
0001
0000
,
1000
0000
0010
0000
,
0010
0000
0100
0000
,
0010
0010
0010
0000
,
1001
0000
0100
0000
,
0001
0000
0100
0000
,
1000
0000
0100
0000
,
0010
0000
0010
0000
,
1001
0000
0010
0000
,
0100
0000
1000
0000
,
0010
0000
0100
0000
,
0001
0000
1001
0000
,
0000
0000
0010
0000
,
0100
0000
0100
0000
,
0001
0000
0001
0000
,
1000
0000
1000
0000
,
0010
0000
0010
0000
,
1000
0000
0001
0000
,
2002
0000
0000
3000
0003
0000
0000
0000
,
0001
0000
0001
0000
,
0100
0000
1000
0000
,
0001
0000
0100
0000
,
1000
0000
1000
0000
,
0010
0000
0100
0000
,
0001
0000
0001
0000
,
1000
0000
0100
0000
,
0010
0000
0001
0000
,
1000
0000
0001
0000
,
0010
0010
0010
0000
,
1001
0000
1000
0000
,
0100
0000
0100
0000
,
0010
0000
0010
0000
,
0001
0000
1000
0000
,
1001
0000
0001
0000
,
0100
0000
0100
0000
,
0010
0000
0010
0000
,
1000
0000
0001
0000
,
1001
0000
1000
1000
,
0000
0000
0001
0001
,
0000
0010
0010
0000
,
0100
0000
0100
0000
,
1001
0000
0001
0001
,
0000
0000
0100
0100
,
0000
0010
0010
0000
,
1000
0000
0001
0000
,
1001
0000
0100
0000
,
0001
0000
0100
0000
,
1000
0000
1000
0000
,
0001
0000
0001
0000
,
1001
0000
0010
0000
,
1000
0000
0010
0000
,
0001
0000
1000
0000
,
1000
0000
0001
0000
,
2002
0000
0000
0000
,
3003
0000
0000
0000
;

//--------------- dance-single - DJSuperNOVA ----------------
#NOTES:
     dance-single:
     DJSuperNOVA:
     Easy:
     5:
     0,0,0,0,0:
0000
0000
0000
0000
,
0000
0000
0000
0000
,
0000
0000
0000
0000
,
0000
0000
0000
0000
,
1000
1000
0001
0000
,
0001
0001
1000
0000
,
0010
0010
0100
0000
,
0100
0100
0001
1000
,
1001
0001
0000
0001
,
0100
0001
0010
1000
,
0100
0100
0000
0100
,
1000
1000
0001
0001
,
0110
1000
0000
1000
,
0010
0100
0001
0001
,
0010
0100
1000
0001
,
1000
1000
0001
0001
,
0100
0000
0010
1000
,
0100
0000
0001
0100
,
0010
0010
1000
1000
,
0001
1000
0001
0000
,
1000
0100
0010
0010
,
0001
0000
0100
0010
,
1000
1000
0001
0100
,
0010
0110
0100
1001
,
0110
0001
1000
1000
,
0000
0100
0001
0001
,
0000
0010
0001
0100
,
0010
0010
1000
1000
,
1001
0001
0100
0100
,
0000
0010
1000
1000
,
0000
0100
0001
0001
,
1000
0010
0100
0010
,
0000
0000
1000
0001
,
0100
0000
0100
0010
,
1000
0000
0100
0100
,
0000
0010
0001
0100
,
0000
0001
1000
0010
,
0110
0000
0100
0001
,
1000
1001
0001
0000
,
0001
0100
1000
0000
,
1000
0100
0010
0001
,
1000
0000
0001
0000
,
0010
0100
1000
0001
,
0100
0000
1000
0010
,
0100
0100
0001
0001
,
1000
0001
0010
0010
,
0100
0000
1000
0010
,
0100
0100
0001
0010
,
0100
0110
0010
1001
,
0110
0001
1000
1000
,
0100
0010
0001
0001
,
0100
0010
1000
0100
,
0010
0010
0001
1000
,
1001
0001
0100
0010
,
1000
0010
1000
0100
,
0001
0100
1000
0001
,
1000
0010
0100
0010
,
0110
0100
0001
0010
,
0000
0100
1000
0001
,
0000
1000
1000
0000
,
0100
0001
0010
0100
,
1001
0100
0001
0000
,
0010
0100
1000
0000
,
1000
0001
0001
1000
,
0001
0100
0010
0100
,
1001
0010
0100
0100
,
0000
0010
0001
1000
,
0000
0100
0010
0010
,
0100
0001
1000
0001
,
1001
0100
0010
0010
,
0000
0010
1000
0001
,
0000
0100
0001
1000
,
0010
0100
0001
1000
,
2002
0000
0000
0000
,
3003
0000
0000
0000
;

//--------------- dance-single - DJSuperNOVA ----------------
#NOTES:
     dance-single:
     DJSuperNOVA:
     Medium:
     9:
     0,0,0,0,0:
0000
0000
0000
0000
,
0000
0000
0000
0000
,
0000
0000
0000
0000
,
0000
0000
0000
0000
,
1000
0000
0000
0001
0000
0000
1000
0000
0010
0000
0000
0010
0000
0000
0100
0000
,
0001
0000
0000
1000
0000
0000
0001
0000
0100
0000
0000
0100
0000
0000
0010
0000
,
1000
0000
0000
0100
0000
0000
0010
0000
0001
0000
0000
0100
0000
0000
0001
0000
,
1000
0011
1100
1001
,
0001
0000
0000
0100
0000
0000
0010
0000
0000
0000
0010
0000
1000
0000
0000
0000
,
0100
1000
0010
0000
0100
0001
1000
0000
,
0001
0000
0000
0010
0000
0000
0100
0000
0000
0000
0100
0000
0110
0000
0000
0000
,
0001
0000
0000
1000
0000
0000
0010
0000
0100
0000
0000
0010
0000
0000
1000
0000
,
1001
0000
0000
0001
0000
0000
0100
0000
0000
0000
0010
0000
0100
0000
0001
0000
,
1000
0000
0000
0100
0000
0000
1000
0000
0000
0000
0001
0000
0100
0000
0010
0000
,
1000
0000
0000
0001
0000
0000
1000
0000
0000
0000
0100
0000
0110
0000
0000
0000
,
0010
0000
0000
0001
0000
0000
0100
0000
0010
0000
0000
1000
0000
0000
0001
0000
,
2001
0010
0100
0010
,
3002
0100
0010
1000
,
0203
0010
0001
1000
,
0320
1000
0001
0100
,
1030
0000
1100
0000
0010
0001
0100
0000
,
0010
0000
0110
0000
0010
1000
0100
0000
,
1000
0001
0010
0100
1000
0010
0100
0000
,
0110
1001
0011
1100
,
0001
0000
0000
0001
0000
0000
0001
0000
1000
0000
0010
0000
1000
0000
0100
0000
,
0010
0000
0000
0010
0000
0000
0010
0000
0001
0000
0100
0000
0001
0000
1000
0000
,
0100
0000
0000
0100
0000
0000
0100
0000
1000
0000
0001
0000
0100
0000
0000
0000
,
0010
0000
0000
0010
0000
0000
0100
0000
0001
0000
0000
1000
0000
0000
0001
0000
,
1001
0000
0000
1000
0000
0000
1000
0000
0001
0000
0100
0000
0010
0000
0000
0000
,
0100
0000
0000
0100
0000
0000
0100
0000
0010
0000
1000
0000
0100
0000
0000
0000
,
0001
0000
0000
0001
0000
0000
0001
0000
0100
0000
0010
0000
1000
0000
0001
0000
,
1000
0000
0000
0100
0000
0000
0010
0000
0001
0000
0000
0100
0000
0000
0110
0000
,
0000
0000
0000
1000
0010
0100
0001
1000
,
0010
0000
0010
0000
0100
0001
1000
0000
,
0110
0000
0010
0001
1000
0100
0010
0000
,
1100
0000
0100
0010
0001
0100
0010
1000
,
0000
1000
0001
0010
0001
0000
1100
0000
,
0001
0000
0000
1000
0000
0000
0001
0000
0010
0000
0100
0000
1000
0000
0000
0000
,
0010
0000
0000
0100
0000
0000
0010
0000
0000
0000
0000
0000
0110
0000
0000
0000
,
0010
1000
0100
0010
0001
0100
0001
0000
,
0001
0000
0000
1000
0000
0000
0010
0000
0100
0000
0010
0000
1000
0000
0001
0000
,
0100
0000
0110
0000
0010
1000
0001
0000
,
1000
0000
0110
0000
0010
0001
0100
0010
,
1000
0000
0101
0000
0001
1000
0010
0000
,
0100
0001
0010
0100
0010
0001
1000
0010
,
0100
0002
0203
0320
,
2030
0000
3100
0010
0001
1000
0010
0100
,
0010
0000
0110
0000
0010
1000
0001
0000
,
1001
0110
1100
0011
,
1001
0000
1000
0001
1000
0010
0100
0001
,
1000
0000
1000
0100
0010
0001
0010
0001
,
1000
0000
1000
0001
0010
0100
1000
0001
,
1000
0001
1000
0000
0010
0100
0010
0000
,
0110
0000
0100
0001
0010
0001
0100
0001
,
0100
0000
0100
0010
0100
1000
0100
0001
,
0100
0010
0100
0010
1000
0001
1000
0001
,
1000
0000
0000
0010
0000
0000
0100
0000
0001
0000
0000
0010
0000
0000
0110
0000
,
0010
0001
1000
0010
0100
0001
1000
0000
,
0001
0010
0100
1000
0100
1000
0001
0000
,
1100
0000
0011
0000
0010
0001
0100
0001
,
0000
0101
0000
0001
1000
0010
0100
0000
,
0110
0000
0010
1000
0010
1000
0001
0000
,
0001
0010
0100
1000
0001
0100
0001
0000
,
1100
0000
0110
0000
0010
0001
1000
0001
,
0000
1001
0000
0100
0001
1000
0100
0000
,
0110
0000
0010
0001
0100
0001
1000
0100
,
1000
0000
0010
0100
0001
0010
0001
1000
,
0010
0000
1010
0000
0010
1000
0001
0010
,
0000
0011
0000
1000
0100
1000
0001
0000
,
1001
0000
0001
0010
0100
1000
0100
1000
,
0010
0000
0010
0100
0001
1000
0100
0010
,
0001
0000
0110
0000
0001
1000
0100
0000
,
0010
0000
0000
0010
0000
0000
0010
0000
0100
0000
0000
0100
0000
0000
0100
0000
,
2002
0000
0000
0000
,
3003
0000
0000
0000
;

//--------------- dance-single - DJSuperNOVA ----------------
#NOTES:
     dance-single:
     DJSuperNOVA:
     Hard:
     14:
     0,0,0,0,0:
0000
0000
0000
0000
,
0000
0000
0000
0000
,
0000
0000
0000
0000
,
0000
0000
0000
0000
,
0100
1000
0000
0001
0000
0000
0001
0000
0010
0100
0000
0010
0000
0001
1000
0100
,
1000
0000
0000
0001
0000
0000
1000
0000
0001
0100
0000
0010
0000
1000
0001
1000
,
0010
0000
0000
0100
0000
0000
0010
0000
1000
0001
0000
1000
0000
0100
0010
0001
,
0100
1010
0100
0011
,
1001
0000
0000
0001
1000
0000
1000
0010
0000
0000
0100
0000
0110
0000
0010
0000
,
1000
0001
0000
0010
0000
0100
0000
0010
0000
0001
0000
0100
0000
0010
0000
1000
,
0010
0000
0000
1000
0010
0000
0010
0100
0000
0000
0001
0000
1001
0000
1000
0000
,
0100
0000
0010
0001
0000
0001
0010
0000
0110
0000
0100
1000
0000
1000
0010
0000
,
0110
0000
0000
0100
0001
0000
1000
0001
0000
0000
0010
0000
0100
0010
0000
0001
,
1000
0010
0000
0010
0100
0000
0001
0100
0000
0010
0100
0000
0110
0000
0010
0000
,
1000
0000
0001
1000
0001
0000
0100
0010
0000
0010
1000
0000
1000
0010
0000
0100
,
0000
0001
0000
0010
0000
0100
0000
1000
0001
0000
1000
0000
1001
0000
0001
0000
,
1000
0000
0100
0000
0010
0000
0100
1000
0000
0000
0001
0000
0101
0000
0100
0000
,
0010
1000
0000
0100
0000
0010
0000
0100
0000
1000
0000
0001
0100
0001
0000
1000
,
0010
0000
0100
0000
0110
0000
0100
0001
0000
0000
1000
0000
1001
0000
0001
0000
,
0100
0010
0000
1000
0000
0100
0000
0001
0000
0100
0000
1000
0100
1000
0000
0010
,
0100
0000
0010
0000
0110
0000
0100
0001
1000
0000
0100
0000
0110
0000
0010
0001
,
1000
0010
0110
0100
0001
1000
0100
0010
,
0011
0000
0101
0000
0010
1000
0010
1000
,
1010
0011
1100
0101
,
1001
0000
0001
1000
0000
1000
0001
1000
0010
0000
1000
0010
1000
0000
0100
0000
,
0110
0000
0001
0010
0000
0001
0010
0001
1000
0000
0001
1000
0001
0000
0100
0000
,
0110
0000
1000
0010
0000
1000
0100
1000
0001
0000
0100
0000
0010
0000
1000
0000
,
1010
0000
0000
0100
0000
0000
0010
0000
0011
0000
0000
0100
0000
0000
0010
0000
,
1001
0000
0001
1000
0000
0001
1000
0100
0010
0000
0100
0010
0100
0000
0010
0000
,
0011
0000
0001
0100
0000
0100
0010
1000
0010
0000
1000
0100
1000
0000
0001
0000
,
1001
0000
0001
1000
0000
1000
0010
0100
0010
0000
1000
0000
0001
0000
0100
0000
,
0110
0000
0000
1010
0000
0000
0100
0000
0110
0000
0000
0011
0000
0000
1000
0000
,
0000
0000
0000
0001
1000
0001
0010
0100
,
1000
1000
0000
0010
0100
0001
1000
0100
,
0010
0000
0010
0000
0000
0000
0010
0000
0001
0000
0100
0000
0010
1000
0000
0000
,
0001
0000
1000
0000
0100
0000
0010
0000
0100
0000
0010
0000
0001
0000
1000
0100
,
0000
1000
0010
0100
0001
0010
0100
0110
,
0010
0000
0001
1000
0000
1000
0010
0000
0100
0000
0001
0000
1000
0000
0001
0000
,
1001
0000
0000
0110
0000
0000
1001
0000
0000
0000
0000
1000
0100
0010
0001
1000
,
0000
0010
0000
0000
0100
0001
0100
0001
0000
1000
0000
0000
0010
1000
0010
0000
,
0100
0000
0001
0000
0010
0100
0010
0100
0000
0010
0000
0000
0001
0000
0001
0000
,
1000
0000
0100
0000
0010
0000
0100
1000
0000
0000
0001
0000
0101
0000
0100
0000
,
0010
1000
0000
0100
0000
0010
0000
0100
0000
1000
0000
0001
0100
0001
0000
1000
,
0010
0000
0100
0000
0110
0000
0100
0001
0000
0000
1000
0000
1001
0000
0001
0000
,
0100
0010
0000
1000
0000
0100
0000
0001
0000
0100
0000
1000
0100
1000
0000
0010
,
0100
0000
0010
0000
0110
0000
0100
0001
1000
0000
0100
0000
0110
0000
0010
0001
,
1000
0010
0110
0100
0001
1000
0100
0010
,
0011
0000
0101
0000
0010
1000
0010
1000
,
1010
0011
1100
0101
,
1000
0000
0001
0000
1000
0000
0010
0100
0010
0000
0100
0010
0100
0000
0001
0000
,
1000
0000
0001
0000
1000
0000
0001
1000
0001
0000
0010
0100
0010
0000
0001
0000
,
1000
0000
0010
0000
1000
0000
0010
0100
0010
0000
0100
0000
0001
0000
1000
0000
,
1010
0000
0010
0000
0100
0000
0001
0000
0010
0100
0010
0000
0001
1000
0001
0000
,
1001
0000
0000
0000
1001
0000
0001
1000
0001
0000
0100
0000
0010
0000
0100
0000
,
0110
0000
0000
0000
0110
0000
0010
0100
0010
0000
1000
0000
0100
0000
0010
0000
,
0011
0000
0001
0000
0010
0000
0001
1000
0100
0000
1000
0000
0100
0000
1000
0000
,
1100
0000
0000
0110
0000
0000
0001
0000
0101
0000
0000
0110
0000
0000
1000
0000
,
0001
1000
0001
1000
0010
0100
0001
0010
,
0100
0010
0001
1000
0100
0001
0100
1000
,
0001
0000
1001
0000
0110
0010
0100
0101
,
0000
0000
1001
0000
0000
0000
1100
0000
1000
0100
1000
0000
0001
0000
0000
0000
,
1001
1000
0010
0100
0001
0100
1000
0100
,
0001
0010
1000
0010
0001
0100
0010
1000
,
0001
0000
0011
0000
0101
0100
0010
1010
,
0000
1010
0000
1000
0001
1001
0000
0002
,
1003
0000
0100
0000
0010
0000
0001
0010
0001
0000
1000
0010
1000
0000
1000
0000
,
0010
0000
0100
0000
0001
0000
0010
0100
0010
0000
0100
0010
0100
0000
0100
0000
,
0010
0001
1001
0000
1001
0001
0010
0110
,
0000
0000
0110
0000
0000
0000
0100
0000
1000
0100
1000
0000
0001
1000
0001
0000
,
1001
0000
1000
0000
0100
0000
0010
0001
0010
0000
0100
0010
0100
0000
1000
0000
,
0001
0000
0100
0000
0010
0000
1000
0010
1000
0000
0010
0100
0010
0000
0100
0000
,
0001
1000
1001
0000
0101
0100
0010
1000
,
1001
0000
0000
0110
0000
0000
0100
0000
0110
0000
0000
0010
0000
0000
0002
0000
,
2000
0000
0000
0000
,
3003
0000
0000
0000
;
