#TITLE:Lost;
#SUBTITLE:;
#ARTIST:Linkin Park;
#TITLETRANSLIT:;
#SUBTITLETRANSLIT:;
#ARTISTTRANSLIT:;
#GENRE:;
#CREDIT:raikohtech;
#MUSIC:Lost.ogg;
#BANNER:Lost.png;
#BACKGROUND:Lost-bg.png;
#CDTITLE:;
#SAMPLESTART:58.945;
#SAMPLELENGTH:20.571;
#SELECTABLE:YES;
#OFFSET:-0.088;
#BPMS:0.000=105.000;
#STOPS:;
#BGCHANGES:;
#FGCHANGES:;

//--------------- dance-single - raikohtech, DJSuperNOVA ----------------
#NOTES:
     dance-single:
     raikohtech, DJSuperNOVA:
     Easy:
     5:
     0,0,0,0,0:
0000
0000
0000
0000
,
0000
0000
0000
0000
,
0001
1000
0001
1000
,
0010
0100
0010
1000
,
1001
0001
0100
0010
,
0100
0001
0100
0010
,
1000
0100
1000
0001
,
0100
0001
1000
0010
,
0110
0100
0110
0010
,
1001
0000
1000
0001
,
1000
0100
1000
0100
,
0001
0100
0001
0100
,
0010
1000
0010
1000
,
0010
0001
0010
0001
,
1001
1000
0100
1000
,
0001
0100
0001
0001
,
1000
0010
0100
0100
,
0010
1000
0100
0010
,
0110
0010
0001
0010
,
0001
1000
0001
1000
,
0001
0100
0010
0010
,
1000
0001
0010
0100
,
0110
0100
1000
0001
,
0100
0001
1000
0010
,
0110
0100
0001
0010
,
0100
1000
0001
1001
,
0110
0010
0001
1000
,
0001
0010
1000
0010
,
0001
0010
0001
1000
,
0100
0001
0100
0100
,
1001
0010
0001
0100
,
1000
0100
0001
0010
,
1000
0100
0001
0100
,
1000
0010
0001
1000
,
2001
0100
3001
1001
,
0110
0000
0010
0001
,
0100
0001
0100
0001
,
0100
1000
0100
1000
,
0010
1000
0010
1000
,
0001
0010
0001
0010
,
0110
0100
1000
0100
,
0001
0100
0010
0100
,
1000
0010
0001
0010
,
0100
0010
0001
1000
,
1001
0001
0100
0010
,
1000
0001
1000
0001
,
0011
0001
0010
0001
,
1000
0010
0100
1001
,
0110
0010
0001
1000
,
0001
0010
1000
0010
,
0001
0010
0001
1000
,
0100
0001
0100
0100
,
1001
0010
0001
0100
,
1000
0100
0001
0010
,
0001
0100
0001
0100
,
1000
0010
0001
1000
,
1002
0100
1003
1001
,
0110
0010
0100
0010
,
0000
0001
0100
0001
,
0101
0100
0010
0001
,
0000
0001
0010
0100
,
1100
0010
0100
0001
,
0000
0001
0010
0100
,
0110
0001
1000
0010
,
0000
0001
1000
1001
,
0110
0010
0011
1000
,
1100
0100
0010
0001
,
0011
0001
0100
0010
,
1010
1000
0001
0100
,
0110
0010
0001
1000
,
1001
0010
0100
1000
,
1100
0100
0010
0001
,
0011
0010
0001
1001
,
0110
0010
0001
1000
,
0001
0010
1000
0010
,
0001
0010
0001
1000
,
0100
0001
0100
0100
,
1001
0010
0001
0100
,
1000
0100
0001
0010
,
1000
0100
0001
0100
,
1000
0010
0001
1000
,
2001
0100
3001
1001
,
0220
0000
0000
0000
,
0330
0000
0000
0000
;

//--------------- dance-single - raikohtech, DJSuperNOVA ----------------
#NOTES:
     dance-single:
     raikohtech, DJSuperNOVA:
     Medium:
     7:
     0,0,0,0,0:
0000
0000
0000
0000
,
0000
0000
0000
0000
,
0001
0000
1000
0001
0000
0100
0000
0001
,
0000
0010
0100
0000
0010
0000
0010
0000
,
1001
0000
0100
0000
1000
0100
1000
0000
,
0001
0000
0100
0000
0001
0100
0001
0000
,
1000
0000
0010
0000
0100
0010
0100
0000
,
0001
0000
1000
0000
0100
1000
0100
0000
,
1100
0011
1001
0110
,
2002
0000
0000
3003
0000
0001
1000
0000
,
0100
0000
1000
0000
0001
0100
0001
0000
,
1000
0000
0010
0000
1000
0100
1000
0000
,
0001
0000
0100
0000
0001
0100
0001
0000
,
0010
0000
0001
0000
1000
0100
0010
0000
,
0100
0000
1000
0000
0001
0100
0010
0000
,
0100
0000
0001
0000
1000
0100
0010
0000
,
0100
0000
1000
0000
0001
0100
0001
0000
,
1000
0000
0010
0000
0100
0010
0100
0000
,
0110
0010
1000
1001
,
0001
0000
0100
0000
0001
0100
0010
0000
,
1000
1001
0001
0101
,
0100
0000
0010
0000
1000
0100
0010
0000
,
0100
0110
0100
1001
,
0001
0000
0100
0000
0010
0100
0010
0000
,
1000
1010
0001
0011
,
0100
1000
1000
0110
,
1001
0000
0001
0000
1000
0100
1000
0000
,
0001
0000
0100
0000
0010
0100
0010
0000
,
1000
0100
0010
0000
0001
0100
0010
0000
,
1000
0010
1000
0000
0001
0010
0001
0000
,
1001
0000
0110
0000
0010
0100
0001
0000
,
0100
0000
0010
0000
1000
0100
0010
0000
,
0100
0010
0001
0000
0001
0100
0010
0000
,
1000
0100
0010
0000
1001
0000
0110
0000
,
0011
1100
1001
0110
,
2002
0000
0000
3003
0000
1000
0001
0000
,
0100
0000
0010
0000
0100
0010
0100
0000
,
0001
0000
1000
0000
0001
0100
0001
0000
,
1000
0000
0100
0000
1000
0100
1000
0000
,
0010
0000
0100
0000
0010
0100
0010
0000
,
1000
0000
0001
0000
1000
0100
0010
0000
,
0100
0000
0001
0000
0100
0010
1000
0000
,
0001
0000
0100
0000
0001
0100
0010
0000
,
0100
0000
0001
0000
1000
0010
0100
0000
,
0110
0000
0010
0000
0100
0010
0100
0000
,
0001
0000
1000
0000
0010
0100
0010
0000
,
1000
0000
0100
0000
0010
0001
0010
0000
,
0100
0100
0010
0110
,
1001
0000
0001
0000
1000
0100
1000
0000
,
0001
0000
0100
0000
0010
0100
0010
0000
,
1000
0100
0010
0000
0001
0100
0010
0000
,
1000
0010
1000
0000
0001
0010
0001
0000
,
1001
0000
0110
0000
0010
0100
0010
0000
,
0100
0000
0010
0000
1000
0100
0010
0000
,
0100
0010
0001
0000
0001
0100
0010
0000
,
1000
0100
0010
0000
1001
0000
0110
0000
,
1010
0101
1100
0011
,
1000
0000
1000
0000
0001
0100
0001
0000
,
0000
0001
0001
0010
,
0100
0000
1000
0000
0100
1000
0100
0000
,
0000
1000
0010
0100
,
0001
0000
0010
0000
0100
0010
0100
0000
,
0000
0010
0001
1000
,
0001
0000
1000
0000
0100
0010
0100
0000
,
0000
0100
0010
0110
,
1001
0000
0100
0000
0010
0100
0010
0000
,
1000
0000
0001
0000
0100
0010
0100
0000
,
0001
0000
1000
0000
0100
0010
0100
0000
,
1000
0000
0001
0000
0100
0010
0100
0000
,
0110
0000
0001
0000
1000
0001
1000
0000
,
0010
0000
0100
0000
0010
0100
0001
0000
,
1000
0000
0010
0000
0100
0010
1000
0000
,
0001
1000
0010
0110
,
1001
0000
0001
0000
1000
0100
1000
0000
,
0001
0000
0100
0000
0010
0100
0010
0000
,
1000
0100
0010
0000
0001
0100
0010
0000
,
1000
0010
1000
0000
0001
0010
0001
0000
,
1001
0000
0110
0000
0010
0100
0001
0000
,
0100
0000
0010
0000
1000
0100
0010
0000
,
0100
0010
0001
0000
0001
0100
0010
0000
,
1000
0100
0010
0000
1001
0000
0110
0000
,
0011
1100
1001
0110
,
2002
0000
0000
0000
,
3003
0000
0000
0000
;
