#TITLE:Long Train to Gangnam;
#SUBTITLE:[Shakunetsu Pt.2 Long Train Running - beatmania IIDX 23 copula];
#ARTIST:Kirbio [SiIvaGunner];
#TITLETRANSLIT:;
#SUBTITLETRANSLIT:;
#ARTISTTRANSLIT:;
#GENRE:;
#CREDIT:DJSuperNOVA;
#MUSIC:Long Train to Gangnam.ogg;
#BANNER:Long Train to Gangnam.png;
#BACKGROUND:Long Train to Gangnam-bg.png;
#CDTITLE:;
#SAMPLESTART:23.311;
#SAMPLELENGTH:23.273;
#SELECTABLE:YES;
#OFFSET:-0.038;
#BPMS:0.000=165.000;
#STOPS:;
#BGCHANGES:;
#FGCHANGES:;

//--------------- dance-single - DJSuperNOVA ----------------
#NOTES:
     dance-single:
     DJSuperNOVA:
     Beginner:
     4:
     0,0,0,0,0:
0000
0000
0000
0000
,
0000
0000
0000
0000
,
0000
0000
0000
0000
,
0000
0000
0000
0000
,
1000
0000
0000
0000
,
0001
0000
0010
0010
,
0001
0000
0000
0000
,
1000
0000
0100
0100
,
2000
0000
3000
0000
,
0002
0000
0003
0000
,
0020
0000
0030
0000
,
0200
0000
0300
0000
,
1000
0000
1000
0000
,
0001
0000
0001
0000
,
0100
0000
0010
0000
,
0220
0000
0000
0330
,
0100
0000
0100
0000
,
0001
0000
0000
0000
,
0010
0000
0010
0000
,
0001
0000
0000
0000
,
1000
0000
1000
0000
,
0100
0000
0000
0000
,
0001
0000
0001
0000
,
1000
0000
0000
0000
,
0010
0010
0000
0000
,
0100
0100
0000
0000
,
0001
0001
0000
0000
,
0100
0100
0000
0000
,
0001
1000
0000
0000
,
1000
0001
0000
0000
,
0010
0100
0000
0000
,
0100
0010
0000
0000
,
2001
0000
3000
0000
,
0002
0000
0003
0000
,
0200
0000
0300
0000
,
0002
0000
0003
0000
,
1000
0000
1000
0000
,
0001
0000
0001
0000
,
0100
0000
0100
0000
,
0010
0000
0220
0330
,
1001
0000
0000
0000
,
0001
0001
0001
0000
,
1001
0000
0000
0000
,
1000
1000
1000
0000
,
0110
0000
0000
0000
,
0001
0001
0001
0001
,
2000
3000
0000
0000
,
0002
0003
0000
0000
,
0100
0100
0100
0000
,
0020
0000
0000
0030
,
1001
0000
0000
0000
,
0100
0000
0000
0000
,
0001
0000
0000
0000
,
0100
0000
0000
0000
,
1001
0000
0000
0000
,
0010
0000
0000
0000
,
1000
0000
0000
0000
,
0010
0000
0000
0000
,
0001
0001
0000
0000
,
1000
1000
0000
0000
,
0010
0000
0010
0000
,
0100
0100
0000
0000
,
1000
1000
0000
0000
,
0001
0001
0000
0000
,
1000
0000
0001
0000
,
1000
0000
0010
0010
,
0000
0000
0000
0000
,
0110
0000
1001
0000
,
0020
0000
0000
0000
,
0030
0010
0010
0010
,
1000
0000
1000
0000
,
0001
0000
0001
0000
,
0200
0000
0000
0000
,
0300
0100
0100
0100
,
0001
0000
0001
0000
,
1000
0000
0001
0000
,
1000
0000
0100
0000
,
0010
0000
0001
0000
,
1000
0000
1000
0000
,
0001
0000
1001
0000
,
0001
0000
0100
0000
,
0010
0000
1000
0000
,
0001
0000
1000
0000
,
0010
0000
0000
0000
0100
0000
0000
0110
;

//--------------- dance-single - DJSuperNOVA ----------------
#NOTES:
     dance-single:
     DJSuperNOVA:
     Easy:
     8:
     0,0,0,0,0:
0000
0000
0000
0000
,
0000
0000
0000
0000
,
0000
0000
0000
0000
,
0000
0100
0100
1001
,
0000
0000
0000
0000
,
0000
0000
0010
1001
,
0000
0000
0000
0000
,
0000
0001
1000
1001
,
2000
0000
3020
0000
,
2030
0000
3020
0000
,
0230
0000
0302
0000
,
0203
0000
0302
0000
,
0023
0000
0230
0000
,
0320
0000
0230
0000
,
2300
3000
0002
0003
,
0220
0000
0000
0330
,
0010
0001
0010
0010
,
0100
0100
1000
0000
,
1000
0010
1000
1000
,
0010
0100
0001
0000
,
0001
0100
0001
0100
,
0010
1000
0010
1000
,
0001
0110
1000
0110
,
0002
2003
0002
3003
,
1001
1001
0020
0030
,
0110
0110
0200
0300
,
1010
1010
0020
0030
,
0101
0101
0200
0300
,
0101
1100
0002
1003
,
1100
0101
0002
0013
,
0110
1001
2000
3002
,
0013
0110
0110
1001
,
2000
0000
3020
0000
,
0230
0000
0302
0000
,
2003
0000
3020
0000
,
0230
0000
0302
0000
,
0203
0000
0302
0000
,
0023
0000
0230
0000
,
2300
0000
3002
0000
,
0023
0000
0230
0000
,
0320
0030
0010
0010
,
0100
0010
0001
1000
,
0020
0030
0010
0010
,
1000
0001
0100
0100
,
0002
0003
1000
0001
,
0010
0100
1000
0001
,
2001
3000
1000
0001
,
0100
0010
0100
0010
,
1010
1000
1010
0010
,
0101
0100
0101
0001
,
1000
0000
0001
0000
0000
0001
0000
0000
,
1000
0000
0001
0000
0000
1000
0000
0000
,
0010
0000
0100
0000
0000
0010
0000
0000
,
0100
0000
0001
0000
0000
1000
0000
0000
,
0001
0000
0100
0000
0000
0001
0000
0000
,
1000
0000
0100
0000
0000
1000
0000
0000
,
0010
0010
0100
0100
,
0220
0000
0330
0000
,
1000
0100
0010
0010
,
0001
0100
0010
0010
,
1000
0001
0100
0010
,
0010
1000
0000
0000
,
0001
0100
0000
0001
,
0010
0100
0000
1000
,
0010
0100
0001
1000
,
1001
0010
0100
1001
,
0000
0000
0000
0000
,
0001
0000
0000
1000
0000
0000
0001
0000
1000
0000
0000
0001
0000
0000
1000
0000
,
0010
0010
0100
0100
,
0001
0010
0110
0110
,
0100
0000
0000
0100
0000
0100
0000
0100
,
0000
0001
1000
1001
,
1000
1000
0001
0001
,
0100
0010
0100
0110
,
0010
0000
0000
0010
0000
0100
0000
0010
,
1000
1100
0001
0101
,
1001
1000
0100
1000
,
0001
0001
0100
0001
,
0010
0110
0100
0110
,
0010
1001
0100
1001
,
0001
0010
0100
1000
,
0010
0100
0110
0110
,
0010
1001
0100
1001
,
0010
0000
0000
0000
0110
0000
0000
0000
0100
0000
0000
1000
0000
0000
0001
0000
;

//--------------- dance-single - DJSuperNOVA ----------------
#NOTES:
     dance-single:
     DJSuperNOVA:
     Medium:
     12:
     0,0,0,0,0:
0000
0000
0000
0000
,
0000
0000
0000
0000
,
0000
0000
0000
0000
,
0000
0000
0000
0000
,
0001
0000
0000
1000
0000
0000
0001
0000
0000
0100
0000
0000
0010
0000
0010
0000
,
1000
0000
0000
0100
0000
0000
1000
0000
0000
0001
0000
0000
0010
0000
0010
0000
,
0001
0000
0000
1000
0000
0000
0001
0000
0000
0100
0000
0000
0010
0000
0010
0000
,
1000
0000
0000
1001
0000
0000
0001
0000
0000
1001
0000
0000
1000
0000
0100
0000
,
0020
0000
0000
0000
0001
0000
0000
0000
0032
0000
0000
0100
0000
0000
0100
0000
,
2003
0000
0000
0000
0010
0000
0000
0000
3002
0000
0000
0100
0000
0000
0100
0000
,
2003
0000
0000
0000
0001
0000
0000
0000
3020
0000
0000
0100
0000
0000
0100
0000
,
2030
0000
0000
0000
0100
0000
0000
0000
3002
0000
0000
0100
0000
0000
1000
0000
,
1003
0100
1000
0100
0010
0100
0010
0100
,
0010
0001
0010
0001
1000
0001
0100
0001
,
0010
0001
0010
0001
0000
0000
1000
0010
1000
0010
0000
0000
,
1000
0100
1000
0001
0100
0001
1000
0100
0010
0001
0000
0000
,
1000
0100
1000
0001
0000
0001
0100
0001
,
0010
0100
1000
0001
1000
1000
0000
0001
,
1000
0010
1000
0010
0100
0001
0100
0001
,
0010
1000
0010
0001
1000
1000
0000
0001
,
0100
0010
0010
1000
0100
0010
0001
0100
,
0001
0010
0100
1000
0010
0001
0010
1000
,
0001
0000
0110
0000
0001
1000
0100
0010
,
0001
1000
0001
1001
,
2001
0000
0000
0000
3002
0000
0000
0000
1003
0000
0001
1000
0001
0000
0100
0000
,
0020
0000
0000
0000
0230
0000
0000
0000
0310
0000
0100
0010
0100
0000
0001
0000
,
0020
0000
0000
0000
0230
0000
0000
0000
1300
0000
0100
1000
0100
0000
1000
0000
,
0002
0000
0000
0000
2003
0000
0000
0000
3001
0000
0100
0001
0100
0000
0001
0000
,
0020
0000
0000
0000
0032
0000
0000
0000
1003
0000
0010
1000
0010
0000
0100
0000
,
0020
0000
0000
0000
2030
0000
0000
0000
3001
0000
0010
0001
0010
0000
0001
0000
,
0200
0000
0000
0000
0302
0000
0000
0000
1003
0000
0001
0100
0001
0000
1000
0000
,
0010
0100
0010
0100
0010
0100
0010
0000
,
2001
0000
0000
0000
0001
0000
0000
0000
3020
0000
0000
1000
0000
0000
0100
0000
,
0230
0000
0000
0000
0001
0000
0000
0000
0302
0000
0000
0010
0000
0000
1000
0000
,
2003
0000
0000
0000
0100
0000
0000
0000
3020
0000
0000
1000
0000
0000
0100
0000
,
0230
0000
0301
0010
0100
1000
0001
0000
,
1001
1100
1001
0101
,
1001
0110
1100
0011
,
0001
0100
0001
0100
0010
1000
0010
1000
,
0001
0010
0100
1000
0010
0100
0001
0000
,
2001
0000
0000
0000
3001
0001
0100
0001
,
0010
0010
0100
1000
0010
0100
0001
0000
,
1000
0001
1000
1000
,
0001
1000
0001
0001
,
0002
0000
0000
0000
1003
0010
0100
0010
,
1000
0101
0001
1100
,
0200
0000
2300
0000
0000
3002
0000
0023
,
0230
0000
2300
0000
0000
3020
0000
0230
,
0302
2003
3002
0023
0230
0000
0320
0000
,
0031
0100
0100
0100
0100
0100
0200
0000
,
0310
0000
0110
0000
0000
0010
0000
0000
,
1000
0000
1000
0000
0000
0001
0000
0000
,
0100
0000
0100
0000
0000
0001
0000
0000
,
1000
0000
0100
0000
0010
0001
0000
0000
,
1000
0000
1000
0000
0000
0001
0000
0000
,
0010
0100
0010
0100
0010
0000
0000
0000
,
0001
0000
1000
0000
0000
0001
0000
0000
,
2002
0000
3003
0000
,
0001
0100
1000
0000
0000
0001
1000
0000
,
1000
0100
0001
0000
0000
0000
1000
0000
,
0001
1000
1001
0110
,
0001
0010
0100
0000
0000
0000
0000
0000
,
1000
0100
0001
0000
0000
1000
0001
0000
,
0001
0100
1000
0000
0000
0000
0001
0100
,
0001
0010
0100
1000
0001
0000
1001
0000
,
1000
0100
0001
0100
1000
0010
0001
0000
,
0110
0000
0000
0000
,
0010
0000
0000
0010
0000
0000
0010
0000
0100
0000
0000
0100
0000
0000
0100
0000
,
0001
1000
0001
1000
0001
1000
0001
1000
,
0001
1000
0001
1000
0001
1000
0001
0000
,
1000
0001
0000
0000
0001
1000
0000
0000
1000
0001
0000
0000
1000
0001
0000
0000
,
0001
1000
0000
0000
1000
0001
0000
0000
0001
1000
0000
0000
0001
1000
0000
0000
,
0010
0100
0010
0100
0010
0100
0010
0100
,
0010
0100
0010
0100
0010
0100
0010
0000
,
1000
0001
0000
0000
0001
1000
0000
0000
1000
0001
0000
0000
0001
1000
0000
0000
,
0010
0000
0000
0010
0000
0000
0010
0000
0100
0000
0000
0100
0000
0000
0100
0000
,
0001
0010
0100
1000
0010
0100
0010
1000
,
0100
0010
0001
1000
0010
0000
0110
0000
,
0100
0001
1000
0001
0010
0100
0010
0001
,
1000
0001
1000
0100
0010
0001
1000
0000
,
0001
0000
0001
0000
1000
0000
1000
0000
0001
0000
0010
0100
0000
0010
0100
0000
,
0010
0000
0001
0000
1000
0000
0010
0000
0100
0000
0001
1000
0000
0001
1000
0000
,
0001
0010
0100
1000
0001
0010
0100
1000
,
0010
0000
0000
0010
0000
0000
0010
0000
0100
0000
0000
0100
0000
0000
2002
0000
,
3003
0000
0000
0000
;

//--------------- dance-single - DJSuperNOVA ----------------
#NOTES:
     dance-single:
     DJSuperNOVA:
     Hard:
     17:
     0,0,0,0,0:
0000
0000
0000
0000
,
0000
0000
0000
0000
,
0000
0000
0000
0000
,
0000
0000
0000
0000
,
1000
0000
0000
0100
1000
0000
0100
1000
0000
0001
1000
0000
0001
1000
0001
0000
,
0100
0000
0000
0001
0100
0000
0001
1000
0000
0001
1000
0000
0010
0100
0010
0000
,
1000
0000
0000
0100
0010
0000
0001
1000
0000
0010
0100
0000
0001
0100
0010
0000
,
1000
0100
0010
0010
0001
1000
1001
0000
,
0201
0000
0000
0000
0310
0000
0000
0000
1000
0000
0010
1000
0000
1000
0001
0000
,
0201
0000
0000
0000
0301
0000
0000
0000
1000
0000
0100
1000
0000
0000
0001
0000
,
2001
0000
0000
0000
3100
0000
0000
0000
0010
0000
0001
0010
0000
0000
0001
0000
,
1000
0000
0010
0100
0010
0000
1000
0000
0001
0000
1000
0100
0000
0010
0001
0000
,
0011
1000
0100
0010
0001
1000
0100
0010
,
0001
0100
0010
1000
0001
0100
0010
1000
,
0001
0100
0001
0001
0000
0000
1000
0100
1000
1000
0000
0000
,
0001
0100
1000
0001
0010
1000
0001
0010
0100
1000
0000
0000
,
0001
0000
0010
0100
0010
0000
0001
0000
1000
0100
1000
0001
1000
0100
1000
0010
,
1000
0000
0001
0100
0001
0000
0100
0000
0010
0100
0010
0000
0100
0000
0001
0000
,
1000
0000
0010
0100
0010
0000
1000
0000
0100
0010
0100
0000
0010
0001
0010
0001
,
1000
0000
0010
0000
0100
0001
0100
0000
0010
0000
0010
0000
2000
0000
3001
0000
,
1001
0000
1000
0000
0100
0000
0100
0000
0010
0001
0010
0001
1000
0010
1000
0010
,
0100
0010
0100
0010
1000
0000
0001
0000
1000
0000
0100
0000
0010
0000
0001
0000
,
1000
0000
0010
0100
0010
0000
1000
0000
0001
0100
0001
0000
1000
0000
1000
0000
,
0001
0000
0000
0000
0001
0010
0001
0010
0100
0000
1000
0100
0000
1000
0100
0000
,
0010
0000
0020
0000
0032
0000
0000
0000
1003
0100
1000
0100
0001
0100
1000
0000
,
0010
0000
0010
0000
0100
0000
0100
0000
0001
0100
0001
0100
1000
0100
0001
0000
,
0010
0000
0020
0000
0230
0000
0000
0000
1300
0100
1000
0100
0001
0100
1000
0000
,
0001
0000
0001
0000
1000
0000
1000
0000
0010
0100
0010
0100
0001
0100
1000
0000
,
0100
0000
0200
0000
0320
0000
0000
0000
1030
0100
0001
0100
1000
0100
1000
0000
,
0001
0000
0001
0000
1000
0000
1000
0000
0001
0100
1000
0100
0001
0100
0001
0000
,
0100
0000
0200
0000
0320
0000
0000
0000
1030
0001
1000
0001
2000
0000
3002
0000
,
0103
0100
0100
0010
0010
0010
1010
0000
,
0101
0000
0001
0000
0100
0001
0100
0001
1000
0000
0010
1000
0020
0000
0000
0000
,
1030
0000
0100
1000
0000
0100
1000
0100
1000
0000
0001
0000
0200
0000
0000
0000
,
0310
0000
1000
0001
0000
1000
0001
1000
0001
0000
0010
0000
0002
0000
0000
0000
,
1003
0010
1000
0010
1000
0000
0100
0000
0010
0000
0001
0000
0011
0000
0000
0000
,
1100
0000
0100
0000
1100
0000
1000
0100
0010
0000
0001
0010
0001
0000
1000
0000
,
1010
0000
0010
0100
0000
0001
0100
0010
0100
0000
0010
0000
0110
0000
0010
0000
,
1010
0001
0100
0001
0110
1000
0110
0001
,
0110
0000
0100
0000
0100
0000
0100
0000
0010
1000
0100
0010
0001
0000
0000
0000
,
0012
0000
0000
0000
0013
0000
0000
0000
0001
0010
0001
0010
0100
1000
0100
1000
,
0010
0001
0010
1000
0100
0000
0100
0000
0010
0001
0010
0001
1000
0100
1000
0100
,
2000
0000
0000
0000
0000
0000
3001
0000
1000
0100
0010
0100
1000
0000
0001
0100
,
0010
0100
0001
0100
0010
0100
1000
0100
0010
0100
0001
1000
0001
0100
0001
0000
,
1002
0000
0000
0000
0000
0000
0000
0000
1003
0000
0010
0000
1000
0100
0010
0000
,
0200
1000
0300
0000
0200
0010
0300
0000
0200
0001
0300
0000
0200
1000
0300
0000
,
2000
0000
0002
0000
3000
0020
0003
0230
,
2000
0300
0002
0000
3000
0200
0003
0320
,
2030
3000
2000
3000
0020
0030
0020
0030
0200
0000
0000
0000
0302
0000
0000
0000
,
1003
0001
0010
0000
0110
0000
0010
0000
0110
0000
0010
0000
0110
0000
0000
0000
,
1001
0000
0001
0000
1000
0001
0000
1000
,
0001
0000
0001
0000
0100
0010
0000
0000
,
0010
0000
0110
0000
0100
0010
0000
0100
,
0010
0000
1000
0000
0001
1000
0000
0001
,
1001
0000
1000
0000
0001
0100
0000
0001
,
1000
0100
1000
0001
1000
0000
0010
0000
,
0100
0220
0000
0000
,
0330
0000
0000
0000
,
1000
0000
0000
0110
0000
0000
0010
0000
0000
1001
0000
0000
0001
0000
0100
0000
,
0010
0000
0000
0110
0000
0000
1000
0000
0000
1010
0000
0000
0010
0000
0100
0000
,
0001
0010
0100
1000
0001
0000
1001
0000
,
1000
0000
0000
1100
0000
0000
0100
0000
0000
0110
0000
0000
0010
0000
0001
0000
,
1001
0000
0001
0100
0001
0000
1000
0000
0010
0100
0010
0000
1000
0000
0001
0000
,
1001
0000
1000
0100
1000
0000
0001
0000
1000
0010
1000
0000
0110
0000
0100
0000
,
0110
0010
1000
0100
0110
0010
0011
0000
,
1001
0000
0001
0100
0010
0000
0100
0010
1000
0000
0001
0000
2002
0000
0000
0000
,
3003
0000
0000
0000
,
0011
0000
0000
0110
0000
0000
1100
0000
1010
0000
0000
0110
0000
0000
0101
0000
,
0010
1000
0010
1000
0001
0100
0001
0100
0001
0010
0100
1000
0010
0100
0001
0010
,
0100
0000
1100
0100
1100
0000
0101
0000
,
1000
0001
0000
0000
0001
1000
0000
0000
1000
0001
0000
0000
1000
0001
0000
0000
,
0001
1000
0000
0000
1000
0001
0000
0000
0001
1000
0000
0000
1000
0100
0000
0000
,
0010
0001
0010
0001
1000
0100
1000
0100
1000
0010
0100
0001
0010
0100
1000
0010
,
0100
0000
0101
0100
0101
0000
1100
0000
,
0100
1000
0000
0000
1000
0100
0000
0000
1000
0001
0000
0000
0100
0001
0000
0000
,
0010
0000
0000
0010
0000
0000
0010
0000
0100
0000
0000
0100
0000
0000
0100
0000
,
0001
0100
0010
1000
0100
0010
0001
0100
0010
1000
0001
0100
0001
1000
0100
0010
,
0001
1000
0100
0010
0001
0100
0010
1000
0100
0010
0001
0100
0010
0100
0001
1000
,
0001
0100
0001
0100
0001
0010
0001
0010
0001
0000
1000
0001
1000
0000
0010
0100
,
0010
1000
0010
0100
0010
1000
0010
0100
0010
0000
1000
0000
0001
0000
0000
0000
,
0001
0010
0100
1000
0010
0100
0001
0010
0100
1000
0010
0100
0001
0010
0001
1000
,
0100
0010
0100
1000
0001
0100
0001
0010
0100
1000
0010
0100
0001
1000
0001
0100
,
0010
1000
0010
1000
0010
1000
0010
1000
0001
0000
0100
0001
0100
0000
0001
0000
,
1000
0100
0001
0100
0010
0000
0010
0001
0100
0000
0000
1100
0000
0000
0202
0000
,
0303
0000
0000
0000
;
