#TITLE:LALALA;
#SUBTITLE:;
#ARTIST:TWICE;
#TITLETRANSLIT:;
#SUBTITLETRANSLIT:;
#ARTISTTRANSLIT:;
#GENRE:;
#CREDIT:DJSuperNOVA;
#MUSIC:LALALA.ogg;
#BANNER:LALALA.png;
#BACKGROUND:LALALA-bg.png;
#CDTITLE:;
#SAMPLESTART:48.289;
#SAMPLELENGTH:24.459;
#SELECTABLE:YES;
#OFFSET:1.393;
#BPMS:0.000=157.000;
#STOPS:;
#BGCHANGES:;
#FGCHANGES:;

//--------------- dance-single - DJSuperNOVA ----------------
#NOTES:
     dance-single:
     DJSuperNOVA:
     Beginner:
     4:
     0,0,0,0,0:
0000
0000
0000
0000
,
0000
0000
0000
0000
,
0000
0000
0000
0000
,
0000
0000
0000
0000
,
0000
0000
0000
0000
,
0010
0000
0000
0000
0000
0000
0000
0100
,
0000
0000
0000
0000
,
2000
0000
0000
0000
3000
0000
0000
0002
,
0000
0000
0003
0000
,
1000
0000
1000
0000
,
0100
0000
0000
0000
,
0001
0000
0001
0000
,
0100
0000
0000
0000
,
1000
0000
1000
0000
,
0010
0000
0000
0000
,
0001
0000
0001
0000
,
0010
0000
0000
0000
,
1000
0000
0100
0000
,
0001
0000
0000
0000
,
0001
0000
0100
0000
,
1000
0000
0000
0000
,
1000
0000
0010
0000
,
0001
0000
0000
0000
,
0001
0000
0010
0000
,
1000
0000
0000
0000
,
0001
0000
0000
1000
,
0000
0000
0000
0000
,
0100
0000
0000
1000
,
0000
0000
0000
0000
,
0010
0000
0000
0001
,
0000
0000
0000
0000
,
0100
0000
0000
0000
,
1001
0000
0000
0000
,
1000
0000
1000
0000
,
0001
0000
0001
0000
,
1000
0000
1000
0000
1000
0000
0000
0001
,
0000
0000
0000
0001
0000
0000
0000
0000
,
0100
0000
0100
0000
,
0010
0000
0010
0000
,
0100
0000
0100
0000
0100
0000
0000
0010
,
0000
0000
0000
0010
0000
0000
0000
0000
,
1000
0000
1000
0000
,
0000
0000
0000
0000
,
0001
0000
0001
0000
,
0000
0000
0000
0000
,
1000
0000
0010
0000
,
1000
0000
0010
0000
,
1000
0000
1000
0000
1000
0000
0000
0010
,
0000
0000
0000
0010
0000
0000
0000
0000
,
1001
0000
0001
0000
,
0001
0000
0000
0000
,
1000
0000
1000
0000
,
1000
0000
0000
0000
,
0010
0000
0100
0000
,
0010
0000
0000
0000
,
0100
0000
0010
0000
,
0100
0000
0000
0000
,
0001
0000
1000
0000
,
1000
0000
0000
0000
,
1000
0000
0001
0000
,
0001
0000
0000
0000
,
0010
0000
0100
0000
,
0100
0000
0000
0000
,
0100
0000
0010
0000
,
0010
0000
0000
0000
,
1000
0000
0000
0010
,
0000
0000
0000
0000
,
0100
0000
0000
0001
,
0000
0000
0000
0000
,
0010
0000
0010
0000
,
0010
0000
0010
0000
,
0100
0000
0100
0100
,
0100
0000
0001
0000
,
0001
0000
1000
0000
,
0001
0000
1000
0000
,
0001
0000
0001
0000
0001
0000
0000
1000
,
0000
0000
0000
1000
0000
0000
0000
0000
,
0010
0000
0100
0000
,
0010
0000
0100
0000
,
0010
0000
0010
0000
0010
0000
0000
0100
,
0000
0000
0000
0100
0000
0000
0000
0000
,
1000
0000
0010
0000
,
0000
1000
1000
0000
,
0001
0000
0010
0000
,
0000
0001
0001
0000
,
0100
0000
0001
0000
,
0100
0000
0001
0000
,
0100
0000
0100
0000
0100
0000
0000
0001
,
0000
0000
0000
0001
0000
0000
0000
0000
,
1001
0000
0000
0000
;

//--------------- dance-single - DJSuperNOVA ----------------
#NOTES:
     dance-single:
     DJSuperNOVA:
     Easy:
     6:
     0,0,0,0,0:
0000
0000
0000
0000
,
0000
0000
0000
0000
,
0000
0000
0000
0000
,
0000
0000
0000
0000
,
0000
0000
0000
0000
,
1000
0000
0000
0000
0000
0000
0000
0001
,
0000
0000
0000
0000
,
1000
0000
0000
0000
0000
0000
0000
0010
,
0000
0000
0000
0000
,
0100
0001
1000
0000
,
0001
1000
0100
0100
,
1000
0001
0100
0000
,
0001
0100
0010
0010
,
0000
1000
0001
1000
,
0100
0100
0100
0000
,
0010
0010
0001
1000
,
0010
0100
0001
1001
,
0000
1000
0100
1000
,
0001
0100
0001
0001
,
0000
1000
0001
1000
,
0010
0100
0001
0001
,
0000
1000
0010
0001
,
0010
1000
0001
0000
,
1000
0001
0100
0010
,
0220
0000
0330
0000
,
1000
0000
1000
0001
,
0000
0001
0001
0000
,
0100
0000
0100
0010
,
0000
0010
0100
0100
,
1000
1000
1000
1000
,
0001
0001
0001
0001
,
0100
0010
0100
0010
,
1001
0000
1000
0100
,
0001
0100
1000
0100
,
0001
0001
1000
1000
,
1001
0000
0110
0000
1001
0000
0000
0010
,
0000
0010
0000
0010
0000
0000
0100
0000
,
0001
0100
1000
0100
,
0001
0001
1000
1000
,
0110
0000
1001
0000
0110
0000
0000
0100
,
0000
0100
0000
0100
0000
0000
0001
0000
,
1000
1000
1000
0110
,
0000
1000
0100
0001
,
0010
0010
0010
1001
,
0000
0010
0100
0001
,
1000
0100
1000
1000
,
0001
0001
0100
0100
,
1001
0000
0110
0000
1001
0000
0000
0010
,
0000
0010
0000
0010
0000
0000
1001
0000
,
0000
1000
0100
0010
,
0001
0001
0100
0110
,
0000
0001
0100
0010
,
1000
0001
1000
0001
,
0000
0100
0010
0001
,
1000
0100
1000
0000
,
0010
0100
1000
0100
,
0010
0010
0001
1001
,
0100
0100
0010
0010
,
0001
0100
0010
0000
,
1000
0001
0100
0010
,
1000
1000
0001
0001
,
0000
0001
0100
0010
,
0001
0010
0100
0000
,
0001
0100
0010
1000
,
0001
0001
1000
1001
,
0001
0000
0001
0100
,
0000
0100
0010
0010
,
1000
0000
1000
0010
,
0000
0010
0100
0001
,
1000
1000
1000
1000
,
0001
0001
0001
0001
,
0100
0100
0010
0010
,
0110
0000
1000
0001
,
1000
1000
0001
0001
,
0100
0010
1000
0100
,
0110
0000
1001
0000
0110
0000
0000
0001
,
0000
0001
0000
0001
0000
0000
1000
0000
,
0001
0100
1000
0010
,
0100
0001
0100
0010
,
1001
0000
0110
0000
1001
0000
0000
1000
,
0000
1000
0000
1000
0000
0000
1001
0000
,
0100
0100
0100
0110
,
0000
0001
0100
1000
,
0010
0010
0010
0110
,
0000
0001
0100
1000
,
1001
0100
0010
0001
,
1000
1000
0001
0001
,
0110
0000
1001
0000
0110
0000
0000
0010
,
0000
0100
0000
0010
0000
0000
0110
0000
,
1001
0000
0000
0000
;

//--------------- dance-single - DJSuperNOVA ----------------
#NOTES:
     dance-single:
     DJSuperNOVA:
     Medium:
     9:
     0,0,0,0,0:
0000
0000
0000
0000
,
0000
0000
0000
0000
,
0000
0000
0000
0000
,
0000
0000
0000
0000
,
0000
0000
0000
0000
,
0001
0000
0000
0000
0000
0000
0000
1000
,
0000
0000
0000
0000
,
1001
0000
0000
0000
0000
0000
0010
0100
,
0000
0000
0000
0000
,
0110
0001
1000
0001
,
0010
0100
0010
0200
0000
0000
0310
0000
,
0001
0010
0100
1000
,
0010
1000
0010
1000
0000
0000
0001
0000
,
1000
1000
0001
0001
,
1000
0001
1000
0001
0000
0000
0100
0000
,
0010
0010
0100
0100
,
0010
0100
0010
0100
0000
0000
0110
0000
,
1001
0100
0010
0001
,
0100
0001
0100
0002
0000
0000
0003
0000
,
1000
0001
0100
0010
,
1000
0010
1000
0100
0000
0000
0100
0000
,
0000
0100
0010
0001
,
1000
0100
1000
0010
0000
0000
1000
0000
,
0001
0000
0100
0001
0000
1000
0000
0001
,
0000
0000
1000
0000
0001
1000
0001
0000
,
1000
0000
0000
0001
1000
0000
0010
0000
,
0000
1000
0010
0000
0010
0000
0200
0000
,
0301
0000
0000
0100
0001
0000
0001
0000
,
0000
1000
0001
0000
1000
0000
0001
0000
,
0100
0100
0100
0100
,
0010
0010
0010
0010
,
1000
0100
0010
0001
,
1001
0000
0000
0000
1000
0100
1000
0000
,
1001
0000
0101
0000
1001
0000
1000
0001
,
0000
1000
0000
0001
0100
0001
0100
0000
,
0110
0000
1001
0000
0110
0000
0000
1001
,
0000
0110
0000
1001
0000
1000
0001
0000
,
1001
0000
1100
0000
1001
0000
1000
0001
,
0000
1000
0000
0000
0010
0100
0010
0000
,
1001
0000
0110
0000
1001
0000
0000
0110
,
0000
0110
0000
1001
0000
1000
0001
0000
,
0110
1001
0110
0010
,
0000
1000
0010
0000
1010
0000
0100
0000
,
0101
1010
0101
1000
,
0000
0001
0100
0000
0101
0000
0010
0000
,
1001
0000
1010
0000
1001
0000
0001
1000
,
0000
1000
0000
0000
0010
0100
0010
0000
,
1010
0000
0101
0000
1010
0000
0000
0110
,
0000
1001
0000
0110
0000
0100
0010
0000
,
0110
0001
1000
0001
,
1000
0010
1000
0020
0000
0000
1030
0000
,
0001
0100
0010
1000
,
0100
0010
0100
0010
0000
0000
0010
0000
,
0001
0100
0001
0010
,
0100
0000
1000
0100
0000
0000
1000
0000
,
0001
1000
0001
0100
,
0010
1000
0010
0000
1010
0000
0101
0000
,
1001
0100
0010
0001
,
1000
0100
1000
0100
0000
0000
0000
0000
,
0010
0001
0100
0010
,
1000
0001
1000
0001
0000
0000
0100
0000
,
1000
0001
0010
0100
,
1000
0010
1000
0001
0000
0000
1000
0000
,
0001
0000
0100
0001
0000
1000
0001
1000
,
0000
0010
0000
0100
0000
0001
1000
0000
,
0001
0000
0000
1000
0001
0000
0010
0000
,
0000
0001
1000
0000
0010
0000
0200
0000
,
0301
0000
0000
0100
0001
0000
1000
0000
,
0000
0001
1000
0000
0100
0000
0010
0000
,
0001
0001
0001
0001
,
1000
1000
1000
1000
,
0001
0100
0010
1000
,
1001
0000
0000
0000
0001
0100
0001
0000
,
1001
0000
1100
0000
1001
0000
1000
0001
,
0000
1000
0000
0001
0100
0001
0100
0000
,
0110
0000
1001
0000
0110
0000
0000
1001
,
0000
0110
0000
1001
0000
0001
1000
0000
,
1001
0000
0101
0000
1001
0000
1000
0001
,
0000
1000
0000
0000
0010
0100
0010
0000
,
1001
0000
0110
0000
1001
0000
0000
0110
,
0000
0110
0000
1001
0000
0001
1000
0000
,
0110
1001
0110
0010
,
0000
0001
0010
0000
0011
0000
0100
0000
,
1100
0011
1100
0001
,
0000
0001
0100
0000
0101
0000
0010
0000
,
1001
0000
0011
0000
1001
0000
1000
0001
,
0000
0001
0000
0000
0010
0100
0010
0000
,
0011
0000
1100
0000
0011
0000
0000
1001
,
0000
0110
0000
1001
0000
0001
1000
0000
,
1001
0000
0000
0000
;

//--------------- dance-single - DJSuperNOVA ----------------
#NOTES:
     dance-single:
     DJSuperNOVA:
     Hard:
     14:
     0,0,0,0,0:
0000
0000
0000
0000
,
0000
0000
0000
0000
,
0000
0000
0000
0000
,
0000
0000
0000
0000
,
0000
0000
0000
0000
,
0010
0000
0000
0000
0000
0000
0100
0010
,
0000
0000
0000
0000
,
1001
0000
0000
0000
0000
0000
0001
1000
,
0000
0000
0000
0000
,
1000
0001
1000
0100
0000
0100
1000
0100
,
1000
0000
0010
0000
0100
0000
0001
0000
0000
0000
0100
0000
0001
0000
0100
0010
,
0100
0010
1000
0001
0000
1000
0001
1000
,
0100
0000
0001
0000
0100
0000
1000
0000
0000
0000
0100
0000
1000
0000
0100
1000
,
0100
0010
0001
1000
0100
1000
0001
0100
,
1000
0000
0100
0000
0010
0000
0100
0000
0001
0000
0100
0000
1000
0000
0100
0010
,
0100
0010
1000
0001
0010
0001
1000
0100
,
1000
0010
0100
0001
0000
1000
1001
0000
,
0001
0100
0001
1000
0100
1000
0010
0100
,
0000
0000
0100
0000
0001
0000
0100
0000
1000
0000
0100
0000
0010
0000
1000
0010
,
1000
0100
0010
0001
0100
0001
0010
0100
,
0000
0000
0001
0000
1000
0000
0100
0000
0010
0000
0100
0000
1000
0000
0010
0100
,
0010
1000
0010
0100
0001
0010
0001
1000
,
0100
0000
0001
0000
0100
0000
1000
0000
0000
0000
0001
0000
0010
0000
0100
0010
,
0100
0010
1000
0010
0000
0001
1000
0010
,
0000
0010
0100
0001
0010
0100
0110
0000
,
1001
0000
0000
0001
0001
0000
1000
0000
,
0000
0000
0000
1000
0000
0000
1000
0000
0000
0000
0000
0000
0001
0000
0000
0000
0000
0000
0001
0000
0100
0000
0010
0000
,
1000
0000
0000
1000
0100
0000
0010
0000
,
0000
0010
0001
0000
1000
0000
0001
0000
,
1000
0010
1000
0010
1000
0010
1000
0010
,
0100
0000
0000
0001
0000
0000
0100
0000
0000
0001
0000
0000
0100
0000
0000
0001
0000
0000
0100
0000
0010
0000
1000
0000
,
0001
0010
0001
0010
0100
1000
0100
0010
0001
0010
0100
0010
,
0100
0000
0000
0000
1000
0100
1000
0100
,
1100
0000
0011
0000
0001
0100
0010
1000
,
0000
0000
1010
0000
0000
0000
0010
0000
0100
0000
0001
0000
0010
0000
0100
0010
,
0100
0000
1001
0000
0110
0010
1000
1010
,
0000
0000
0101
0000
0000
0000
1001
0000
0000
0000
0001
0000
0100
0000
0010
0100
,
0010
0100
0010
0100
1000
0100
0010
1000
,
0000
0011
0000
0001
0100
1000
0100
0001
,
0101
0000
1010
0000
0101
0001
0010
0110
,
0000
1001
0000
0110
0000
0100
0010
0100
,
0110
1001
0110
1001
,
0000
0000
0001
0000
0100
0000
0010
0000
1000
0000
0010
0000
0100
0000
0001
1000
,
0001
0110
1001
0110
,
0000
0000
0001
0000
0010
0000
0100
0000
1000
0000
0100
0000
0001
0000
0100
0010
,
0100
0000
0011
0000
1100
0000
0001
1000
,
0000
1001
0000
1000
0100
0001
0100
1000
,
1100
0000
0110
0000
0011
0001
1000
1001
,
0000
0110
0000
1001
0000
0001
0100
0010
,
0110
0010
1000
0001
,
0100
0000
0001
0000
1000
0000
0001
0000
0000
0000
1000
0000
0001
0000
1000
0100
,
1000
0010
0100
0001
0100
0010
1000
0100
,
0010
0000
0001
0000
1000
0000
0100
0000
0000
0000
0001
0000
0010
0000
0100
0010
,
0100
0010
0001
1000
0010
0100
0001
0010
,
0100
0000
0010
0000
0001
0000
1000
0000
0010
0100
0010
0000
0100
0010
0100
0000
,
0001
0100
0010
0100
0010
1000
0100
0001
,
0100
0001
0100
0000
0010
0000
0100
0000
0010
0000
0100
0000
0110
0000
0000
0000
,
1001
0000
0001
1000
0100
1000
0010
0100
,
0010
0000
1000
0000
0100
0000
0001
0000
0000
0000
0001
0000
0100
0000
0010
0100
,
0010
0001
0100
0010
1000
0001
0100
1000
,
0100
0000
0010
0000
0100
0000
0010
0000
0000
0000
1000
0000
0001
0000
0100
0001
,
0100
0010
1000
0100
0010
0001
1000
0001
,
0100
0000
1000
0000
0100
0000
0001
0000
0000
0000
0001
0000
1000
0000
0010
0100
,
0010
1000
0001
0010
0000
0010
0001
1000
,
0100
0001
0100
1000
0010
0100
0110
0000
,
0010
0000
0000
0100
0100
0000
0010
0000
,
0000
0000
0000
0010
0000
0000
0010
0000
0000
0000
0000
0000
0100
0000
0000
0000
0000
0000
0001
0000
0100
0000
0010
0000
,
1000
0000
0000
1000
1000
0000
0100
0000
,
0000
0010
0010
0001
0100
0000
0010
0000
,
1000
0100
1000
0100
1000
0100
1000
0100
,
0010
0000
0000
0001
0000
0000
0010
0000
0000
0001
0000
0000
0010
0000
0000
0001
0000
0000
0010
0000
0001
0000
1000
0000
,
0100
0010
0100
0010
0001
1000
0001
1000
,
0001
0000
0000
0000
0001
0100
0001
1000
,
1001
0000
1100
0000
0110
0010
0001
0100
,
0000
0000
0110
0000
0000
0000
0010
0000
1000
0000
0100
0000
0010
0000
0001
1000
,
0001
0000
0110
0000
1001
0001
0100
0110
,
0000
0000
1010
0000
0000
0000
0101
0000
0000
0000
0100
0000
0001
0000
0100
0001
,
0100
0000
1100
0000
1010
0000
1000
0001
,
0000
1001
0000
0001
0100
0010
1000
0100
,
1100
0000
0011
0000
0101
0001
0100
0110
,
0000
1000
0100
0001
0000
1000
0100
0010
,
0011
0101
0110
1100
,
0000
1000
0100
0010
0001
0000
1001
0000
,
1010
0110
0101
0011
,
0000
0000
0001
0000
0100
0000
0010
0000
1000
0000
0010
0000
1000
0000
0010
1000
,
0010
0000
1001
0000
0101
0000
0010
0110
,
0000
1010
0000
0100
0010
0001
1000
0100
,
0110
0000
0011
0000
1001
0001
1000
1001
,
0000
0110
0000
0100
0010
0001
0010
0100
,
1000
0000
0000
0000
;
