#TITLE:KNOCK KNOCK;
#SUBTITLE:;
#ARTIST:TWICE;
#TITLETRANSLIT:;
#SUBTITLETRANSLIT:;
#ARTISTTRANSLIT:;
#GENRE:;
#CREDIT:DJSuperNOVA;
#MUSIC:KNOCK KNOCK.ogg;
#BANNER:KNOCK KNOCK.png;
#BACKGROUND:KNOCK KNOCK-bg.png;
#CDTITLE:;
#SAMPLESTART:43.846;
#SAMPLELENGTH:29.538;
#SELECTABLE:YES;
#OFFSET:-1.386;
#BPMS:0.000=130.000;
#STOPS:;
#BGCHANGES:;
#FGCHANGES:;

//--------------- dance-single - DJSuperNOVA ----------------
#NOTES:
     dance-single:
     DJSuperNOVA:
     Beginner:
     4:
     0,0,0,0,0:
0000
0000
0000
0000
,
0000
0000
0000
0000
,
2000
0000
3000
0000
,
0200
0000
0300
0000
,
0020
0000
0030
0000
,
0002
0000
0003
0000
,
2002
0000
0000
3003
,
1000
0000
0100
0000
,
0001
0000
0100
0000
,
1000
1000
1000
0000
,
0001
0001
0001
0000
,
0000
1000
0000
0001
,
0000
0100
0000
0001
,
0000
0100
0000
1000
,
1000
0000
0100
0100
,
0001
0000
0100
0000
,
1000
0000
0100
0000
,
0001
0001
0001
0000
,
1000
1000
1000
0000
,
0000
0001
0000
1001
,
0000
1000
0000
1000
,
0001
0000
0001
0000
,
0100
0000
0000
0000
,
0010
0010
0010
0000
,
0100
0100
0100
0000
,
0001
0000
0000
0001
0000
0000
0000
0000
,
1000
0000
0000
1000
0000
0000
0000
0000
,
0010
0010
0010
0000
,
0100
0100
0100
0000
,
0001
0000
1000
0000
,
2002
0000
3003
0000
,
1000
0000
0100
0000
,
0001
0000
0100
0000
,
1000
1000
1000
0000
,
0002
0000
0003
0000
,
0100
0100
0100
0000
,
0010
0010
0010
0000
,
1000
0000
0001
0000
,
0100
0000
0001
0001
,
0000
0000
0000
0000
,
1000
0000
0100
0000
,
0001
0001
0001
0000
,
1000
0000
0001
0001
,
0000
1000
0001
1000
,
0000
0100
0000
0100
,
0000
0010
0000
0010
,
1000
0000
1000
0000
,
0001
0000
0010
0010
,
0001
0000
0001
0000
,
1000
0000
1000
0000
,
0010
0000
0010
0000
,
0100
0000
0100
0000
,
0001
0001
0001
0000
,
1000
1000
1000
0000
,
0001
0000
1000
0000
,
0010
0010
0010
0000
,
0001
0001
0001
0000
,
1000
1000
1000
0000
,
0100
0000
0000
0100
0000
0000
0000
0000
,
0010
0000
0000
0010
0000
0000
0000
0000
,
0001
0001
0001
0000
,
1000
1000
1000
0000
,
0010
0000
0100
0000
,
0220
0000
0330
0000
,
1000
0000
0100
0000
,
0001
0000
0100
0000
,
1000
1000
1000
0000
,
0002
0000
0003
0000
,
0100
0100
0100
0000
,
0010
0010
0010
0000
,
1000
0000
0001
0000
,
0100
0000
0001
0001
,
2000
0000
0000
0000
,
3001
0000
0000
0000
;

//--------------- dance-single - DJSuperNOVA ----------------
#NOTES:
     dance-single:
     DJSuperNOVA:
     Easy:
     6:
     0,0,0,0,0:
0000
0000
0000
0000
,
0000
0000
0000
0000
,
0002
0000
0000
0000
,
2003
0000
0000
0000
,
3020
0000
0000
0000
,
0230
0000
0000
0000
,
0302
0000
2000
3003
,
1000
0100
0001
0000
,
0001
0100
1000
0000
,
0001
1000
0001
1001
,
0100
0010
0100
0110
,
0000
0010
1000
0100
,
0000
0010
0001
0100
,
0000
0001
1000
0100
,
0110
0000
1001
1001
,
0010
0100
0001
0001
,
0000
0010
0100
0100
,
0010
0100
1000
1001
,
1000
0100
0010
1001
,
0000
1000
0001
1001
,
0000
0010
0100
0110
,
0001
0010
0100
1000
,
1010
0000
0000
0000
0000
0010
0010
0000
,
1000
1000
0001
0001
,
1000
0000
0000
0001
0000
0000
0100
0000
,
0010
0000
0000
0010
0000
0000
1000
0000
,
0010
0000
0000
0010
0000
0000
1000
0000
,
0100
0100
0010
0110
,
0001
0001
1000
0100
,
0010
0001
0100
0110
,
0000
0000
0010
0110
,
1001
0010
1000
0010
,
0100
0100
0001
0001
,
0100
0010
1000
0001
,
2002
0000
3003
1000
,
0001
0100
0001
0101
,
1000
0100
1000
1100
,
0010
0001
0100
0010
,
0110
0000
1000
2002
,
0000
0000
3003
0000
,
0001
0100
1000
1000
,
0100
0010
0001
0001
,
0000
1000
0001
0100
,
0000
0100
0010
1000
,
0000
0001
0100
0001
,
0000
1000
0100
1000
,
0010
0010
0100
0100
,
0001
0000
1001
0110
,
1000
1000
0001
0000
,
0001
0100
1000
0000
,
1000
0100
0010
0010
,
0001
0100
0010
0000
,
1000
1000
0001
1001
,
0100
0100
0010
0110
,
0000
0010
0100
0001
,
1001
0110
1001
0000
,
1000
1000
0001
0001
,
0100
0000
0000
0100
0000
0000
0010
0000
,
0010
0000
0000
0010
0000
0000
1000
0000
,
0001
0000
0000
0001
0000
0000
1000
0000
,
0100
0100
1000
1001
,
0010
0010
0100
0110
,
0001
0100
0010
1010
,
0000
0000
0100
0101
,
1001
0100
0001
0100
,
1000
1000
0001
0001
,
0100
0010
1000
0001
,
2002
0000
3003
1000
,
0100
0100
0100
0110
,
0001
0100
0100
0110
,
1000
0001
0100
0010
,
0110
0000
0001
1001
,
2000
0000
0000
0000
,
3001
0000
0000
0000
;

//--------------- dance-single - DJSuperNOVA ----------------
#NOTES:
     dance-single:
     DJSuperNOVA:
     Medium:
     9:
     0,0,0,0,0:
0000
0000
0000
0000
,
0000
0000
0000
0000
,
0010
0010
0010
0010
,
1000
1000
1000
1000
,
0001
0001
0001
0001
,
0100
0100
0100
0100
,
2002
0000
3003
0000
,
1000
0100
1000
0000
0010
0000
0010
0000
,
0001
0100
0001
0000
0010
0000
0010
0000
,
1000
0001
1000
0001
1000
0001
1000
0000
,
0010
0100
0010
0100
0010
0100
0010
0000
,
0000
1000
0100
0000
0010
0001
0010
0000
,
0000
0001
0100
0000
0010
1000
0010
0000
,
0000
0100
0100
0001
,
1000
0000
0110
1001
,
1000
0000
0001
0000
1000
0100
0001
0000
,
0100
0000
1000
0000
0001
0100
1000
0000
,
0001
0100
0001
0100
0001
0100
0001
0000
,
1000
0100
1000
0100
1000
0100
1000
0000
,
0000
0010
1000
0000
0100
0010
0100
0000
,
0000
0010
0001
0000
0100
0010
0100
0000
,
0010
1000
0100
0000
0010
0001
0100
0000
,
0110
0000
0000
0000
0000
0100
0010
0000
,
1001
1001
1100
1100
,
1000
0100
0010
0001
0000
0010
0001
0000
,
0100
0000
0000
0110
0000
0000
1000
0000
,
0100
0000
0000
0110
0000
0000
0001
0000
,
1000
0000
0001
0000
1000
0000
0000
1000
0000
0000
0001
0000
1000
0000
0000
0000
,
0001
0000
1000
0000
0001
0000
0000
0001
0000
0000
1000
0000
0001
0000
0000
0000
,
0010
0000
0010
0000
0010
0100
0020
0200
,
0000
0330
0000
0000
0110
0000
0011
0000
,
1001
1001
0101
0101
,
0001
0100
0010
1000
0000
1000
0001
0000
,
0010
0000
0010
0000
0100
0000
0010
0002
,
2000
0000
3003
1000
,
0010
0000
0100
0000
0010
0000
0000
0010
0000
0000
0100
0000
0010
0000
0000
0000
,
1000
0000
0001
0000
1000
0000
0000
1000
0000
0000
0001
0000
1000
0000
0000
0000
,
1001
0000
0110
0000
1000
0100
0010
0001
,
0000
0100
0001
0100
0010
1000
0001
0000
,
0200
0000
0300
0010
,
1000
1000
0001
0001
,
1000
0000
0100
0000
1000
0000
0000
0000
0010
0000
0000
0110
0000
0000
0000
0000
,
1000
0000
0100
0000
0010
0001
0010
0001
,
0000
0000
0000
0000
0100
0000
0000
0000
0010
0000
0000
1010
0000
0000
0000
0000
,
1000
0000
0001
0000
1000
0000
0001
1000
,
0000
0000
0010
0000
0100
0000
0010
0100
,
0010
0010
1000
0001
,
0110
0000
1001
1001
,
0101
0000
0101
0000
1000
0100
1000
0000
,
0001
0100
0001
0100
0001
0000
0101
0000
,
0010
0000
1000
0000
0001
1000
0100
0000
,
1000
0100
1000
0100
1000
0000
1100
0000
,
0010
0001
0010
0001
0010
0001
0010
0000
,
1000
0010
1000
0010
1000
0010
1000
0000
,
1000
0000
0001
0000
0000
0100
0000
0000
0010
0000
0000
0100
0000
0000
0010
0000
,
0110
1001
0220
0330
,
1001
1001
1100
1100
,
1000
0100
0010
0001
0000
0010
0001
0000
,
0100
0000
0000
0110
0000
0000
1000
0000
,
0100
0000
0000
0110
0000
0000
0001
0000
,
1000
0000
0001
0000
1000
0000
0000
1000
0000
0000
0001
0000
1000
0000
0000
0000
,
0001
0000
1000
0000
0001
0000
0000
0001
0000
0000
1000
0000
0001
0000
0000
0000
,
0010
0000
0010
0000
0010
0100
0020
0200
,
0000
0330
0000
0000
0110
0000
0011
0000
,
1001
1001
0101
0101
,
0001
0100
0010
1000
0000
1000
0001
0000
,
0010
0000
0010
0000
0100
0000
0010
0002
,
2000
0000
3003
1000
,
0010
0000
0100
0000
0010
0000
0000
0010
0000
0000
0100
0000
0010
0000
0000
0000
,
1000
0000
0001
0000
1000
0000
0000
1000
0000
0000
0001
0000
1000
0000
0000
0000
,
1001
0000
0110
0000
1000
0100
0010
0001
,
0000
0100
0001
0100
0010
1000
0001
0000
,
0200
0000
0000
0000
,
0310
0000
0000
0000
;

//--------------- dance-single - DJSuperNOVA ----------------
#NOTES:
     dance-single:
     DJSuperNOVA:
     Hard:
     13:
     0,0,0,0,0:
0000
0000
0000
0000
,
0000
0000
0000
0000
,
1000
0001
1000
0001
1000
0010
1000
0010
,
0100
0010
0100
0010
0100
0001
0100
0001
,
0010
0001
0010
0001
0010
0100
0010
0100
,
1000
0100
1000
0100
1000
0001
1000
0001
,
0100
0010
0100
0010
0100
0020
0200
0330
,
0010
0100
0010
0000
1000
0000
0010
1000
0000
0000
0001
0000
0001
0000
0000
0000
,
0010
0100
0010
0000
0001
0000
0010
0001
0000
0000
1000
0000
1000
0000
0000
0000
,
0001
0000
0001
0000
1000
0000
1000
0000
0010
0100
0010
0000
0100
0000
0000
0000
,
1000
0000
1000
0000
0001
0000
0001
0000
0100
0010
0100
0000
0100
0000
0000
0000
,
0001
0000
1000
0100
1000
0000
0000
0100
0000
0000
1000
0000
0001
0000
0000
0000
,
1000
0000
0001
0100
0001
0000
0000
0100
0000
0000
0001
0000
0010
0000
0100
0000
,
1000
0010
0100
0010
1000
0100
0010
0001
,
1000
0001
0110
1001
,
1000
0000
0001
0100
0001
0000
0001
1000
0000
1000
0010
0000
0010
0000
0000
0000
,
0010
0000
1000
0010
1000
0000
1000
0100
0000
0100
0010
0000
0001
0000
0000
0000
,
0001
0000
0100
0000
0001
0000
0100
0000
0010
1000
0010
0000
1000
0000
0000
0000
,
1000
0000
0100
0000
1000
0000
0100
0000
0010
0001
0010
0000
0001
0000
0000
0000
,
1000
0000
0010
1000
0001
0000
0001
1000
0000
0000
1001
0000
1100
0000
0000
0000
,
0001
0000
1000
0001
0100
0000
0100
0001
0000
0000
1001
0000
0101
0000
0000
0000
,
0001
0000
0000
0010
0000
0000
0100
0000
1000
0000
0100
0000
1000
0000
0010
0000
,
0100
0000
0000
0000
0000
0010
0110
0000
,
1001
0000
1000
0100
0001
0000
0001
0100
,
1000
0100
1000
0010
0000
0100
0010
0000
,
0110
0000
0000
0000
0000
0000
1010
0000
0000
0000
1000
0010
1000
0000
0001
0000
,
0011
0000
0000
0011
0000
0010
0001
1000
,
0001
0000
0100
0000
0010
0000
0010
1000
0000
1000
0001
0000
1001
0000
0000
0000
,
1000
0000
0100
0000
0010
0000
0010
0001
0000
0000
0001
0000
0011
0000
0010
0000
,
0001
0000
0000
1000
0001
0000
0010
0000
0001
0000
0100
0000
0010
0000
1000
0000
,
0001
0000
0000
0001
1000
0000
0010
0000
0100
0000
0010
0000
0110
0000
0000
0000
,
1001
0000
0001
0100
1000
0000
1000
0100
,
0001
0100
0001
0010
0000
0010
0001
1000
,
0010
0000
1010
0000
0010
1000
0001
0200
,
0020
0000
0000
0000
0330
0010
0100
0001
,
1000
0000
0010
0000
0100
0000
0001
0100
0000
0100
0001
0000
0101
0000
0000
0000
,
0001
0000
0010
0000
0100
0000
1000
0100
0000
0000
1000
0000
1100
0000
0010
0000
,
0001
0000
0000
0010
0001
0000
0100
0000
0010
0000
1000
0000
0010
0000
0100
0000
,
0010
0000
0000
0010
1000
0000
0001
0000
0100
0000
0010
0000
0120
0000
0000
0000
,
0200
0000
0000
0000
0330
0000
0010
1000
,
0100
0000
0100
0010
0000
0000
0010
0000
0001
1000
0000
0010
0000
0000
0100
0010
,
0100
0000
0001
0000
1000
0000
0100
1000
0100
1000
0000
0001
0000
0000
0000
0000
,
1000
0000
0010
0000
0100
0000
0001
0000
0010
0000
0001
0000
1000
0001
1000
0000
,
0001
0000
0100
0010
0100
0000
0010
0000
1000
0001
0000
0100
0000
0000
0000
0000
,
0010
0000
0100
0010
0100
0000
0001
0000
0010
0000
0100
0000
1000
0100
1000
0000
,
0000
0000
1000
0010
1000
0000
0010
0000
0100
0000
0001
0000
0010
0001
0010
0000
,
0001
1000
0000
0100
0000
0000
0010
0000
0001
0000
1000
0000
0010
0000
0100
0000
,
0001
0000
0000
0000
0001
0100
1010
0000
,
1001
0000
0000
0000
1001
0000
0000
0000
1000
0001
0000
0100
0000
0000
0010
0000
,
1000
0100
0000
0010
0000
0001
0000
1000
0000
0000
0001
1000
0001
0000
0100
0000
,
0110
0000
0000
0000
0010
0000
1000
0000
0001
0100
0000
0001
0000
0000
1000
0000
,
0100
1000
0000
0100
0000
0010
0000
0100
0000
0000
0000
0000
0110
0000
0000
0000
,
0010
0100
0010
0100
0010
0100
0010
0000
,
0001
1000
0001
1000
0001
1000
0001
0000
,
1000
0000
0001
0100
0000
0100
0010
0000
0010
1000
0000
0001
0000
0000
1000
0000
,
0110
1001
0220
0330
,
1001
0000
1000
0100
0001
0000
0001
0100
,
1000
0100
1000
0010
0000
0100
0010
0000
,
0110
0000
0000
0000
0000
0000
1010
0000
0000
0000
1000
0010
1000
0000
0001
0000
,
0011
0000
0000
0011
0000
0010
0001
1000
,
0001
0000
0100
0000
0010
0000
0010
1000
0000
1000
0001
0000
1001
0000
0000
0000
,
1000
0000
0100
0000
0010
0000
0010
0001
0000
0000
0001
0000
0011
0000
0010
0000
,
0001
0000
0000
1000
0001
0000
0010
0000
0001
0000
0100
0000
0010
0000
1000
0000
,
0001
0000
0000
0001
1000
0000
0010
0000
0100
0000
0010
0000
0110
0000
0000
0000
,
1001
0000
0001
0100
1000
0000
1000
0100
,
0001
0100
0001
0010
0000
0010
0001
1000
,
0010
0000
1010
0000
0010
1000
0001
0200
,
0020
0000
0000
0000
0330
0010
0100
0001
,
1000
0000
0010
0000
0100
0000
0001
0100
0000
0100
0001
0000
0101
0000
0000
0000
,
0001
0000
0010
0000
0100
0000
1000
0100
0000
0000
1000
0000
1100
0000
0010
0000
,
0001
0000
0000
0010
0001
0000
0100
0000
0010
0000
1000
0000
0010
0000
0100
0000
,
0010
0000
0000
0010
1000
0000
0001
0000
0100
0000
0010
0000
0120
0000
0000
0000
,
0200
0000
0000
0330
,
1001
0000
0000
0000
;
