#TITLE:Hello (BPM) 2021;
#SUBTITLE:;
#ARTIST:かめりあ;
#TITLETRANSLIT:Hello (BPM) 2021;
#SUBTITLETRANSLIT:;
#ARTISTTRANSLIT:Camellia;
#GENRE:;
#CREDIT:DJSuperNOVA;
#MUSIC:Hello (BPM) 2021.ogg;
#BANNER:Hello (BPM) 2021.png;
#BACKGROUND:Hello (BPM) 2021-bg.png;
#CDTITLE:;
#SAMPLESTART:75.729;
#SAMPLELENGTH:20.901;
#SELECTABLE:YES;
#OFFSET:0.273;
#BPMS:0.000=252.625
,74.000=126.313
,74.500=252.625
,75.000=505.250
,76.000=252.625
,564.500=2021.000
;
#STOPS:556.000=0.119;
#DISPLAYBPM:2021.000;
#BGCHANGES:;
#FGCHANGES:;

//--------------- dance-single - DJSuperNOVA ----------------
#NOTES:
     dance-single:
     DJSuperNOVA:
     Beginner:
     13:
     0,0,0,0,0:
0000
0000
0000
0000
,
0000
0000
0000
0000
,
0000
0000
0000
0000
,
0000
0000
0000
0000
,
0000
0000
0000
0000
,
0000
0000
0000
0000
,
0000
0000
0000
0000
,
0000
0000
0000
0000
,
0000
0000
0000
0000
,
0000
0000
0000
0000
,
0000
0000
0000
0000
,
0000
0000
0000
0000
,
0000
0000
0000
0000
,
0000
0000
0000
0000
,
0000
0000
0000
0000
,
2000
0000
0000
0000
,
0000
0000
0000
0000
,
0002
0000
0000
0000
,
0000
0000
3003
0000
,
0002
0000
0000
0003
,
2000
0000
0000
3000
,
0200
0000
0000
0300
,
0010
0010
0001
1000
,
0020
0000
0000
0030
,
0200
0000
0000
0300
,
0002
0000
0000
0003
,
1000
0001
1000
0001
,
0200
0000
0000
0300
,
0020
0000
0000
0030
,
2000
0000
0000
3000
,
0100
0100
0010
0010
,
0001
0010
0100
1000
,
0001
0100
0010
1000
,
0001
1000
0100
0010
,
0000
0001
0100
0000
2002
0000
3003
0000
,
0001
0000
0100
0000
0001
0100
0001
0000
,
0010
0000
1000
0000
0010
1000
0010
0000
,
0100
0000
0010
0000
0100
0010
0100
0000
,
0001
0011
0110
1100
,
1000
0000
0100
0000
1000
0100
1000
0000
,
0010
0000
0001
0000
0010
0001
0010
0000
,
1000
0000
0001
0000
1000
0100
0010
0000
,
1001
1100
0011
0101
,
0001
0000
0100
0000
0010
1000
0010
0000
,
0100
0000
0010
0000
0001
0100
0001
0000
,
0010
0000
1000
0000
0100
0010
0100
0000
,
0011
1100
1010
0101
,
0001
0100
0010
0000
1000
0100
0010
0000
,
0001
0010
0100
0000
1000
0010
0100
0000
,
0002
0000
0000
0103
0020
0000
0000
1030
,
0200
0000
0000
0000
,
0000
0000
0000
0000
,
0020
0000
0000
0000
,
0000
0000
0000
0000
,
0330
0000
0000
0000
,
0000
0000
0000
0000
,
1000
0000
0001
0000
1000
0100
0010
0000
,
0001
0100
0010
0100
0001
0000
0101
0000
,
0001
0000
0100
0001
0010
0100
0010
0000
,
0100
0110
1001
1001
,
0001
0000
1000
0000
0100
0010
0100
0000
,
0001
0100
0001
0100
0001
0000
1001
0000
,
0010
0000
1000
0010
0100
0010
1000
0000
,
0001
0010
0001
0000
0011
0000
1100
0000
,
0001
0000
1000
0000
0010
0100
0010
0000
,
1000
0001
0100
0010
0100
0000
0110
0000
,
1000
0000
0100
0010
0100
0010
0001
0000
,
0001
0100
0010
0000
1010
0000
1010
0000
,
0001
0000
1000
0100
0010
0000
1000
0100
,
0010
0001
1000
0100
0010
0000
0001
0100
,
0010
1000
0000
0001
0000
1000
0000
0100
,
0020
0000
0000
0000
,
0130
0000
1001
0000
,
0000
0001
0100
0000
1010
0000
0000
0000
,
0001
1000
0001
1000
0001
0000
0001
0000
,
0100
0010
0100
0010
0100
0000
0110
0000
,
1000
0000
0110
0000
,
0000
1000
0100
0000
0011
0000
0000
0000
,
1000
0100
1000
0010
1000
0000
1000
0000
,
0001
0100
0001
0010
0001
0000
1001
0000
,
0001
0000
0000
0100
0000
0000
1000
0000
,
0000
0100
0000
0000
0001
0000
0010
0000
,
1000
0000
0000
0100
0000
0000
0001
0000
,
0000
0010
0000
0000
0100
0000
0010
0000
,
1000
0000
0000
0100
0000
0000
0001
0000
,
0000
0100
0000
0000
1000
0000
0010
0000
,
0001
0000
0000
1000
0001
0000
0000
0100
,
0010
0000
0000
1000
0100
0000
0100
0000
,
0010
0000
0000
0001
0000
0000
0100
0000
,
0000
1000
0000
0000
0100
0000
0001
0000
,
0010
0000
0000
0100
0000
0000
1000
0000
,
0000
0010
0000
0000
0001
0000
0010
0000
,
1000
0000
0000
0100
0000
0000
0010
0000
,
0000
0001
0000
0000
0100
0000
0010
0000
,
1000
0100
0000
0001
0100
0000
1000
0010
,
0000
0001
0010
0000
1000
0010
1000
0000
,
0010
0001
0000
0010
1000
0000
0100
1000
,
0000
0100
0001
0000
1000
0100
0010
0000
,
2000
0000
0000
0000
,
0000
0000
0000
0000
,
0002
0000
0000
0000
,
3003
0000
0000
0000
,
1000
0000
0000
0100
0000
0000
0010
0000
,
0000
0001
0000
0000
0101
0000
0101
0000
,
0010
0000
0000
1000
0000
0000
0100
0000
,
0000
1000
0000
0000
1010
0000
1010
0000
,
0001
0000
0000
0100
0000
0000
1000
0000
,
0000
0100
0000
0000
0110
0000
0110
0000
,
0010
0100
0001
0000
1000
0000
1000
0000
,
0100
0010
0100
0000
1001
0000
0110
0000
,
0001
0000
0000
1000
0000
0000
0100
0000
,
0000
0010
0000
0000
0011
0000
0011
0000
,
0100
0000
0000
0010
0000
0000
1000
0000
,
0000
0001
0000
0000
1100
0000
1100
0000
,
0010
0100
0001
0010
,
0100
0010
0001
0100
,
0020
0000
0000
0000
,
0030
0000
0000
0000
,
1000
0100
1000
0000
1100
0000
0110
0000
,
0010
0001
0010
0000
0011
0000
0101
0000
,
1000
0100
0010
0001
0010
0100
1000
0010
,
0100
1001
0110
1010
,
0001
0010
0100
1000
0010
0100
0010
0000
,
1000
0100
0010
0001
0100
0010
0100
0000
,
0001
1000
0001
1000
0001
1000
0010
0100
,
0020
2030
3002
0203
,
0310
1000
0010
0000
1010
0000
1100
0000
,
0010
0001
0010
0000
0110
0000
0011
0000
,
1000
0100
0010
0100
0010
0001
0100
0010
,
1000
1010
0101
0011
,
0100
0001
0010
0100
1000
0000
1100
0000
,
0100
1000
0010
0100
0001
0000
0101
0000
,
1000
0100
0010
0001
0100
0010
1000
0100
,
0020
0000
0000
0000
,
0000
0000
0000
0000
,
0031
1000
0001
1000
0001
1000
0001
0000
,
0100
0010
0100
0010
0100
0010
0100
0000
,
1000
0100
1000
0100
1000
0100
1000
0000
,
0010
0001
0010
0001
0010
0001
0010
0000
,
0000
1000
0001
1000
0001
1000
0001
1000
,
0001
1000
0001
1000
0001
1000
0001
1000
,
0000
2002
0000
0000
0000
0000
0000
0000
,
0000
0000
0000
0000
,
0000
0000
0000
0000
,
0000
0000
0000
0000
,
0000
0000
0000
0000
,
0000
0000
0000
0000
,
0000
0000
0000
0000
,
0000
0000
0000
0000
,
0000
0000
0000
0000
,
0000
0000
0000
0000
,
0000
0000
0000
0000
,
0000
0000
0000
0000
,
0000
0000
0000
0000
,
0000
0000
0000
0000
,
0000
0000
0000
0000
,
0000
0000
0000
0000
,
0000
0000
0000
0000
,
0000
0000
0000
0000
,
0000
0000
0000
0000
,
3003
0000
0000
0000
;

//--------------- dance-single - DJSuperNOVA ----------------
#NOTES:
     dance-single:
     DJSuperNOVA:
     Easy:
     15:
     0,0,0,0,0:
0000
0000
0000
0000
,
0000
0000
0000
0000
,
0000
0000
0000
0000
,
0000
0000
0000
0000
,
0000
0000
0000
0000
,
0000
0000
0000
0000
,
0000
0000
0000
0000
,
0000
0000
0000
0000
,
0000
0000
0000
0000
,
0000
0000
0000
0000
,
0000
0000
0000
0000
,
0000
0000
0000
0000
,
0000
0000
0000
0000
,
0000
0000
0000
0000
,
0000
0000
0000
0000
,
0002
0000
0000
0000
,
0000
0000
0000
0000
,
2003
0000
0000
0000
,
0000
0000
3000
0000
,
0001
0100
0001
0100
0001
0100
0001
0000
,
1000
0100
1000
0100
1000
0100
1000
0000
,
0010
0001
0010
0001
0010
0001
0010
0000
,
0100
0010
0100
0000
0010
1000
0010
0000
,
0010
0100
0010
0100
0010
0100
0010
0000
,
1000
0010
1000
0010
1000
0010
1000
0000
,
0001
1000
0001
1000
0001
1000
0001
0000
,
1001
1000
0110
0010
,
0010
0001
0010
0001
0010
0001
0010
0000
,
0100
1000
0100
1000
0100
1000
0100
0000
,
0010
0100
0010
0100
0010
0100
0010
0000
,
0001
0100
0001
0000
1000
0010
1000
0000
,
0002
0023
0230
2300
,
3002
0203
0320
2030
,
3200
0000
0320
0000
0032
0000
2000
3003
,
0000
0010
0020
0000
0200
0000
0330
0000
,
1000
0100
1000
0100
0010
0001
0010
0000
,
0001
0010
0001
0100
0010
1000
0100
0000
,
1000
0100
0010
0001
0010
0100
1000
0000
,
1010
0101
0011
1100
,
0001
0100
0010
1000
0010
0100
0001
0000
,
0100
0010
1000
0100
0010
0100
1000
0000
,
0001
0100
0010
1000
0100
0010
0001
1000
,
0020
0230
0302
2003
,
3100
0010
0001
1000
0010
0100
0001
0000
,
0010
0001
0010
0001
0100
0010
1000
0000
,
0100
0010
1000
0010
0100
0001
0010
0000
,
0011
1010
0101
1100
,
0001
0100
0010
0000
1000
0100
0010
0000
,
0001
0010
0100
0000
1000
0010
0100
0001
,
0020
0000
0000
0130
2000
0000
0000
3001
,
0200
0000
0000
0000
,
0000
0000
0000
0000
,
0310
0100
0010
0100
0010
0100
0010
0100
,
0010
0100
0010
0100
0010
0100
0010
0100
,
0010
0000
0000
0000
,
0000
0000
0000
0000
,
1000
0100
1000
0100
0010
0001
0010
0100
,
1000
0100
0010
0001
0010
0001
0010
0000
,
0001
0100
0001
0100
0010
1000
0010
1000
,
0001
0100
0010
1000
0010
0100
0001
0000
,
0001
0010
0100
1000
0001
0100
0010
1000
,
0001
0010
0100
1000
0100
1000
0010
0100
,
0001
0010
0100
0010
0001
1000
0100
1000
,
0001
0010
0100
1000
0001
0000
1001
0000
,
0010
1000
0010
1000
0001
0100
0010
1000
,
0100
0010
0001
0010
0100
0010
0001
0000
,
1000
0100
1000
0010
1000
0100
0010
0100
,
0010
0001
0100
0001
0010
0100
1000
0000
,
0001
0100
0001
0100
0001
0100
0001
0100
,
1000
0100
1000
0100
1000
0100
1000
0100
,
0010
1000
0010
0100
0010
1000
0010
0100
,
0002
0000
0000
0000
,
1003
0000
1001
0000
,
1000
0001
0100
0000
0101
0000
0000
0000
,
1000
0100
1000
0100
0010
0001
0010
0001
,
0100
0001
0100
0001
1000
0010
0100
0000
,
0100
0000
0110
0000
,
0010
1000
0100
0000
1100
0000
0000
0000
,
0010
0001
0010
0001
1000
0100
1000
0100
,
0010
0001
0100
0010
1000
0100
1000
0001
,
0100
0000
0000
0001
0000
0000
0100
0000
,
0000
1000
0000
0000
0100
0000
0010
0000
,
0001
0000
0000
1000
0000
0000
0001
0000
,
0000
0100
0000
0000
1000
0000
0100
0000
,
0010
0000
0000
0100
0000
0000
0010
0000
,
0000
1000
0000
0000
0100
0000
0010
0000
,
0001
0000
0000
0001
1000
0000
0000
1000
,
0100
0000
0000
0100
0010
0000
0000
0010
,
0001
0000
0000
1000
0000
0000
0001
0000
,
0000
1000
0000
0000
0100
0000
1000
0000
,
0010
0000
0000
0100
0000
0000
0001
0000
,
0000
1000
0000
0000
0100
0000
0001
0000
,
1000
0000
0000
0010
0000
0000
0100
0000
,
0000
0001
0000
0000
1000
0000
1001
0000
,
0010
0100
0000
0100
0010
0000
0010
0100
,
0000
0100
0001
0000
1000
0001
1000
0000
,
0100
0010
0000
0010
0100
0000
0100
0010
,
0000
0010
1000
0000
0001
1000
0001
0000
,
2002
0000
0000
0000
,
0000
0000
3000
0000
,
0203
0000
0000
0000
,
0310
0010
0010
0010
,
1000
0100
1000
0001
0100
0001
1000
0100
,
1000
0001
0100
0001
1000
0000
1001
0000
,
0001
0010
0001
1000
0010
1000
0001
0010
,
0001
0100
0010
0100
0001
0010
0100
1000
,
0100
1000
0100
0010
0001
0010
0100
1000
,
0100
0010
0001
0010
0001
0100
0001
0010
,
0100
0100
0100
0000
0010
0010
0010
0000
,
1000
1000
1000
0000
0001
0001
0001
0000
,
1000
0100
0010
0100
1000
0001
0100
0010
,
0100
0001
1000
0100
0010
0001
1000
0000
,
0001
0010
0100
0010
0001
1000
0010
0100
,
0010
1000
0001
0010
0100
0010
0100
0010
,
0001
0010
0100
1000
0010
0100
0001
1000
,
0100
0010
0001
0010
0001
0010
0100
1000
,
0001
0010
0100
0010
0001
1000
0001
0100
,
0020
2030
3002
0203
,
0310
1000
0100
0001
0100
1000
0010
0100
,
0001
0100
1000
0100
0001
0010
0200
0300
,
0010
0001
1000
0100
0010
0100
1000
0001
,
0100
1000
0100
0001
0100
0010
0100
0010
,
1000
0100
0010
0100
0010
0001
0100
1000
,
0100
0001
0010
0001
0100
1000
0100
0010
,
0100
0010
1000
0001
1000
0010
1000
0100
,
0020
0032
0203
0320
,
1030
0100
0001
0100
0010
0100
1000
0100
,
0010
0001
0100
1000
0100
0001
2000
3000
,
0001
0100
1000
0100
0001
1000
0100
0001
,
0100
0010
0001
0100
0001
0010
0100
1000
,
0001
0100
1000
0000
0001
0010
1000
0000
,
1000
0100
0001
0000
1000
0010
0001
0000
,
1000
0100
0010
0001
0100
0010
1000
0100
,
0020
0000
0000
0230
,
2300
0000
3002
0000
,
0103
0010
0100
0010
0100
0010
0100
0000
,
0001
1000
0001
1000
0001
1000
0001
0000
,
1000
0100
1000
0100
1000
0100
1000
0000
,
0010
0001
0010
0001
0010
0001
0010
0001
,
0000
1000
0001
1000
0001
1000
0001
1000
,
0001
1000
0001
1000
0001
1000
0001
1000
,
0000
2002
0000
0000
0000
0000
0000
0000
,
0000
0000
0000
0000
,
0000
0000
0000
0000
,
0000
0000
0000
0000
,
0000
0000
0000
0000
,
0000
0000
0000
0000
,
0000
0000
0000
0000
,
0000
0000
0000
0000
,
0000
0000
0000
0000
,
0000
0000
0000
0000
,
0000
0000
0000
0000
,
0000
0000
0000
0000
,
0000
0000
0000
0000
,
0000
0000
0000
0000
,
0000
0000
0000
0000
,
0000
0000
0000
0000
,
0000
0000
0000
0000
,
0000
0000
0000
0000
,
0000
0000
0000
0000
,
3003
0000
0000
0000
;

//--------------- dance-single - DJSuperNOVA ----------------
#NOTES:
     dance-single:
     DJSuperNOVA:
     Medium:
     17:
     0,0,0,0,0:
0000
0000
0000
0000
,
0000
0000
0000
0000
,
0000
0000
0000
0000
,
0000
0000
0000
0000
,
0000
0000
0000
0000
,
0000
0000
0000
0000
,
0000
0000
0000
0000
,
0000
0000
0000
0000
,
0000
0000
0000
0000
,
0000
0000
0000
0000
,
0000
0000
0000
0000
,
0000
0000
0000
0000
,
0000
0000
0000
0000
,
0000
0000
0000
0000
,
0000
0000
0000
0000
,
2000
0000
0000
0000
,
0000
0000
0000
0000
,
0002
0000
0000
0000
,
0000
0000
3003
0000
,
1000
0100
1000
0100
1000
0100
1000
0010
,
0100
0001
0100
0001
0100
0001
0100
0010
,
1000
0001
1000
0001
1000
0001
1000
0001
,
0100
0010
0100
0010
0001
0010
0001
0010
,
0001
0100
0001
0100
0001
0100
0001
0010
,
0100
0010
0100
0010
0100
0010
0100
1000
,
0010
1000
0010
1000
0010
1000
0010
0100
,
0001
0000
1000
0100
1000
0000
0010
0000
0100
0000
0001
0100
0001
0000
0100
0000
,
0010
1000
0010
1000
0010
1000
0010
0100
,
0001
0100
0001
0100
0001
0100
0001
0010
,
0100
1000
0100
1000
0100
1000
0100
0010
,
0001
1000
0001
1000
0001
0100
0010
0100
,
0010
0001
0100
0010
1000
0100
1000
0010
,
0100
0001
0010
0100
1000
0001
0100
1000
,
0100
0001
1000
0100
0001
0100
1000
0001
,
0000
1000
2000
0000
0002
0000
3003
0000
,
0001
0000
0100
0001
0100
0000
0010
0000
1000
0000
0100
0000
1000
0000
0001
0000
,
0100
0000
0010
1000
0010
0000
0100
0000
0010
0000
1000
0100
1000
0000
0100
0000
,
0010
0000
0001
0000
1000
0000
0010
0000
0100
0000
0001
0000
1000
0001
1000
0000
,
0010
0000
0100
0000
0001
0100
0001
0000
0100
0000
0010
0000
1000
0010
1000
0010
,
1000
0000
0100
0000
0010
0000
0001
0000
1000
0100
1000
0000
0100
1000
0100
0000
,
0010
0000
0001
0000
1000
0000
0001
0000
0100
0001
0100
0000
0001
0100
0001
0000
,
0100
0000
0010
0000
1000
0000
0001
0000
0100
0010
0100
0000
0010
0100
0010
0000
,
0200
0302
0023
0230
,
1300
0100
1000
0000
0100
0000
0010
0000
0001
0000
0010
0000
0100
0000
0010
0000
,
1000
0100
1000
0000
0100
0000
0010
0000
0001
0100
0001
0000
0010
0000
0100
0000
,
1000
0000
0001
0000
0100
0010
0100
0000
0001
0000
1000
0000
0100
0000
0010
0000
,
0001
1000
0001
0000
1000
0001
1000
0000
0010
0100
0010
0000
0100
0010
0100
0000
,
0001
0000
0100
0010
1000
0000
0000
0000
0001
0000
0010
0100
1000
0000
0000
0000
,
1000
0000
0100
0010
0001
0000
0000
0000
1000
0000
0010
0100
0001
0000
0100
0000
,
0020
0000
0000
0000
0000
0000
1030
0010
2000
0000
0000
0000
0000
0000
3001
0010
,
0002
0000
0000
0000
,
0000
0000
0000
0000
,
0013
0100
0010
0100
0010
0100
0010
0100
,
0010
0000
0100
0000
0010
0000
0100
0000
0010
0100
0010
0100
0010
0100
0010
0100
,
0010
0000
0000
0000
,
0000
0000
0000
0000
,
1000
0000
0100
0000
0010
0000
0100
0000
0010
0000
0001
0000
1000
0000
0001
1000
,
0001
0000
0100
0000
0010
0000
1000
0000
0100
0000
1000
0000
0001
0100
0001
0000
,
0100
0000
0010
0000
1000
0000
0100
0000
0010
0000
0001
0000
0010
0001
0010
0000
,
0001
0100
0020
1030
0002
0103
0020
1030
,
0001
0100
1000
0001
0010
1000
0001
0100
,
1000
0001
0010
1000
0001
0000
1001
0000
,
1000
0100
0001
1000
0010
0001
1000
0010
,
0001
1000
0100
0001
1000
0001
1000
0001
,
0100
0000
0010
0000
1000
0000
0100
0000
0010
0000
0100
0000
0010
0000
0001
0010
,
0001
0000
1000
0000
0100
0000
1000
0000
0001
0000
0100
0000
0010
1000
0010
0000
,
1000
0000
0001
0000
0100
0000
0010
0000
0100
0000
0001
0000
0100
0001
0100
0000
,
0010
1000
0200
1300
0002
0013
0200
1300
,
0001
0100
0010
1000
0100
0010
0001
0100
,
0010
1000
0100
0010
0100
0000
0110
0000
,
1000
0020
0031
2000
3100
0002
1003
0200
,
0320
0000
0000
0000
,
0130
0000
0100
0000
0110
0000
0001
1000
,
0000
1000
0001
0000
1001
0000
0000
0000
,
1000
0100
0001
1000
0010
0001
0010
0100
,
1000
0001
0100
1000
0001
0010
1000
0000
,
1001
0000
0001
0000
0110
0000
0010
0100
,
0000
0100
0010
0000
1001
0000
0000
0000
,
1000
0100
0010
0001
0100
0010
0100
0001
,
0010
0100
1000
0100
0010
0001
1000
0000
,
0001
0010
0100
1000
0000
0000
0001
0100
,
0010
1000
0000
0000
0001
0000
1000
0000
,
0010
1000
0001
0100
0000
0000
0010
0001
,
1000
0100
0000
0000
0001
0000
0100
0000
,
0001
0100
0010
0100
0000
0000
1000
0100
,
0010
0100
0000
0000
0010
0000
1000
0000
,
0001
1000
0100
0010
0001
1000
0100
0010
,
0001
1000
0010
0100
0001
1000
0010
0000
,
1000
0010
0100
0001
0000
0000
1000
0100
,
0010
0001
0000
0000
1000
0000
0001
0000
,
0010
0001
1000
0100
0000
0000
0010
1000
,
0001
0100
0000
0000
0010
0000
0100
0000
,
0001
1000
0100
0010
0001
1000
0001
1000
,
0010
0100
0001
0010
0100
0000
0110
0000
,
0001
1001
0000
0010
0110
0000
0100
1100
,
0000
1000
1001
0000
1000
0001
1001
0000
,
1000
1010
0000
0010
0110
0000
0100
0101
,
0000
0001
1001
0000
0001
1000
1001
0000
,
0002
0000
0000
0000
,
0000
0000
0000
0000
0000
0000
0000
0000
0000
0000
0000
0000
0000
0000
1003
0001
,
2000
0000
0000
0000
3100
0001
0010
0100
,
0020
0230
0320
0230
,
0310
1000
0010
0000
1000
0000
0010
1000
0010
0000
1000
0000
0010
1000
0010
0000
,
1000
0000
0001
1000
0001
0000
1000
0000
0001
1000
0001
0000
1000
0001
1000
0000
,
0001
0010
0001
0000
0010
0000
0100
0010
0100
0000
0010
0000
0001
0010
0001
0000
,
0010
0000
0100
0010
0100
0000
0010
0000
1000
0000
1000
0000
0001
0000
0001
0000
,
1000
0100
1000
0000
0100
0000
1000
0100
1000
0000
0100
0000
1000
0100
1000
0000
,
0100
0000
0010
0001
0010
0000
0001
0000
0010
0001
0010
0000
0001
0010
0001
0000
,
1000
1000
0010
0010
0100
0100
0001
0001
,
1000
1000
0100
0100
0010
0010
0001
0001
,
1000
0010
1000
0000
0010
0000
1000
0010
1000
0000
0100
0000
0010
0100
0010
0000
,
0100
0000
0010
0100
0010
0000
0100
0000
0001
0100
0001
0000
0100
0001
0100
0000
,
0001
1000
0001
0000
1000
0000
0001
0100
0001
0000
0100
0000
0001
0010
0001
0000
,
0100
0000
1000
0010
1000
0000
0100
0000
0001
0000
0010
0000
0100
0000
1000
0000
,
0001
0100
0001
0000
0010
0000
0100
0000
1000
0000
0100
0000
0010
0000
0001
0000
,
0010
0001
0100
0001
1000
0100
1000
0100
,
0010
0100
0010
0100
0001
0010
0001
0010
,
0200
2300
3002
0023
,
0031
0000
0010
0000
0001
0000
0100
0000
0010
0000
1000
0000
0100
0000
1000
0100
,
1000
0000
0010
0000
0100
0000
0001
0000
0010
0000
0100
0000
1000
0001
1000
0001
,
1000
0000
0100
0000
0010
0000
0001
0000
0100
0000
0010
0000
0100
0000
0001
0010
,
0001
0000
1000
0100
1000
0000
0100
0000
0010
0000
0001
0000
1000
0000
0010
0100
,
0010
0000
0001
0000
0010
0000
0100
0000
0010
0100
0010
0000
0001
0010
0001
0000
,
0100
0000
0010
0000
1000
0000
0100
0000
0010
1000
0010
0000
1000
0010
1000
0000
,
0001
0000
0100
0000
0010
0000
1000
0000
0010
0100
0010
0100
0010
0100
0010
0100
,
0002
2003
3020
0230
,
0301
0000
1000
0001
1000
0000
0100
0000
0010
0001
0010
0000
0001
0010
0001
0000
,
1000
0000
0100
0000
1000
0100
1000
0000
0100
0000
0010
0000
0001
0010
0001
0000
,
1000
0000
0100
0000
0010
0000
0001
0000
0100
0000
0010
0000
0100
0010
0100
0000
,
0020
2030
3002
0203
,
0301
0000
0010
0100
1000
0000
0000
0000
0001
0000
0100
0010
1000
0000
0000
0000
,
1000
0000
0010
0100
0001
0000
0000
0000
1000
0000
0100
0010
0001
0000
1000
0000
,
0001
0000
0010
0000
0100
0000
1000
0100
0010
0000
0001
0000
0100
0000
0010
1000
,
0020
0000
0000
0230
,
0320
0000
2030
0000
,
3001
1001
0000
1010
0000
1000
1010
0000
,
0101
0001
0000
0101
0000
0100
0101
0000
,
0010
0110
0000
1010
0000
1000
1100
0000
,
0010
0011
0000
0001
0000
0100
0110
0000
,
0000
1000
0001
0100
0010
1000
0001
0100
,
0010
1000
0001
0100
0010
1000
0001
1000
,
0000
2002
0000
0000
0000
0000
0000
0000
,
0000
0000
0000
0000
,
0000
0000
0000
0000
,
0000
0000
0000
0000
,
0000
0000
0000
0000
,
0000
0000
0000
0000
,
0000
0000
0000
0000
,
0000
0000
0000
0000
,
0000
0000
0000
0000
,
0000
0000
0000
0000
,
0000
0000
0000
0000
,
0000
0000
0000
0000
,
0000
0000
0000
0000
,
0000
0000
0000
0000
,
0000
0000
0000
0000
,
0000
0000
0000
0000
,
0000
0000
0000
0000
,
0000
0000
0000
0000
,
0000
0000
0000
0000
,
3003
0000
0000
0000
;

//--------------- dance-single - DJSuperNOVA ----------------
#NOTES:
     dance-single:
     DJSuperNOVA:
     Hard:
     19:
     0,0,0,0,0:
0000
0000
0000
0000
,
0000
0000
0000
0000
,
0000
0000
0000
0000
,
0000
0000
0000
0000
,
0000
0000
0000
0000
,
0000
0000
0000
0000
,
0000
0000
0000
0000
,
0000
0000
0000
0000
,
0000
0000
0000
0000
,
0000
0000
0000
0000
,
0000
0000
0000
0000
,
0000
0000
0000
0000
,
0000
0000
0000
0000
,
0000
0000
0000
0000
,
0000
0000
0000
0000
,
0002
0000
0000
0000
,
0000
0000
0000
0000
,
2003
0000
0000
0000
,
0000
0000
3000
0000
,
0001
0000
0100
0000
0001
0000
0100
0000
0001
0000
0100
0000
0001
0100
0001
0100
,
0010
0000
1000
0000
0010
0000
1000
0000
0010
0000
1000
0000
0010
0100
0010
0100
,
0001
0000
0010
0000
0001
0000
0010
0000
0001
0000
0010
0000
0001
0000
0010
0001
,
1000
0000
0010
0000
1000
0010
1000
0010
1000
0000
0010
0000
0100
0000
0001
0000
,
1000
0000
0100
0000
1000
0000
0100
0000
1000
0000
0100
0000
1000
0100
1000
0100
,
0010
0000
0001
0000
0010
0000
0001
0000
0010
0000
0001
0000
0010
0001
0010
0001
,
0100
0000
0001
0000
0100
0000
0001
0000
0100
0000
0001
0000
0100
0010
0100
0010
,
1000
0000
0001
0100
0001
0000
1000
0100
1000
0000
0001
0010
0001
0000
1000
0010
,
1000
0000
0010
0000
1000
0000
0010
0000
1000
0000
0010
0000
1000
0010
1000
0010
,
0100
0000
0010
0000
0100
0000
0010
0000
0100
0000
0010
0000
0100
0010
0100
0010
,
1000
0000
0100
0000
1000
0000
0100
0000
1000
0000
0100
0000
1000
0000
0100
0010
,
0001
0000
0010
0000
0001
0010
0001
0010
0001
0000
0100
0000
0010
0000
1000
0000
,
0001
0010
0001
0000
0010
0001
0010
0000
0100
0010
0100
0000
0010
0100
0010
0000
,
0100
1000
0100
0000
1000
0100
1000
0000
0001
1000
0001
0000
1000
0001
1000
0000
,
0001
0100
0001
0100
0001
0100
0001
0100
0010
1000
0010
1000
0010
1000
0010
0000
,
0000
0100
0010
0000
2002
0000
3003
0000
,
1000
0100
1000
0100
0010
0001
0010
0001
0010
0000
0001
0000
0100
0000
0010
0000
,
1000
0010
1000
0010
0100
0001
0100
0001
1000
0000
0010
0000
0100
0000
0001
0000
,
0010
0100
0010
0100
0010
0001
0010
0001
0010
0001
0010
0100
1000
0100
1000
0100
,
0010
0011
1010
1100
,
1000
0100
1000
0100
0010
0100
0010
0001
0010
0000
0001
0000
1000
0000
0100
0000
,
0010
0001
0010
0001
0010
0100
0010
0100
1000
0000
0001
0000
0100
0000
0010
0000
,
1000
0100
1000
0100
0010
0001
0010
0001
0100
0001
0100
0001
1000
0010
1000
0010
,
0100
0000
0110
0000
1000
0100
0010
0001
,
1000
0010
1000
0010
0100
0001
0100
0001
1000
0000
0100
0000
0010
0000
0001
0000
,
0100
0010
1000
0010
1000
0010
0100
0010
1000
0000
0001
0000
0100
0000
0010
0000
,
1000
0100
1000
0100
0010
0100
0010
0001
0010
0001
1000
0100
0010
0100
1000
0100
,
0010
0011
0101
0110
,
1001
0000
1000
0001
1000
0000
0000
0000
1100
0000
1000
0100
1000
0000
0000
0000
,
0101
0000
0001
0100
0001
0000
0000
0000
1100
0000
0100
0000
0010
0001
0010
0100
,
2000
0000
0000
0000
0000
0000
3010
0100
0002
0000
0000
0000
0000
0000
1003
0100
,
0020
0000
0000
0000
,
0000
0000
0000
0000
,
0130
0010
0100
0010
0100
0010
0100
0010
0100
0010
0100
0010
0100
0010
0100
0010
,
0100
0010
0100
0010
0100
0010
0100
0010
0100
0010
0100
0010
0200
0000
0320
0000
,
0130
0000
0000
0000
,
0000
0000
0000
0000
,
1000
0000
0010
0000
0100
0000
0001
0000
1000
0000
0100
0000
0010
0000
0001
0010
,
0001
0000
0100
0000
0010
0000
1000
0000
0100
0000
0010
0000
0100
0010
0100
0010
,
0001
0000
0010
0000
0100
0000
1000
0000
0100
0000
0010
0000
0100
0010
0100
0000
,
0001
0000
1000
0100
0010
0000
0100
0010
0001
0000
0010
0000
0100
0000
1000
0000
,
0001
1000
0001
1000
0001
0000
1000
0010
1000
0010
1000
0000
0001
0100
0001
0100
,
0001
0000
1000
0001
1000
0001
1000
0000
0100
1000
0100
0000
0010
0001
0010
0000
,
0001
0100
0001
0100
0001
0000
1000
0100
1000
0010
1000
0000
0010
0100
0010
0001
,
0010
0000
0100
1000
0010
1000
0010
0000
0100
0000
0001
0000
0010
0000
0001
0000
,
0100
0000
0010
0000
0001
0000
0100
0000
0010
0000
0100
0000
0010
0000
1000
0100
,
1000
0000
0100
0000
0010
0000
0001
0000
0100
0000
1000
0000
0100
0010
0100
0010
,
1000
0000
0100
0000
1000
0000
0010
0000
0100
0000
0001
0000
0100
0010
0100
0000
,
0001
0000
1000
0010
1000
0000
0001
0000
0010
0100
1000
0000
0001
0100
0010
0000
,
1000
0001
1000
0001
1000
0000
0001
0010
0001
0010
0001
0000
1000
0100
1000
0100
,
1000
0000
0001
1000
0001
1000
0001
0000
0100
0001
0100
0000
0010
0100
0010
0000
,
1000
0100
1000
0000
0020
0000
0130
0000
0020
0000
0031
0000
0020
0000
0130
0000
,
0020
0000
0000
0000
,
1030
0000
1000
0000
0001
0000
1000
0100
,
1000
0001
0100
0000
0001
0100
0001
0000
,
1000
0000
0100
0010
0001
0000
0100
0000
0010
1000
0100
0000
0010
0000
1000
0100
,
1000
0000
0010
0000
0100
0001
0010
0000
0001
0000
1000
0000
1001
0000
0000
0000
,
0001
0000
0001
0000
1000
0000
0001
0100
,
0001
1000
0100
0000
1000
0010
1000
0000
,
0010
0000
0100
0001
0100
0000
0010
0000
1000
0100
1000
0000
0010
0000
0100
0001
,
0010
0000
0001
0000
0100
0010
1000
0000
0001
0000
0100
0000
0110
0000
0000
0000
,
1000
0010
0100
0001
0000
0001
1000
0010
,
0100
0001
0000
1000
0010
1000
0001
0100
,
0001
0010
0100
1000
0000
0100
1000
0001
,
0010
0100
0000
0100
0010
1000
0100
0010
,
0001
1000
0100
1000
0000
1000
0001
0100
,
0001
1000
0000
1000
0100
1000
0010
1000
,
0001
0000
1000
0100
1000
0100
1000
0000
0010
0000
0001
0100
0001
0100
0001
0000
,
0010
0000
1000
0100
1000
0100
1000
0000
0010
0000
0001
0010
0001
0010
0001
0000
,
1000
0000
0001
0100
0000
0001
1000
0000
,
0001
0100
0000
0001
1000
0100
1000
0010
,
1000
0000
0001
1000
0000
0100
1000
0000
,
0010
1000
0000
0010
0100
0001
0010
0001
,
1000
0000
0100
0001
0000
1000
0001
0000
,
1000
0100
0001
0010
0100
0000
0110
0000
,
1000
0010
1000
0000
0000
0000
0001
0010
0001
0000
0000
0000
1000
0100
1000
0000
,
0000
0000
0001
0100
0001
0000
0000
0000
0010
0000
0010
0000
0100
0000
0000
0000
,
0100
1000
0100
0000
0000
0000
0100
0001
0100
0000
0000
0000
0010
0001
0010
0000
,
0000
0000
0010
1000
0010
0000
0000
0000
0100
0000
0100
0000
0010
0000
0100
0000
,
0020
0000
0000
0000
,
0000
0000
0000
0000
0000
0000
0000
0000
0000
0000
0000
0000
0000
0000
0130
0010
,
0200
0000
0000
0000
0000
0000
0000
0000
0301
0000
1000
0000
0100
1000
0100
0000
,
0020
0032
0203
0302
,
1003
0010
1000
0010
1000
0010
1000
0010
1000
0010
1000
0000
0010
1000
0010
0000
,
0001
0100
0001
0100
0001
0100
0001
0100
0001
0100
0001
0000
0100
0001
0100
0000
,
0010
0100
0010
0100
0010
0100
0010
0100
0010
0100
0010
0000
0100
0010
0100
0000
,
0100
0001
0100
0001
0100
0001
0100
0001
0100
0000
0001
0000
0010
0000
0100
0000
,
1000
0001
1000
0001
1000
0001
1000
0001
1000
0001
1000
0000
0001
1000
0001
0000
,
0100
0001
0100
0001
0100
0001
0100
0001
0100
0001
0100
0000
0001
0100
0001
0100
,
0010
0100
0001
0100
0010
1000
0010
0100
,
0010
0000
1000
0010
1000
0000
0001
0100
0001
0000
0010
1000
0100
0000
1000
0010
,
1000
0010
1000
0010
1000
0010
1000
0010
1000
0010
1000
0010
1000
0010
1000
0010
,
0100
0010
0100
0010
0100
0010
0100
0010
0100
0010
0100
0010
0100
0010
0100
0010
,
0100
0001
0100
0001
0100
0001
0100
0001
0100
0001
0100
0001
0100
0001
0100
0001
,
0010
0001
0010
0001
0010
0001
0010
0001
0010
0000
0001
0000
0010
0000
0001
0000
,
1000
0001
1000
0001
1000
0001
1000
0001
1000
0001
1000
0001
1000
0001
1000
0001
,
0100
0010
0100
0010
0100
0010
0100
0010
0100
0010
0100
0010
0100
0010
0100
0010
,
1000
0100
1000
0100
1000
0100
1000
0100
0010
0001
0010
0001
0010
0001
0010
0001
,
0020
0032
2003
3020
,
1030
0000
0100
1000
0100
0000
1000
0100
1000
0100
0010
0001
0010
0001
0010
0100
,
1000
0000
0001
0100
0001
0100
0001
0000
1000
0000
0001
0100
0001
0100
0001
0000
,
1000
0000
0001
0010
0001
0010
0001
0010
0100
1000
0100
1000
0100
0010
0001
0010
,
0100
0110
0010
0110
,
0100
0000
0010
0100
0010
0000
0001
0100
0010
1000
0010
0100
0001
0000
1000
0001
,
1000
0000
0001
1000
0001
0000
1000
0100
0010
0001
0010
0100
1000
0000
0001
0000
,
1000
0100
0010
0100
0010
0001
0010
0001
0010
0001
0010
0001
0010
0100
0010
0100
,
0010
1001
0100
1001
,
0001
0000
1000
0100
1000
0000
0001
0100
0001
0100
0001
0100
0010
0100
0010
0100
,
0010
0000
1000
0000
0010
0100
0010
0100
0010
0000
1000
0000
0010
0100
0010
0100
,
0010
0000
1000
0000
0001
0010
0100
1000
0100
1000
0100
1000
0100
0010
0001
0010
,
0001
1001
1000
1001
,
0100
0000
0010
0001
0100
0000
0000
0000
0110
0000
0010
1000
0100
0000
0000
0000
,
0110
0000
1000
0100
0010
0000
0000
0000
0110
0000
0001
0000
0010
0000
0100
0000
,
1000
0100
1000
0100
1000
0100
1000
0100
0010
0001
0010
0001
0010
0001
0010
0001
,
2000
0000
0000
3002
,
0203
0000
0320
0000
,
1030
0100
1000
0000
0000
0000
1000
0100
1000
0000
0000
0000
0001
0100
0001
0000
,
1000
0001
1000
0000
0000
0000
0001
1000
0001
0000
0000
0000
0001
0010
0001
0000
,
0100
1000
0100
0000
0000
0000
1000
0100
1000
0000
0000
0000
0010
0100
0010
0000
,
0001
0100
0001
0000
0000
0000
0100
0001
0100
0000
0000
0000
0010
0100
0010
0100
,
0010
0000
1000
0001
1000
0001
1000
0001
1000
0001
1000
0001
1000
0001
1000
0001
,
1000
0001
1000
0001
1000
0001
1000
0001
1000
0001
1000
0001
1000
0001
1000
0001
,
1000
0002
2000
0000
0000
0000
0000
0000
0000
0000
0000
0000
0000
0000
0000
0000
,
0000
0000
0000
0000
,
0000
0000
0000
0000
,
0000
0000
0000
0000
,
0000
0000
0000
0000
,
0000
0000
0000
0000
,
0000
0000
0000
0000
,
0000
0000
0000
0000
,
0000
0000
0000
0000
,
0000
0000
0000
0000
,
0000
0000
0000
0000
,
0000
0000
0000
0000
,
0000
0000
0000
0000
,
0000
0000
0000
0000
,
0000
0000
0000
0000
,
0000
0000
0000
0000
,
0000
0000
0000
0000
,
0000
0000
0000
0000
,
0000
0000
0000
0000
,
3003
0000
0000
0000
;

//--------------- dance-single - DJSuperNOVA ----------------
#NOTES:
     dance-single:
     DJSuperNOVA:
     Challenge:
     20:
     0,0,0,0,0:
0000
0000
0000
0000
,
0000
0000
0000
0000
,
0000
0000
0000
0000
,
0000
0000
0000
0000
,
0000
0000
0000
0000
,
0000
0000
0000
0000
,
0000
0000
0000
0000
,
0000
0000
0000
0000
,
0000
0000
0000
0000
,
0000
0000
0000
0000
,
0000
0000
0000
0000
,
0000
0000
0000
0000
,
0000
0000
0000
0000
,
0000
0000
0000
0000
,
0000
0000
0000
0000
,
2000
0000
0000
0000
,
0000
0000
0000
0000
,
0002
0000
0000
0000
,
0000
0000
3003
0000
,
0001
0100
0001
0100
0001
0100
0001
0100
0001
0100
0001
0100
0001
0100
0001
0100
,
0010
1000
0010
1000
0010
1000
0010
1000
0010
1000
0010
1000
0010
1000
0010
1000
,
0100
0010
0100
0010
0100
0010
0100
0010
0100
0010
0100
0010
0100
0010
0100
0010
,
0001
0010
0001
0010
0001
0010
0001
0010
0100
1000
0100
1000
0100
1000
0100
1000
,
0010
0100
0010
0100
0010
0100
0010
0100
0010
0100
0010
0100
0010
0100
0010
0100
,
0001
1000
0001
1000
0001
1000
0001
1000
0001
1000
0001
1000
0001
1000
0001
1000
,
0010
1000
0010
1000
0010
1000
0010
1000
0010
1000
0010
1000
0010
1000
0010
1000
,
0001
0000
1000
0100
1000
0000
0001
0100
0001
0000
1000
0010
1000
0000
0001
0010
,
0001
0010
0001
0010
0001
0010
0001
0010
0001
0010
0001
0010
0001
0010
0001
0010
,
0100
1000
0100
1000
0100
1000
0100
1000
0100
1000
0100
1000
0100
1000
0100
1000
,
0010
1000
0010
1000
0010
1000
0010
1000
0010
1000
0010
1000
0010
1000
0010
1000
,
0001
0100
0001
0100
0001
0100
0001
0100
0010
0100
0010
0100
0010
0100
0010
0100
,
0010
1000
0010
0000
0100
0010
0100
0000
0001
0100
0001
0000
1000
0001
1000
0000
,
0010
1000
0010
0000
1000
0100
1000
0000
0010
0001
0010
0001
0100
0001
0100
0001
,
1000
0100
0010
0001
1000
0100
0010
0001
1000
0100
0010
0001
1000
0100
0010
0000
,
0000
0100
0200
0000
0020
0000
0330
0000
,
0010
0001
0010
0001
0010
0100
0010
0100
0010
0001
0100
0010
1000
0100
0010
0100
,
1000
0010
1000
0010
0100
0010
0100
0010
1000
0010
1000
0010
0200
0000
0320
0000
,
1030
0010
1000
0100
0010
0001
0100
0010
1000
0100
1000
0100
0010
0001
0010
0001
,
0010
1000
0010
1000
0001
1000
0001
1000
0010
1000
0010
1000
0100
1000
0100
0000
,
0010
1000
0010
1000
0001
1000
0001
1000
0001
0010
0100
1000
0100
0010
0001
0010
,
0001
0100
0001
0100
0001
1000
0001
1000
0001
0100
0010
1000
0010
0100
0001
1000
,
0001
0100
0001
0100
0001
0100
0001
0100
0010
0100
0010
0100
0010
0100
0010
0100
,
0020
0230
0302
2003
,
3001
0100
0001
0100
0001
1000
0001
1000
0100
1000
0001
0010
0001
0010
0100
1000
,
0100
0010
0100
0010
0001
0010
0001
0010
0100
0010
0100
0010
0002
0000
2003
0000
,
3001
1000
0001
1000
0100
0010
0100
0010
0001
0100
0001
0100
0010
1000
0010
1000
,
0001
1000
0001
1000
0100
1000
0100
1000
0001
1000
0001
1000
0100
1000
0100
0000
,
0010
0000
0001
0010
0001
0000
0100
0010
1000
0000
0100
0010
0001
0000
1000
0100
,
1000
0000
0001
0100
0010
0000
1000
0100
0010
0001
0100
0010
1000
0100
0010
0001
,
2000
0000
0000
0000
0000
0000
3001
0100
0020
0000
0000
0000
0000
0000
0130
0010
,
2000
0000
0000
0000
,
0000
0000
0000
0000
,
3001
1000
0001
1000
0001
1000
0001
1000
0001
1000
0001
1000
0001
1000
0001
1000
,
0001
1000
0001
1000
0001
1000
0001
1000
0001
1000
0001
1000
0001
1000
0001
1000
,
0001
0000
0000
0000
,
0000
0000
0000
0000
,
1000
0000
0010
0000
0001
0000
0010
0000
1000
0000
0100
0000
0010
0000
0001
0100
,
0001
0000
0100
0000
0010
0000
1000
0000
0100
0000
0001
0000
0100
0010
0100
0010
,
0001
0000
0100
0000
1000
0000
0010
0000
0100
0000
0001
0000
0100
0010
0100
0000
,
0001
0000
1000
0100
0010
0100
0010
0001
1000
0000
0001
0100
0010
0100
0010
0100
,
0001
1000
0001
1000
0001
1000
0010
1000
0010
1000
0010
0100
0001
0100
0001
0100
,
0001
1000
0001
1000
0001
1000
0001
1000
0100
1000
0100
1000
0100
0010
0100
0010
,
0001
0100
0001
0100
0001
1000
0100
1000
0100
1000
0010
0100
0010
0100
0010
0100
,
0010
1000
0010
1000
0010
1000
0010
0100
0001
0000
1000
0000
0001
0000
1000
0000
,
0001
0000
0010
0000
1000
0000
0010
0000
0001
0000
0100
0000
0010
0000
1000
0100
,
1000
0000
0100
0000
0010
0000
0001
0000
0100
0000
1000
0000
0100
0010
0100
0010
,
1000
0000
0100
0000
0001
0000
0010
0000
0100
0000
1000
0000
0100
0010
0100
0000
,
1000
0000
0001
0100
0010
0100
0010
1000
0001
0000
1000
0100
0010
0100
0010
0100
,
1000
0001
1000
0001
1000
0001
0010
0001
0010
0001
0010
0100
1000
0100
1000
0100
,
1000
0001
1000
0001
1000
0001
1000
0001
0100
0001
0100
0001
0100
0010
0100
0010
,
1000
0100
1000
0000
0020
0000
0130
0000
0020
0000
0031
0000
0020
0000
0130
0000
,
2000
0000
0000
0000
,
3001
0000
0001
0000
1000
0000
0001
0100
,
1000
0100
1000
0100
0001
0010
0100
1000
,
0001
0000
0010
0001
0010
0000
0100
0000
0010
0001
0100
0000
0010
0000
1000
0100
,
0010
0000
0001
0000
1000
0010
0100
0000
0010
1000
0010
1000
0001
0100
0001
0100
,
0010
0000
0010
0000
1000
0000
1000
0100
,
0001
0100
0001
0100
1000
0000
0001
0100
,
0010
0000
1000
0100
0010
0000
0100
0000
0010
0001
0100
0000
0001
0000
1000
0100
,
0010
0000
0001
0000
1000
0100
1000
0000
0010
0100
0010
0100
0001
1000
0001
1000
,
0001
0100
0010
1000
0100
0010
0001
0100
,
0010
1000
0100
0010
1000
0010
0100
1000
,
0001
0100
0010
1000
0100
0010
0001
0100
,
0010
1000
0100
0010
0001
0100
0001
0100
,
0010
1000
0100
0010
0001
0100
0010
1000
,
0100
0010
1000
0010
0001
0010
0001
1000
,
0001
0000
1000
0100
1000
0100
1000
0100
0010
0000
0001
0100
0001
0100
0001
0100
,
0010
0000
1000
0010
1000
0010
1000
0010
0100
0000
0100
0001
0010
0100
1000
0001
,
1000
0100
0010
0001
0100
0010
1000
0100
,
0010
0001
0100
0010
0001
0010
0100
0001
,
1000
0100
0010
0001
0100
0010
1000
0100
,
0010
0001
0100
0010
1000
0100
1000
0100
,
0010
1000
0100
0001
1000
0010
0001
1000
,
0100
0001
0010
0100
1000
0000
0001
0000
,
1000
0001
1000
0001
0000
0000
1000
0001
1000
0001
0000
0000
0100
0010
0100
0010
,
0000
0000
0100
0010
0100
0010
0000
0000
1000
0000
0100
0000
0010
0000
0001
0000
,
1000
0010
1000
0010
0000
0000
1000
0010
1000
0010
0000
0000
0100
0001
0100
0001
,
0000
0000
0100
0001
0100
0001
0000
0000
1000
0000
0010
0000
0100
0000
0001
0000
,
2000
0000
0000
0000
,
0000
0000
0000
0000
0000
0000
0000
0000
0000
0000
0000
0000
0000
0000
3100
0010
,
0200
0000
0000
0000
0000
0000
0000
0000
0310
0001
0100
0000
0010
1000
0100
0000
,
0002
0023
0230
2300
,
3001
0100
0001
1000
0100
1000
0001
0100
0001
1000
0100
1000
0001
0100
0001
1000
,
0010
1000
0001
0010
0001
1000
0010
1000
0001
0010
0001
0100
0010
1000
0100
1000
,
0100
1000
0100
0010
0001
0010
0100
1000
0100
0010
0001
0100
0010
1000
0010
0100
,
0001
0100
0010
1000
0010
0100
0001
0100
0010
1000
0010
1000
0001
0100
0001
0100
,
0010
1000
0100
0010
0001
1000
0100
1000
0001
0010
0100
1000
0100
0010
0001
0010
,
0001
0010
0100
1000
0100
0010
0100
0010
0001
0010
0100
1000
0001
0100
0010
1000
,
0100
0010
0100
0010
0100
0010
0100
0010
0001
0010
0001
0010
0001
0010
0001
0010
,
0100
1000
0100
1000
0100
1000
0100
1000
0010
1000
0010
1000
0010
1000
0010
1000
,
0001
0100
0001
1000
0100
1000
0001
0100
0001
1000
0100
1000
0001
0100
0001
1000
,
0010
1000
0001
0010
0001
1000
0010
1000
0001
0010
0001
0100
0010
1000
0100
1000
,
0100
1000
0100
0010
0001
0010
0100
1000
0100
0010
0001
0100
0010
1000
0010
0100
,
0001
0100
0010
1000
0010
0100
0001
0100
0010
1000
0010
1000
0001
0100
0001
0100
,
0010
0100
0001
0010
0100
1000
0100
0010
0001
0100
0010
0100
0010
1000
0010
0100
,
0010
0100
0001
0100
0010
1000
0001
0100
0010
1000
0001
0100
0010
1000
0100
0010
,
0001
0010
0001
0010
0100
0010
0100
0010
0100
1000
0100
1000
0100
0010
0100
0010
,
0002
0203
0320
2030
,
3001
0100
0001
0100
0010
0100
0001
0100
0001
0010
0100
1000
0001
0100
0010
1000
,
0100
0010
0100
0010
0001
0010
0001
0010
0100
1000
0001
0010
0100
0010
0001
1000
,
0100
1000
0010
0100
0001
0100
0010
0100
0010
1000
0100
0010
0001
1000
0010
0100
,
0001
0010
0001
0010
0001
0100
0001
0100
0010
0100
0010
0100
1000
0100
1000
0100
,
0010
0001
0010
0001
0010
0001
0010
0001
1000
0100
0010
0001
1000
0100
1000
0001
,
0010
0100
1000
0100
1000
0100
1000
0100
1000
0010
0100
0001
0100
0010
1000
0100
,
0010
0001
0010
0100
1000
0100
0010
0001
0010
0001
0010
0001
0100
0001
0100
0001
,
2000
3020
0230
0302
,
1003
0100
1000
0100
0010
0100
1000
0100
1000
0010
0100
0001
0010
0100
1000
0100
,
0010
0001
0010
0001
0100
0010
0100
0010
1000
0100
1000
0100
0010
0001
0010
0001
,
1000
0010
0100
0010
1000
0100
0010
0001
1000
0100
0010
0100
1000
0001
0100
0010
,
0100
0001
0010
0100
1000
0100
0010
0001
1000
0010
1000
0010
0100
0001
0100
0001
,
1000
0000
0100
0010
0001
0000
0100
0010
1000
0000
0001
0010
0100
0000
1000
0010
,
0100
0000
0010
0100
0001
0000
1000
0100
1000
0000
0001
0010
0001
0000
1000
0100
,
1000
0100
1000
0100
0010
0001
0010
0100
1000
0100
1000
0100
0010
0001
0010
0100
,
2000
0000
0000
3020
,
0230
0000
0302
0000
,
1003
0010
1000
0000
0010
0000
1000
0010
1000
0000
0010
0000
0100
0010
0100
0000
,
0010
0100
0010
0000
0001
0000
0100
0001
0100
0000
0001
0000
0010
0100
0010
0000
,
1000
0100
1000
0000
0100
0000
1000
0100
1000
0000
0100
0000
0010
0001
0010
0000
,
0001
0100
0001
0000
0100
0000
0010
0100
0010
0000
0100
0000
0010
0100
0010
0000
,
0100
0000
0001
0010
0100
1000
0001
0010
0100
1000
0001
0010
0100
1000
0001
0010
,
0100
1000
0001
0010
0100
1000
0001
0010
0100
1000
0001
0010
0100
1000
0001
0010
,
0100
2000
0002
0000
0000
0000
0000
0000
0000
0000
0000
0000
0000
0000
0000
0000
,
0000
0000
0000
0000
,
0000
0000
0000
0000
,
0000
0000
0000
0000
,
0000
0000
0000
0000
,
0000
0000
0000
0000
,
0000
0000
0000
0000
,
0000
0000
0000
0000
,
0000
0000
0000
0000
,
0000
0000
0000
0000
,
0000
0000
0000
0000
,
0000
0000
0000
0000
,
0000
0000
0000
0000
,
0000
0000
0000
0000
,
0000
0000
0000
0000
,
0000
0000
0000
0000
,
0000
0000
0000
0000
,
0000
0000
0000
0000
,
0000
0000
0000
0000
,
3003
0000
0000
0000
;
