#TITLE:HIP;
#SUBTITLE:;
#ARTIST:MAMAMOO;
#TITLETRANSLIT:;
#SUBTITLETRANSLIT:;
#ARTISTTRANSLIT:;
#GENRE:;
#CREDIT:DJSuperNOVA;
#MUSIC:HIP.ogg;
#BANNER:HIP.png;
#BACKGROUND:HIP-bg.png;
#CDTITLE:;
#SAMPLESTART:55.146;
#SAMPLELENGTH:27.826;
#SELECTABLE:YES;
#OFFSET:-0.363;
#BPMS:0.000=138.000;
#STOPS:;
#BGCHANGES:;
#FGCHANGES:;

//--------------- dance-single - DJSuperNOVA ----------------
#NOTES:
     dance-single:
     DJSuperNOVA:
     Beginner:
     3:
     0,0,0,0,0:
0000
0000
0000
0000
,
0000
0000
0000
0000
,
0000
0000
0000
0000
,
0000
0000
0000
0000
,
0001
0000
1000
0000
,
1000
0000
0000
0000
,
1000
0000
0001
0000
,
1001
0000
0000
0000
,
1000
0000
1000
0000
,
1000
0000
0000
0000
,
0001
0000
0001
0000
,
0001
0000
0000
0000
,
0010
0000
0010
0000
,
0010
0000
0000
0000
,
0100
0000
0100
0000
,
1001
0000
0000
0000
,
1000
0000
0001
0000
,
0001
0000
0000
0000
,
0001
0000
1000
0000
,
1000
0000
0000
0000
,
0100
0000
0010
0000
,
0010
0000
0000
0000
,
0010
0000
0100
0000
,
0100
0000
0000
0000
,
0001
0000
0001
0000
,
0100
0000
1000
0000
,
1000
0000
1000
0000
,
0100
0000
0001
0000
,
1000
0000
0001
0000
,
1000
0000
0010
0000
,
0100
0000
0010
0000
,
0020
0000
0000
0030
0000
0000
0000
0000
,
0001
0000
1000
1000
,
1000
0000
0000
0000
,
1000
0000
0001
0001
,
0001
0000
0000
0000
,
0010
0000
0100
0000
,
0010
0010
0010
0000
,
0100
0000
0100
0000
,
0100
0000
1001
0000
,
2000
3000
0002
0003
,
1000
1000
1000
0000
,
0002
0003
2000
3000
,
0000
0001
1001
0000
,
0200
0300
0020
0030
,
0100
0100
0100
0000
,
0020
0030
0200
0300
,
0110
0000
0000
0000
,
1000
0000
0010
0000
,
1000
0000
0001
0000
,
0001
0000
0010
0000
,
0001
0000
1000
0000
,
0100
0000
0001
0000
,
0100
0000
0100
0000
,
1000
0000
0100
0000
,
0010
0000
1001
0000
,
0001
0001
0001
0000
,
1000
0000
0001
0000
,
0010
0010
0010
0000
,
0100
0000
0010
0000
,
0001
0001
0001
0000
,
1000
0000
0001
0000
,
1000
0000
0100
0000
,
0010
0010
1001
0000
,
0001
0000
1000
1000
,
1000
0000
0001
0000
,
1000
0000
0100
0100
,
0100
0000
0010
0000
,
0001
0000
1000
0000
,
0010
0010
0010
0000
,
0100
0000
0100
0000
,
0100
0000
1001
0000
,
0002
0003
2000
3000
,
0100
0100
0100
0000
,
2000
3000
0002
0003
,
0000
0100
0110
0000
,
0020
0030
0200
0300
,
0001
0001
0001
0000
,
2000
3000
0002
0003
,
2002
0000
0000
3003
0000
0000
0000
0000
;

//--------------- dance-single - DJSuperNOVA ----------------
#NOTES:
     dance-single:
     DJSuperNOVA:
     Easy:
     6:
     0,0,0,0,0:
0000
0000
0000
0000
,
0000
0000
0000
0000
,
0000
0000
0000
0000
,
0000
0000
0000
0000
,
0001
0000
1000
0000
,
0010
0000
0100
0100
,
0010
0000
1000
0000
,
2002
0000
0003
3000
0000
0000
0000
0000
,
0001
0001
1000
0000
,
1000
0001
1001
0000
,
0010
0100
0100
0000
,
0010
0100
0110
0010
,
0001
1000
0010
0010
,
0100
0001
0101
0000
,
0001
0010
0100
1000
,
0002
0000
0000
0003
0000
0000
0000
0000
,
1000
0100
1000
0000
,
1000
0000
0001
0100
,
1000
0000
0001
0100
,
0001
0000
1000
0001
,
0100
0010
0100
0000
,
0001
1000
0001
0000
,
0001
0100
1000
0100
,
2002
0000
3000
0003
0000
0000
0001
0000
,
0100
0000
0010
0000
,
0100
0100
0001
1000
,
0001
0000
1000
0000
,
0100
0100
1000
0100
,
0010
0100
0010
0000
,
0001
1000
0001
0000
,
1000
0010
0100
0010
,
2000
0000
0000
3000
0000
0000
0001
0000
,
1001
0001
0100
0010
,
0110
0000
0001
1000
,
0001
0100
0010
1000
,
1010
0000
0010
0100
,
0001
0001
1000
1000
,
0100
0010
0001
0000
,
2000
3100
0002
0103
,
2000
3010
0110
0000
,
0202
0303
2200
3300
,
0100
0100
0010
0010
,
2002
3003
0220
0330
,
0000
0001
1000
0001
1000
0000
1000
0000
,
2020
3030
0202
0303
,
0001
0001
1000
1000
,
2200
3300
0022
0033
,
2002
0000
0003
3000
0000
0000
0000
0000
,
0001
1000
0100
1000
,
0001
0010
0001
0000
,
1000
0001
0100
0001
,
1000
0010
1000
0000
,
0002
0003
2000
3000
,
0020
0030
0200
0300
,
0002
0003
2000
3000
,
0100
0010
0001
1001
,
1000
1000
1000
1000
,
0001
0000
0001
0000
0202
0303
0000
0000
,
0100
0100
0100
0100
,
0010
0010
0000
0110
,
0100
0100
0100
0100
,
0010
0000
0010
0000
2020
3030
0000
0000
,
1000
1000
0001
0001
,
2002
0000
3003
0000
,
0001
1000
0100
0010
,
0110
0000
0010
0001
,
1000
0100
0010
0001
,
0011
0000
0001
0100
,
0010
0010
0100
0100
,
0001
1000
0010
0000
,
1000
1000
0001
0001
,
1000
0001
2002
3003
,
0102
0103
2100
3100
,
0010
0100
0110
1001
,
2010
3010
0012
0013
,
0000
1000
0001
1000
0001
0000
1001
0000
,
0201
0301
1200
1300
,
0001
1000
1001
0110
,
0210
1300
0120
0031
,
2002
0000
0003
3000
0000
0000
0000
0000
;

//--------------- dance-single - DJSuperNOVA ----------------
#NOTES:
     dance-single:
     DJSuperNOVA:
     Medium:
     10:
     0,0,0,0,0:
0000
0000
0000
0000
,
0000
0000
0000
0000
,
0000
0000
0000
0000
,
0000
0000
0000
0000
,
1000
0000
0000
0001
1000
0000
0000
0100
,
1000
0000
0000
0000
0100
0010
0001
1000
,
0001
0000
0000
0100
0001
0000
0000
1000
,
0010
0100
0010
0010
0000
0000
0010
0000
,
1001
0000
1000
0100
1000
0100
0010
0000
,
0010
0001
1000
0000
1001
0000
0100
0000
,
0001
0100
0001
0100
0010
1000
0001
0000
,
0001
0000
1000
0010
1000
0010
0100
0000
,
0010
0000
0100
0001
0100
0001
1000
0000
,
1000
0010
0100
0000
0110
0000
0001
0000
,
1000
0000
0001
1000
0001
0000
1000
0001
,
0100
0001
0100
0100
0000
0000
0010
0000
,
1000
0000
0001
0100
0001
0000
1000
0100
,
1000
0001
0000
1000
,
0010
0000
0100
0001
0100
0000
0010
1000
,
0010
0100
0100
1001
,
0001
0000
0000
1000
0000
0000
0010
0000
0000
0000
0100
0000
0100
0000
0010
0000
,
1000
0000
0000
0001
0000
0000
0010
0000
0001
0000
0000
0000
1000
0000
0000
0000
,
1001
0010
0110
0100
,
0001
1000
0001
0001
0000
0000
1001
0000
,
1000
0000
0001
0100
0001
0000
1000
0100
,
0010
0000
0100
0000
1000
0010
0100
0001
,
1000
0000
0001
1000
0100
0000
1000
0100
,
0010
0001
1000
0000
0001
1000
0010
0000
,
1000
0100
1000
0000
0001
0100
0001
0000
,
0010
1000
0010
0000
1000
0100
1000
0000
,
0001
0100
0001
1000
0100
0010
0001
0000
,
1000
1000
0001
0001
0000
0000
0110
0000
,
1001
0000
0001
0100
0010
0100
0001
0000
,
0102
1000
0103
1001
,
1010
0000
1000
0010
0100
0010
1000
0000
,
2100
0001
3100
1001
,
0021
0130
0210
1300
,
0001
0100
0010
1000
0001
0000
1001
0000
,
0102
0013
2100
3010
,
0001
1000
0001
0001
1000
0000
1001
0000
,
2001
3100
1002
0103
,
1000
0010
0000
0000
0010
0100
0000
0000
0100
0001
0000
0000
1001
0000
0000
0000
,
1002
0103
2001
3100
,
0001
1000
0100
0010
0001
0000
1001
0000
,
2100
3001
0102
1003
,
0001
0010
0000
0000
0010
0100
0000
0000
0100
1000
0000
0000
1001
0000
0000
0000
,
0102
1003
2100
3001
,
1000
0010
0010
0010
0000
0000
0200
0000
,
0301
0000
0010
0100
0010
0000
0100
1000
,
0100
0000
1000
0000
0010
0100
0001
0000
,
1000
0000
0010
0100
0010
0000
0100
0001
,
0100
0000
0010
1000
0100
0010
0001
0000
,
1001
0000
1000
0100
0001
0000
0001
0100
,
1000
0010
0100
0001
,
1000
0100
1000
0000
0001
0100
0001
0000
,
0100
0010
0110
1001
,
0001
1000
0001
1000
0001
1000
0100
1000
,
0001
0100
0001
1000
0010
0010
0000
0000
,
1000
0001
1000
0001
1000
0001
0100
0001
,
1000
0010
1000
0100
0000
0010
0010
0000
,
0001
0100
0001
1000
0001
0100
0001
1000
,
0010
0100
0001
0100
0010
0010
0000
0000
,
1000
0001
1000
0001
1000
0100
0010
0000
,
0001
0100
0010
1000
0001
0000
0110
0000
,
1001
0000
0001
0100
0010
0100
0001
0000
,
0102
1000
0103
1001
,
1010
0000
1000
0010
0100
0010
1000
0000
,
2100
0001
3100
1001
,
1020
0130
0210
0301
,
0001
0100
0010
1000
0001
0000
1001
0000
,
0102
0013
2100
3010
,
1000
0001
1000
1000
0001
0000
1001
0000
,
2001
3100
1002
0103
,
0001
0010
0000
0000
0010
0100
0000
0000
0100
1000
0000
0000
1001
0000
0000
0000
,
1002
0103
2001
3100
,
0000
0001
0100
0010
1000
0000
1001
0000
,
2100
3001
0102
1003
,
1000
0010
0000
0000
0010
0100
0000
0000
0100
0001
0000
0000
1001
0000
0000
0000
,
0102
1003
2100
3001
,
1000
0010
0010
0010
0000
0000
0000
0000
;

//--------------- dance-single - DJSuperNOVA ----------------
#NOTES:
     dance-single:
     DJSuperNOVA:
     Hard:
     13:
     0,0,0,0,0:
0000
0000
0000
0000
,
0000
0000
0000
0000
,
0000
0000
0000
0000
,
0000
0000
0000
0000
,
0001
1000
0001
1000
0001
0010
0100
1000
,
0001
1000
0100
1000
0001
0000
1001
0000
,
1000
0010
0100
0001
1000
0001
1000
0010
,
0100
0000
0100
0000
0010
0000
0010
0000
0000
0000
1000
0001
1000
0000
0000
0000
,
0110
0000
0000
0000
0010
0000
0001
0000
1000
0000
0000
0001
1000
0000
0010
0000
,
1000
0000
0100
0000
0001
0000
0100
0000
0010
0000
0001
0010
0001
0000
0000
0000
,
1100
0000
0000
0000
0001
0000
0100
0000
0010
0000
0000
0100
0010
0000
1000
0000
,
0001
0000
1000
0001
1000
0000
0100
0000
0010
0000
0001
0000
1000
0000
0000
0000
,
1001
0000
0000
0000
0010
0000
1000
0000
0001
0000
0000
1000
0001
0000
0010
0000
,
0001
0000
0100
0000
1000
0000
0100
0000
0010
0000
1000
0010
1000
0000
0000
0000
,
0010
0100
0010
0100
0001
0100
0001
1000
,
0000
0000
0001
0000
0001
0000
0001
0000
0000
0000
1000
0001
1000
0000
0000
0000
,
1001
0000
0000
0000
0001
0000
0100
0000
0010
0000
0000
1000
0000
0000
0001
0000
,
1000
0000
0001
1000
0000
0000
0000
0000
0001
0000
0100
0000
0010
0000
0000
0000
,
0110
0000
0000
0000
0010
0000
1000
0000
0100
0000
0000
0010
0000
0000
0100
0000
,
1000
0000
0001
1000
0000
0000
0000
0000
0001
0000
0000
1000
0001
0000
1000
0000
,
0001
0000
0100
0010
0000
0100
0010
0000
0000
0000
1000
0000
0100
0000
0010
0000
,
0001
0000
1000
0100
0000
1000
0100
0000
0000
0000
0010
0000
0001
0000
1000
0000
,
0001
0000
1000
0001
0100
0000
0001
1000
,
0100
0100
1000
1000
0000
0100
0001
0100
,
1000
0010
1000
0001
0000
0100
0001
0100
,
0010
1000
0010
0100
0000
0100
0001
0010
,
0100
0010
0001
1000
0010
1000
0100
0010
,
0001
1000
1001
0000
1000
0001
1001
0000
,
0010
0001
0010
0001
1000
0100
1000
0100
,
1000
0010
1000
0010
0100
0001
0100
0100
,
0001
0010
0100
1000
0010
0100
0001
1000
,
0100
0000
0100
0000
0010
0000
0010
0000
0000
0000
0010
0100
0010
0000
0001
0000
,
1001
0000
0000
0000
0001
0000
1000
0000
0001
0000
0000
0001
0100
0000
0010
0000
,
1000
0000
0000
0000
1010
0000
0000
0000
0010
0000
0100
0010
0100
0000
0000
0000
,
0110
0000
0000
0000
0001
0000
0010
0000
0100
0000
0000
0100
0010
0000
0001
0000
,
1000
0000
0001
1000
0001
0000
1000
0000
0100
0000
0010
0000
0011
0000
0000
0000
,
0012
0000
0000
0000
1003
0000
0000
0000
2010
0000
3000
0010
1000
0000
0010
0000
,
0100
0001
0010
0100
1000
0000
1001
0000
,
1200
0000
0000
0000
1300
0000
0000
0000
0102
0000
0003
0100
0001
0000
1000
0000
,
0001
1000
1000
0001
0001
0000
1001
0000
,
0110
0000
0000
0000
0010
0000
0100
0000
1000
0000
0000
1000
0001
0000
0100
0000
,
0001
0100
0000
0000
1000
0100
0000
0000
0001
0100
0000
0000
0110
0000
0000
0000
,
1010
0000
0000
0000
0010
0000
0100
0000
0001
0000
0000
0001
1000
0000
0001
0000
,
0100
0010
0010
0010
0110
0000
1001
0000
,
0110
0000
0000
0000
0010
0000
0100
0000
1000
0000
0000
0001
1000
0000
0010
0000
,
1000
0010
0000
0000
0001
0010
0000
0000
1000
0010
0000
0000
0110
0000
0000
0000
,
0102
0000
0000
0000
1003
0000
0100
0000
2100
0000
3000
0001
1000
0000
0001
0000
,
0100
0000
0010
0000
0010
0000
0010
0000
0000
0000
1000
0001
0200
0000
0000
0000
,
0301
0000
1000
0010
1000
0000
0001
0010
,
0001
0010
0000
0000
0100
0000
1000
0100
1000
0000
0001
0000
1000
0000
0100
0010
,
0100
0000
0000
0000
1000
0100
1000
0000
0001
0000
0000
0000
0100
0000
0001
0000
,
0100
0001
0000
0000
1000
0010
1000
0000
0010
0000
0100
0000
0001
0000
0000
0000
,
1001
0000
0000
0000
0000
0000
1000
0000
0001
0000
1000
0000
0001
0000
0000
0100
0000
0000
0010
0000
0000
1000
0000
0000
,
0100
1000
0000
0000
0100
0000
1000
0001
1000
0000
0010
0000
0100
0000
0001
0100
,
0001
0000
0000
0000
0000
0000
0100
0000
0010
0000
0100
0000
0010
0000
0000
1000
0000
0000
0100
0000
0000
0010
0000
0000
,
0001
0010
0000
0000
0110
0000
0000
0000
1001
0000
0001
1000
0020
0000
0000
0000
,
1030
0000
0001
0000
1000
0000
0001
0000
0100
0000
0001
0000
1000
0000
0001
1000
,
0001
0000
1000
0001
1000
0000
0010
0000
0100
0000
0010
0100
0010
0000
0000
0000
,
0100
0000
0010
0000
0100
0000
0010
0000
1000
0000
0010
0000
0100
0000
0001
0100
,
0001
0100
0010
0100
0000
0010
1001
0000
,
0001
0000
0010
0000
0001
0000
0010
0000
0100
0000
0010
0000
0001
0000
1000
0100
,
1000
0000
0100
1000
0100
0000
1000
0000
0010
0000
0100
0010
0100
0000
0000
0000
,
0010
1000
0100
1000
0010
0100
0001
0000
,
1000
0010
1000
0010
0100
0001
0100
0001
1000
0000
0001
0000
0001
0000
0001
0000
,
1001
0000
0000
0000
0001
0000
1000
0000
0001
0000
0000
0001
0100
0000
0010
0000
,
1000
0000
0000
0000
1010
0000
0000
0000
0010
0000
0100
0010
0100
0000
0000
0000
,
0110
0000
0000
0000
0001
0000
0010
0000
0100
0000
0000
0100
0010
0000
0001
0000
,
1000
0000
0001
1000
0001
0000
1000
0000
0100
0000
0010
0000
0011
0000
0000
0000
,
0012
0000
0000
0000
1003
0000
0000
0000
2010
0000
3000
0010
1000
0000
0010
0000
,
0100
0000
0001
0000
0010
0000
0100
0000
1000
0000
0001
1000
0001
0000
0000
0000
,
1200
0000
0000
0000
1300
0000
0000
0000
0102
0000
0003
0100
0001
0000
1000
0000
,
0001
1000
1000
0001
0001
0000
1001
0000
,
0110
0000
0000
0000
0010
0000
0100
0000
1000
0000
0000
1000
0001
0000
0010
0000
,
0001
0010
0000
0000
1000
0010
0000
0000
0001
0010
0000
0000
0110
0000
0000
0000
,
1010
0000
0000
0000
0010
0000
0100
0000
0001
0000
0000
1000
0001
0000
1000
0000
,
0000
0010
0110
0110
0110
0000
1001
0000
,
0110
0000
0000
0000
0010
0000
0100
0000
1000
0000
0000
0001
1000
0000
0100
0000
,
1000
0100
0000
0000
0001
0100
0000
0000
1000
0100
0000
0000
0110
0000
0000
0000
,
0102
0000
0000
0000
1003
0000
0000
0000
2100
0000
3000
0001
1000
0000
0001
0000
,
0100
0010
0010
0010
0000
0000
0000
0000
;
