#TITLE:Fried Noodles (Getter Remix);
#SUBTITLE:;
#ARTIST:Pink Guy;
#TITLETRANSLIT:;
#SUBTITLETRANSLIT:;
#ARTISTTRANSLIT:;
#GENRE:;
#CREDIT:DJSuperNOVA;
#MUSIC:Fried Noodles (Getter Remix).ogg;
#BANNER:Fried Noodles (Getter Remix).png;
#BACKGROUND:Fried Noodles (Getter Remix)-bg.png;
#CDTITLE:;
#SAMPLESTART:55.286;
#SAMPLELENGTH:27.429;
#SELECTABLE:YES;
#OFFSET:-0.429;
#BPMS:0.000=140.000
,126.000=70.000
,126.500=140.000
,127.000=280.000
,128.000=140.000
,158.000=70.000
,158.500=280.000
,159.500=140.000
,190.000=280.000
,191.000=140.000
,191.500=70.000
,192.000=140.000
,223.000=280.000
,223.500=140.000
,223.750=70.000
,224.000=140.000
,254.000=280.000
,255.000=140.000
,255.500=70.000
,256.000=140.000
,287.000=70.000
,287.250=140.000
,287.500=280.000
,288.000=140.000
,318.000=70.000
;
#STOPS:;
#DISPLAYBPM:140.000;
#BGCHANGES:;
#FGCHANGES:;

//--------------- dance-single - DJSuperNOVA ----------------
#NOTES:
     dance-single:
     DJSuperNOVA:
     Beginner:
     3:
     0,0,0,0,0:
0000
0000
0000
0000
,
0000
0000
0000
0000
,
0000
0000
0000
0000
,
0000
0000
0000
0000
,
0001
0000
0000
0000
,
0100
0000
0000
0000
,
1000
0000
0000
0000
,
0000
0000
0000
0000
,
1000
0000
0000
0000
,
0010
0000
0000
0000
,
1000
0000
1000
0000
,
0000
0000
0001
0000
,
0000
0000
0001
0000
,
0000
0000
0001
0000
,
0002
0000
0000
0000
,
0003
0000
0000
0000
,
1000
0000
0000
0000
,
1000
0000
1000
0000
,
0100
0000
0000
0000
,
0100
0000
0100
0000
,
0010
0000
0000
0000
,
0010
0000
0010
0000
,
0001
0000
0000
0000
,
0001
0000
0001
0000
,
0100
0000
0000
0000
,
0001
0000
0001
0000
,
1000
0000
0000
0000
,
0010
0000
0010
0000
,
1000
0000
0000
0000
,
0100
0000
0100
0000
,
0010
0000
0010
0000
,
0010
0000
0010
0000
,
1001
0000
0000
0100
,
0000
0000
1000
0000
,
1000
0000
0000
0100
,
0000
0000
0001
0000
,
0001
0000
0000
0010
,
0000
0000
1000
0000
,
1000
0000
0000
0100
,
0000
0000
0001
0000
,
0001
0000
0000
0001
,
0000
0000
0100
0000
,
0100
0000
0000
0010
,
0000
0000
1000
0000
,
1000
0000
0000
0001
,
0000
0000
0100
0000
,
0100
0000
0000
0010
,
0000
0000
1001
0000
,
1000
0000
0000
0001
,
0000
0000
0100
0000
,
0010
0000
0000
0010
,
0000
0000
0000
0000
,
0010
0000
0000
1000
,
0000
0000
0001
0000
,
0001
0000
0000
1000
,
0000
0000
0001
0000
,
1000
0000
0000
0100
,
0000
0000
0010
0000
,
0010
0000
0000
0100
,
0000
0000
0100
0000
,
1000
0000
0000
0001
,
0000
0000
0001
0000
,
0001
0000
0000
1000
,
0000
0000
1001
0000
,
0001
0000
0000
0001
,
0000
0000
0010
0000
,
0010
0000
0000
0100
,
0000
0000
1000
0000
,
1000
0000
0000
0001
,
0000
0000
1000
0000
,
1000
0000
0000
0010
,
0000
0000
0100
0000
,
0100
0000
0000
0010
,
0000
0000
1000
0000
,
1000
0000
0000
0001
,
0000
0000
0010
0000
,
0010
0000
0000
0001
,
0000
0000
0010
0000
,
0010
0000
0000
0100
,
0000
0000
2000
3000
;

//--------------- dance-single - DJSuperNOVA ----------------
#NOTES:
     dance-single:
     DJSuperNOVA:
     Easy:
     6:
     0,0,0,0,0:
0000
0000
0000
0000
,
0000
0000
0000
0000
,
0000
0000
0000
0000
,
0000
0000
0000
0000
,
1000
0000
0000
0000
0000
0000
0000
0100
,
0000
0000
0001
0010
,
0002
0000
0000
0000
,
0003
0000
0000
0000
,
1000
0000
0000
0100
0000
0010
0000
0001
,
0000
1000
0000
0000
0001
0000
0000
0000
,
0100
0000
0010
0100
,
0000
0000
0010
0100
,
0001
0000
1000
0001
,
1000
0000
1000
0010
,
0200
0000
0000
0000
,
0300
0000
0000
0001
,
0010
0000
0000
0000
0000
0100
0000
0010
,
0000
0001
0000
1000
0000
0100
0000
0000
,
2000
0000
0000
3010
,
0000
0020
0000
0000
0000
0000
0030
0000
,
0200
0000
0000
0301
,
0000
0001
0000
0000
0020
0000
0200
0000
,
0000
0000
0330
0000
,
0000
0000
0000
1000
,
0010
0000
0000
0100
0000
0001
0000
0010
,
0000
0100
0000
0000
1000
0000
0001
0000
,
0000
0000
1000
0001
,
0000
0000
0100
0010
,
0000
0000
0100
0010
,
0000
0000
1000
0001
,
1000
0100
0010
0001
,
1000
0100
0020
0030
,
0001
0001
1000
0000
,
0001
0100
0010
0100
,
0010
0010
0010
0000
,
1000
1000
0001
1000
,
0010
0100
0010
0000
,
0010
0100
0001
1000
,
0010
0100
0001
0000
,
0001
0000
1000
0000
1000
0002
0000
0000
,
1003
0100
1000
0000
,
1000
0100
1000
0100
,
0010
0001
0010
0000
,
0001
0010
0001
0100
,
0010
1000
0010
0000
,
0100
0001
0100
0010
,
1000
1000
0001
0000
,
0001
1000
1002
0000
,
0203
0000
0000
0000
0000
0310
0000
1000
,
0000
0010
0000
0100
0000
0002
0000
0000
,
0203
0000
0000
0320
,
0000
2030
0000
0000
0000
0000
3000
0000
,
0002
0000
0000
2003
,
0000
3002
0000
0000
0013
0000
0010
0000
,
0200
0000
0300
0200
,
0000
0310
1001
1001
,
0200
0000
0000
0301
0000
0010
0000
0001
,
0000
2000
0000
0000
3020
0000
0000
0000
,
0230
0000
0301
0200
,
0000
0300
0010
2000
,
0000
3000
0100
0020
,
0000
0000
0030
0000
0001
0000
1000
0020
,
0000
0030
0000
0200
0000
0300
0000
0002
,
0000
0003
1000
0000
1001
0000
0000
0000
,
0002
0000
0000
0000
0003
0000
0001
0100
,
0000
0010
0000
1000
0000
0001
0000
0000
,
2000
0000
0000
0000
0000
0000
3100
0010
,
0000
0002
0000
0000
0000
0000
0003
0000
,
0200
0000
0000
0000
0000
0000
0310
1000
,
0000
0001
0000
0000
1000
0000
0001
0000
,
0100
0000
0000
0000
0000
0010
0100
0000
,
0000
0010
0110
0100
,
0001
0000
0000
0100
0000
0010
0000
1000
,
0000
0001
0000
0000
0010
0000
0020
0000
,
0000
0030
0100
0200
,
0000
0300
0001
0002
,
0000
0003
1000
2000
,
0000
3000
0010
0100
,
0110
0000
1000
0000
,
0001
1000
2002
3003
;

//--------------- dance-single - DJSuperNOVA ----------------
#NOTES:
     dance-single:
     DJSuperNOVA:
     Medium:
     12:
     0,0,0,0,0:
0000
0000
0000
0000
,
0000
0000
0000
0000
,
0000
0000
0000
0000
,
0000
0000
0000
0000
,
1000
0000
0000
0001
0000
0000
0010
0100
,
0000
0010
0000
0000
0001
1000
0020
0000
,
0200
0000
0000
0000
,
0330
0000
0000
0000
,
0001
1000
0000
0100
0000
0010
0000
0001
,
0000
0010
0000
0000
0100
1000
0000
0000
,
0001
0000
0000
1000
0000
0000
0100
0000
,
0000
0000
0000
0000
1000
0001
0100
0000
,
0001
0000
0000
0000
0001
1000
0100
0000
,
1000
0000
0000
0000
0010
0100
0020
0000
,
0200
0000
0000
0000
,
0330
0000
0000
0200
,
0301
0010
0100
1000
0001
0000
1000
0100
,
0010
0100
1000
0100
1000
0001
1000
0001
,
0100
0010
1000
0001
0100
0000
0100
0001
,
0010
0100
1000
0100
1000
0100
0010
0001
,
0100
0010
0001
0010
1000
0000
1000
0010
,
0100
0001
0010
0001
0100
0010
0100
0010
,
1000
0100
0010
0001
1000
0000
1000
0001
,
1000
0010
0100
0001
0010
0100
0010
0001
,
1000
0100
1000
0100
1000
0000
0001
0100
,
0001
0100
0001
0010
0100
1000
0100
1000
,
0001
0010
0100
0010
0001
0000
1000
0010
,
0100
0010
1000
0010
1000
0010
0100
0001
,
0010
0100
1000
0100
1000
0000
0001
0100
,
0001
0100
0001
0010
0100
0010
0001
1000
,
0100
1000
0010
1000
0001
0100
0010
0100
,
0001
1000
0100
0010
0002
0103
0010
0100
,
0010
1000
0100
0010
0010
0000
0001
0100
,
0010
1000
1000
0000
0001
0100
1000
0100
,
0001
0010
0100
1000
1000
0000
0100
0010
,
0001
0010
0010
0001
0100
0001
1000
1000
,
0010
0100
0001
0100
0100
0000
0010
1000
,
0100
1000
0001
0000
1000
0001
0100
0001
,
0010
0100
0010
0001
0001
0000
1000
0100
,
1000
0010
0100
0001
1000
0020
0000
0030
,
0100
0001
0010
0001
0001
0000
1000
0100
,
1000
0010
0010
0000
0100
0001
0010
0100
,
1000
0001
1000
0100
0100
0000
1000
0010
,
0001
0010
1000
1000
0010
0100
0001
0100
,
0001
0010
0100
0010
0010
0000
0001
0100
,
0010
0001
0010
0010
1000
0010
0100
0001
,
0010
0100
1000
0100
0100
0000
1000
0010
,
0100
0001
0010
0100
0020
0000
0000
0000
,
0031
0000
1000
0000
1001
0001
0100
0020
,
0000
2030
0000
3001
0100
0001
0010
0100
,
1000
0100
1000
0010
1000
0001
0100
0001
,
0000
0001
0010
0100
0010
0001
1000
0000
,
1010
0010
1000
0010
0100
0000
0001
0010
,
1000
0010
0001
0100
0001
1000
0001
0100
,
0010
1000
0010
0100
0001
0000
0001
0010
,
0100
1000
0001
0100
0010
0010
0200
0000
,
0301
0010
1000
0010
0100
0010
0010
0001
,
0100
1000
0100
0010
1000
0001
1000
0000
,
0001
0100
0010
1000
0010
0001
0001
0010
,
1000
0100
1000
0010
0001
0010
1000
0000
,
1001
0001
1000
0100
0010
0000
0010
0001
,
0100
0001
0010
0100
1000
0010
0100
0001
,
1000
0100
1000
0001
0100
0000
0100
0010
,
1000
0100
0010
0001
2000
0000
0000
0000
,
3001
0000
0100
0000
0101
0001
0100
0020
,
0000
2030
0000
3200
0000
1300
0001
0000
,
1001
1000
0010
0000
0110
0000
0100
0001
,
1000
0000
1100
0000
0011
0010
0001
0100
,
0010
0000
1000
0000
1010
0010
0100
0000
,
0001
0000
1000
0001
1001
0000
1000
0100
,
0010
0100
0001
0100
0010
0010
0001
0000
,
1000
0000
0001
0100
1000
0000
0120
0000
,
0130
0001
1000
0100
0010
0010
0001
0100
,
0001
1000
0001
0010
0110
0000
0100
0010
,
0001
1000
0100
1000
0010
0100
0100
0001
,
0100
0001
1000
0010
1000
0000
1010
1000
,
0001
0010
0100
1000
0001
0001
1000
0100
,
0010
0100
1000
0000
0011
0000
0101
0000
,
0010
1000
0001
0100
0010
1000
1010
0000
,
0001
0100
0010
0000
0220
0000
0330
0000
;

//--------------- dance-single - DJSuperNOVA ----------------
#NOTES:
     dance-single:
     DJSuperNOVA:
     Hard:
     15:
     0,0,0,0,0:
0000
0000
0000
0000
,
0000
0000
0000
0000
,
0000
0000
0000
0000
,
0000
0000
0000
0000
,
1000
0000
0000
0010
0000
0000
0100
0001
,
0000
1000
0000
0000
1000
0001
0020
0000
,
0200
0000
0000
0000
,
0330
0000
0000
0000
,
0010
0001
0000
1000
0000
0001
0000
0010
,
0000
0100
0000
0000
1000
0001
1000
0000
,
0010
0000
0000
0000
0100
0010
0100
0000
,
0000
0000
0000
0000
0100
0010
0100
0000
,
0001
0000
0000
0000
0001
1000
0001
0000
,
1000
0000
0000
0000
1000
0100
0020
0000
,
0200
0000
0000
0000
,
0330
0000
0000
1000
,
0001
0010
0100
1000
0100
1000
0001
0010
,
0001
0100
0001
1000
0010
1000
0100
1000
,
0010
0100
0010
0001
0010
0000
0010
1000
,
0100
0010
0001
1000
0010
1000
0100
1000
,
0001
0100
0001
0010
0001
0000
0001
0100
,
1000
0100
0010
0100
1000
0001
0010
0100
,
1000
0100
0010
0001
1000
0000
1000
0001
,
0010
0001
1000
0100
0010
0001
0100
0010
,
0110
0100
0001
0010
1000
0000
0010
0001
,
1000
0010
0100
0001
0100
0010
0001
0010
,
0100
0010
1000
0100
0010
0000
0010
0001
,
0100
0010
1000
0001
0100
1000
0100
0001
,
1000
0010
1000
0100
1000
0001
0100
0001
,
0010
0001
0100
0001
1000
0010
1000
0100
,
1000
0001
1000
0001
1000
0001
1000
0001
1000
0100
1000
0100
0010
0001
0010
0001
,
0100
0000
0000
0000
0000
0000
0000
0000
0000
0000
0000
0000
0001
0000
0000
0000
0000
0000
0000
0000
0000
0000
0000
0000
1000
0000
0000
0000
0000
0000
0000
0000
0000
0000
0000
0000
0001
0000
0000
0000
0000
0000
0000
0000
0000
0000
0000
0000
0100
0000
0000
0000
0000
0000
0000
0000
0000
0000
0000
0000
0001
0000
0000
0000
0000
0000
0000
0000
0000
0000
0000
0000
0010
0000
0000
0000
0000
0000
0000
0000
0000
0000
0000
0000
0100
0000
0000
0000
0000
0000
0000
0000
0000
0000
0000
0000
2000
0000
0000
0000
0000
0000
0000
0000
0000
0000
0000
0000
0000
0000
0000
0000
0000
0000
0000
0000
0000
0000
0000
0000
3001
0000
0000
0000
0000
0000
0000
0000
0000
0000
0000
0000
0000
0000
0000
0000
0000
0000
0000
0000
0000
0000
0000
0000
2000
3000
0000
0000
0000
0000
0000
0000
0000
0000
0000
0000
0000
0000
0000
0000
0000
0000
0000
0000
0000
0000
0000
0000
0002
0003
0000
0000
0000
0000
0000
0000
0000
0000
0000
0000
0000
0000
0000
0000
0000
0000
0000
0000
0000
0000
0000
0000
,
2002
3003
0000
0000
0000
0000
0000
0000
0000
0000
0000
0000
0000
0000
0000
0000
0000
0000
0000
0000
0000
0000
0000
0000
0010
0000
0000
0000
0000
0000
0000
0000
0000
0000
0000
0000
0000
0000
0000
0000
0000
0000
0000
0000
0000
0000
0000
0000
0100
0000
0000
0000
0000
0000
0000
0000
0000
0000
0000
0000
0000
0000
0000
0000
0000
0000
0000
0000
0000
0000
0000
0000
1000
0000
0000
0000
0000
0000
0000
0000
0000
0000
0000
0000
0000
0000
0000
0000
0000
0000
0000
0000
0000
0000
0000
0000
1100
0000
0000
0000
0000
0000
0000
0000
0000
0000
0000
0000
0000
0000
0000
0000
0000
0000
0000
0000
0000
0000
0000
0000
0100
0000
0000
0000
0000
0000
0000
0000
0000
0000
0000
0000
0000
0000
0000
0000
0000
0000
0000
0000
0000
0000
0000
0000
0110
0000
0000
0000
0000
0000
0000
0000
0000
0000
0000
0000
0000
0000
0000
0000
0000
0000
0000
0000
0000
0000
0000
0000
0001
0000
0000
0000
0000
0000
0000
0000
0000
0000
0000
0000
0000
0000
0000
0000
0000
0000
0000
0000
0000
0000
0000
0000
,
1000
0000
0010
0000
0100
0000
0001
0000
0101
0000
0100
0000
0010
1000
0010
1000
,
0001
1000
0100
0010
0011
0001
1001
1000
,
0010
0100
0010
1000
0100
0001
0100
1000
,
0001
0100
1000
0100
0001
1000
1001
0001
,
0100
0000
0010
0000
1000
0000
1000
0000
1100
0000
0100
0000
0010
0001
0010
0001
,
1000
0001
1000
0100
0010
0100
1000
0001
,
0100
0010
0100
0001
1000
0020
0000
0000
,
0130
0001
1000
0010
1010
1000
1100
0010
,
0001
0000
0100
0000
0010
0000
1000
0000
0001
0000
1000
0000
0100
1000
0100
1000
,
0001
0100
0010
0100
0110
0010
1010
1000
,
0001
0100
1000
0100
1000
0100
0010
1000
,
1010
1000
0100
0010
0011
0010
0011
0001
,
1000
0000
0100
0000
0001
0000
0100
0000
1000
0000
0010
0000
0100
0001
0100
0001
,
1000
0100
0001
0100
1000
0001
0100
1000
,
0100
0010
0100
0001
2000
0000
0000
0000
,
3001
0000
1000
0000
1001
0100
0010
0020
,
0000
0000
0032
0000
0000
0000
1003
0000
0100
0000
1000
0000
0001
1000
0001
1000
,
0010
0100
0001
0100
1000
0100
0010
1000
,
0100
1000
0010
0100
0001
0010
1000
0010
,
0011
0001
1000
0010
0100
0001
0010
1000
,
0010
0000
0001
0000
1000
0000
0100
0000
0001
0000
0100
0000
1000
0100
1000
0100
,
1000
0010
0100
0001
0100
1000
0100
0010
,
1000
0100
0010
0001
1000
0000
2002
3003
,
1000
0001
0010
0001
1000
0010
0001
0010
,
1000
0000
0010
0000
1000
0000
0100
0000
0110
0000
0100
0000
0010
0001
0010
0001
,
1000
0010
0100
0010
1010
1000
0001
0100
,
1000
0100
0010
1000
0001
1000
0100
0010
,
0110
0010
0001
1000
0010
0010
0100
0001
,
1000
0000
0100
0000
1000
0000
0001
0000
0100
0000
0010
0000
1000
0010
1000
0010
,
0100
0001
0010
1000
0010
0001
0100
0010
,
1000
0010
0100
0001
0020
0000
0000
0030
,
0110
0000
0100
0000
0110
0010
0001
1000
,
0010
0000
1000
0000
0100
0000
1000
0000
1001
0000
0001
0000
0100
0010
0100
0010
,
1000
0001
0100
0010
1010
0010
0100
0001
,
0010
0100
1000
0000
0110
0010
0001
1000
,
1001
0000
0100
0000
0110
0010
1000
0001
,
1000
0000
0100
0000
0010
0000
0010
0000
0011
0000
0000
0000
0001
0010
0001
0010
,
0001
1000
0010
1000
1010
0010
0100
0000
,
0001
0000
0000
0000
1000
0000
0010
0000
0110
0000
0000
0000
2002
3003
0000
0000
,
1001
0000
0001
0010
0100
1000
0001
0000
1000
0000
0100
0000
0010
0000
0000
0001
,
1000
0100
0010
0001
1000
0000
0001
0000
0100
0000
0010
0000
1000
0010
1000
0010
,
0100
0000
0001
0000
1000
0000
0001
0000
1001
0000
1000
0000
0010
0000
0000
0010
,
0100
0001
0100
0010
1000
0000
0100
0000
0110
0000
0010
0000
0001
0000
0001
0000
,
1000
0000
0001
1000
0010
0100
0001
1000
0001
0000
1000
0000
0100
0000
0000
0100
,
1000
0001
0010
0100
1000
0000
0010
0000
0110
0000
0000
0000
0001
1000
0001
1000
,
0001
0100
0010
1000
1001
0001
1000
0100
,
0010
0001
1000
0010
0220
0000
0330
0000
;
