#TITLE:FANCY;
#SUBTITLE:;
#ARTIST:TWICE;
#TITLETRANSLIT:;
#SUBTITLETRANSLIT:;
#ARTISTTRANSLIT:;
#GENRE:;
#CREDIT:DJSuperNOVA;
#MUSIC:FANCY.ogg;
#BANNER:FANCY.png;
#BACKGROUND:FANCY-bg.png;
#CDTITLE:;
#SAMPLESTART:59.650;
#SAMPLELENGTH:29.091;
#SELECTABLE:YES;
#OFFSET:-0.105;
#BPMS:0.000=132.000;
#STOPS:;
#BGCHANGES:-0.105=FANCY.avi=1.000=0=0=0=StretchNoLoop====,
99999.000=-nosongbg-=1.000=0=0=0=StretchNoLoop====
;
#FGCHANGES:;

//--------------- dance-single - DJSuperNOVA ----------------
#NOTES:
     dance-single:
     DJSuperNOVA:
     Beginner:
     1:
     0,0,0,0,0:
0000
0000
0000
0000
,
0000
0000
0000
0000
,
0000
0000
0000
0000
,
0000
0000
0000
0000
,
0000
0000
0000
0000
,
1000
0000
0000
0000
,
1000
0000
0000
0000
,
0001
0000
0000
0000
,
0001
0000
0000
0000
,
0010
0000
0000
0000
,
0010
0000
0000
0000
,
0100
0000
0000
0000
,
0100
0000
0000
0000
,
0001
0000
0000
0000
,
0001
0000
0000
0000
,
1000
0000
0000
0000
,
1000
0000
0000
0000
,
0100
0000
0000
0000
,
0100
0000
0000
0000
,
0010
0000
0000
0000
,
0010
0000
0000
0000
,
0001
0000
0000
0000
,
1000
0000
0000
0000
,
0001
0000
0000
0000
,
1000
0000
0000
0000
,
1000
0000
0000
0000
,
0001
0000
0001
0000
,
0001
0000
0000
0000
,
1000
0000
1000
0000
,
1000
0000
0000
0000
,
1000
0000
1000
0000
,
0001
0000
0000
0000
,
1000
0000
1000
0000
,
1000
0000
0000
0000
,
0001
0000
0000
0000
,
0100
0000
0000
0000
,
0100
0000
0000
0000
,
0010
0000
0000
0000
,
0010
0000
0000
0000
,
1000
0000
0000
0000
,
1000
0000
0000
0000
,
1001
0000
0000
0000
,
1000
0000
0000
0000
,
0001
0000
0001
0000
,
1000
0000
1000
0000
,
0001
0000
0000
0000
,
1000
0000
0000
0000
,
1000
0000
1000
0000
,
0001
0000
0000
0000
,
1000
0000
0000
0000
,
0001
0000
0000
0000
,
0100
0000
0000
0000
,
0001
0000
0000
0000
,
1000
0000
0000
0000
,
0100
0000
0000
0000
,
1000
0000
0000
0000
,
0001
0000
0020
0000
,
0000
0000
0030
0000
,
0001
0000
0000
0000
,
0001
0000
0000
0000
,
1000
0000
0000
0000
,
1000
0000
0000
0000
,
0010
0000
0000
0000
,
0010
0000
0000
0000
,
0100
0000
0000
0000
,
0100
0000
0000
0000
,
1001
0000
0000
0000
,
1000
0000
0000
0000
,
0001
0000
0001
0000
,
1000
0000
1000
0000
,
0001
0000
0000
0000
,
1000
0000
0000
0000
,
1000
0000
1000
0000
,
0001
0000
0000
0000
,
1000
0000
0000
0000
,
0001
0000
0000
0000
,
0100
0000
0000
0000
,
0100
0000
0000
0000
;

//--------------- dance-single - DJSuperNOVA ----------------
#NOTES:
     dance-single:
     DJSuperNOVA:
     Easy:
     3:
     0,0,0,0,0:
0000
0000
0000
0000
,
0000
0000
0000
0000
,
0000
0000
0000
0000
,
0001
0000
0000
0000
,
1000
0000
0000
0000
,
0001
0000
0001
0000
,
1000
0000
1000
0000
,
0100
0000
0010
0000
,
2002
0000
3003
0000
,
1000
0000
1000
0000
,
0001
0000
0001
0000
,
1000
0000
0100
0000
,
0001
0000
0100
0000
,
1000
0000
1000
0000
,
0001
0000
0001
0001
,
0001
0000
0000
1000
,
1000
1000
1000
0000
,
0001
0000
0100
0000
,
1000
0000
1000
0000
,
0100
0000
0001
0000
,
0010
0000
0010
0000
,
1000
0000
0010
0000
,
0001
0000
0010
0010
,
0010
0000
0000
1000
,
0001
0001
1000
1000
,
0001
0000
0100
0000
,
1000
0000
0100
0000
,
0001
0000
0001
0000
,
1000
0000
1000
0000
,
0001
0000
0100
0000
,
1000
0000
0100
0000
,
0001
0000
0001
0000
,
1000
0001
1001
0000
,
1000
0100
1000
0000
,
0001
0100
0001
0000
,
0010
0000
0100
0000
,
0010
0100
0110
0000
,
1000
0010
1000
0000
,
0001
0010
0001
0000
,
1000
0000
0001
0000
,
1000
0001
1000
0001
,
1001
0000
0000
0000
,
0110
0000
0000
0000
,
1000
1000
1000
1000
,
0001
0001
0001
0001
,
1001
0000
0000
0000
,
0110
0000
0000
0000
,
0010
0010
0100
0100
,
0010
0000
0000
0001
,
1000
0000
0100
0000
,
2000
0000
3000
0000
,
0001
0000
0010
0000
,
0001
0000
0001
0000
,
0100
0000
0010
0000
,
0002
0000
0003
0000
,
1000
0000
0100
0000
,
0010
0000
0010
0020
,
0000
0000
0030
0000
,
0001
0100
0001
0000
,
1000
0100
1000
0000
,
0100
0000
0010
0000
,
0100
0010
0110
0000
,
0001
0010
0001
0000
,
1000
0010
1000
0000
,
0001
0000
1000
0000
,
0001
1000
0001
1000
,
1001
0000
0000
0000
,
0110
0000
0000
0000
,
1000
1000
0001
0001
,
1000
0001
1000
0001
,
1001
0000
0000
0000
,
0110
0000
0000
0000
,
0010
0010
0100
0100
,
0010
0000
0000
0110
;

//--------------- dance-single - DJSuperNOVA ----------------
#NOTES:
     dance-single:
     DJSuperNOVA:
     Medium:
     7:
     0,0,0,0,0:
0000
0000
0000
0000
,
0000
0000
0000
0000
,
0000
0000
0000
0000
,
1000
0000
0000
0000
,
0001
0000
0100
0000
,
1000
1000
1000
0000
,
0001
0001
0001
0000
,
1000
0100
0010
0001
,
0010
0010
0010
1001
,
1000
0000
0000
1000
0000
0000
0000
0000
0001
0000
0000
0001
0000
0000
0000
0000
,
0010
0000
0000
0010
0000
0000
0000
0000
0100
0000
0000
0000
0110
0000
0000
0000
,
0010
0000
0000
0010
0000
0000
0000
0000
0001
0000
0000
0001
0000
0000
0000
0000
,
1000
0000
0000
1000
0000
0000
0000
0000
0001
0000
0000
0000
0100
0000
0000
0000
,
1000
0000
0000
1000
0000
0000
0000
0000
0001
0000
0000
0001
0000
0000
0000
0000
,
1000
0100
0010
0110
,
0010
0000
0000
0001
,
1001
1000
1001
0000
,
1000
0100
0001
0001
,
0100
1000
1000
0000
,
0001
0010
1000
1000
,
0100
0001
1000
0000
,
0001
0010
1000
0010
,
0001
0100
1000
0100
,
0001
0000
0000
0001
0000
0000
0000
0000
1000
0000
0000
0000
1001
0000
0000
0000
,
1000
0000
0000
1000
0000
0000
0001
0000
0000
0000
0001
0000
0000
0000
0000
0000
,
0001
1000
0001
0000
0000
0000
0000
0000
,
1000
1000
0001
0001
,
1000
0100
1000
0000
0000
0000
0100
0000
,
0001
0001
1000
0001
,
0100
0010
0100
0000
0010
0000
0010
0000
,
1000
1000
0001
0001
,
1000
0000
0000
0001
0000
0000
1000
0000
0000
0001
0000
0000
1000
0000
0000
0100
,
0000
0010
0001
0000
1001
0000
0000
0000
,
0001
0100
1000
1000
,
0001
1000
0100
0010
,
0110
0001
0110
1000
,
0110
0100
1001
0000
,
1000
0100
0001
0001
,
0100
0010
1000
0100
,
0010
1001
0100
1001
,
0011
1100
0011
1100
,
2002
3003
0000
0001
,
1000
1000
0001
0001
,
0100
0100
0100
0000
0010
0010
0010
0000
,
1000
0001
0100
1001
,
0220
0330
0000
0100
,
0001
0100
1000
1000
,
0001
0001
0001
0000
1000
1000
1000
0000
,
2002
0000
0000
3003
,
1000
0000
0000
0100
0000
0000
0010
0000
,
0002
0003
0000
0000
,
0001
0000
0000
0100
0000
0000
0010
0000
,
1000
1000
0100
0010
,
0001
0000
0000
0100
0000
0000
0010
0000
,
2000
3000
0000
1000
,
0100
0010
0001
0100
,
0010
1000
1001
0220
,
0000
0000
0330
0100
,
1001
0100
1000
1000
,
0001
1000
0100
0010
,
0110
0001
0110
1000
,
0110
0010
1001
0000
,
1000
0100
0001
0001
,
0100
0010
1000
0100
,
0010
1001
0100
1001
,
0101
1010
0101
0110
,
2002
3003
0000
0001
,
1000
1000
0001
0001
,
0100
0001
0100
0000
0010
1000
0010
0000
,
1000
0001
0100
1001
,
0220
0330
0000
0100
,
0001
0100
1000
1000
,
0001
0100
0001
0000
1000
0100
1000
0000
,
2002
0000
0000
3003
,
1000
0000
0000
0000
0000
0000
0000
0001
,
0000
0001
0000
0000
0010
0000
0100
0000
,
0100
0000
0000
0000
0000
0000
0000
0010
,
0000
0010
0000
0000
0000
0000
0000
0000
;

//--------------- dance-single - DJSuperNOVA ----------------
#NOTES:
     dance-single:
     DJSuperNOVA:
     Hard:
     10:
     0,0,0,0,0:
0000
0000
0000
0000
,
0000
0000
0000
0000
,
0000
0000
0000
0000
,
1000
0000
0000
0000
,
0001
0000
1000
0000
,
0001
0001
1000
1000
,
0001
0100
1000
0100
,
0001
0001
1000
1000
,
0001
0100
1000
1001
,
1000
0000
0000
1000
0000
0000
0100
0000
0010
0000
0000
0010
0000
0000
0001
0000
,
0100
0000
0000
0100
0000
0000
0001
0000
1000
0000
0000
0000
0000
0000
0000
0000
,
0001
0000
0000
0001
0000
0000
1000
0000
0010
0000
0000
0010
0000
0000
1000
0000
,
0100
0000
0000
0100
0000
0000
0010
0000
0001
0000
0000
0000
0000
0000
0000
0000
,
1000
0000
0000
0001
0000
0000
0100
0000
0001
0000
0000
1000
0000
0000
0100
0000
,
1000
0000
0001
1000
0000
1000
0100
0000
,
0110
0000
0000
0010
0000
0001
0100
0000
,
0110
1001
0110
1001
,
1000
0000
0100
0000
0001
1000
0001
0000
,
0010
0000
0100
0000
1000
0100
1000
0000
,
0001
0000
0010
0000
1000
0100
0010
0000
,
1000
0000
0100
0000
0001
1000
0001
0000
,
1000
0000
0010
0000
0100
0010
0100
0000
,
0100
0000
0001
0000
1000
0100
1000
0000
,
0100
0000
0000
0100
0000
0000
0000
0000
0010
0000
0100
0000
0010
0000
0100
0000
,
0001
0000
0000
0001
0000
0000
1000
0000
0000
0000
0001
0000
1001
0000
0000
0000
,
0001
0100
0001
0000
1000
0000
1000
0000
,
0010
0100
0010
0100
1000
0010
1000
0000
,
0001
1000
0001
0000
1000
0000
1000
0000
,
0001
1000
0001
1000
0010
0100
0010
0000
,
1000
0100
1000
0000
0001
0000
0001
0000
,
1000
0100
1000
0100
0010
0001
0100
0000
,
0010
0000
0000
0001
0000
0000
0100
0000
0000
1000
0000
0000
0010
0000
0000
0001
,
0000
1000
0001
1000
0001
0000
1001
0000
,
0110
0000
1001
0000
1000
0100
1000
0000
,
0001
0000
0100
0000
0001
0100
0001
0100
,
0010
1100
1010
0101
,
1001
0000
0110
0000
1000
0001
0000
0000
,
0011
0000
1100
0000
0010
0100
0001
0000
,
0100
0000
0001
0000
1000
0010
0100
0010
,
1000
0110
0101
1001
,
1100
0011
1001
0110
,
2002
3003
1000
0100
,
0001
0100
1000
0100
,
0001
0010
0001
1000
0001
1000
0100
0010
,
0000
0010
0000
0010
0000
1000
0001
0000
,
0220
0330
0001
0100
,
1000
0100
0001
0100
,
1000
0010
1000
0001
1000
0100
0010
0100
,
0000
0000
0000
1000
0000
0001
0000
0000
0000
1001
0000
0000
,
1000
0100
1000
0100
,
0001
0100
0001
0100
,
1000
0010
1000
0010
,
1000
0100
0010
0001
,
1000
1000
1000
1000
,
0001
0001
0001
0001
,
1000
0100
0010
0001
,
0100
0010
1010
0202
,
0000
0000
0303
0001
,
1001
0000
0110
0000
1000
0100
1000
0000
,
0001
0000
0100
0000
0001
0100
0001
1000
,
0001
1100
1010
0101
,
1000
0100
0001
0000
1000
0001
0000
0000
,
0011
0000
1100
0000
0001
0100
0001
0000
,
0100
0000
0001
0000
1000
0010
0100
0010
,
1000
0110
0101
1001
,
0001
0100
1000
0000
0101
0000
1100
0000
,
2002
3003
1000
0100
,
0001
0100
1000
0100
,
0001
0010
0001
1000
0001
1000
0100
0010
,
0000
0001
0000
1000
0000
0001
1000
0000
,
0220
0330
0001
0100
,
1000
0100
0001
0100
,
1000
0010
1000
0001
1000
0100
0010
0001
,
0000
0000
0000
0001
0000
1000
0000
0000
0000
1001
0000
0000
,
1000
0001
0000
0001
0000
0000
0000
0001
,
0000
1000
0001
1000
,
1000
0000
0000
1000
0000
0000
0000
0001
,
0000
0001
0000
0000
0000
0000
0000
0000
;
