#TITLE:End Time;
#SUBTITLE:;
#ARTIST:Cres.;
#TITLETRANSLIT:;
#SUBTITLETRANSLIT:;
#ARTISTTRANSLIT:;
#GENRE:ReQuiEm tRanCe;
#CREDIT:DJSuperNOVA;
#MUSIC:End Time.ogg;
#BANNER:End Time.png;
#BACKGROUND:End Time-bg.png;
#CDTITLE:;
#SAMPLESTART:76.667;
#SAMPLELENGTH:21.333;
#SELECTABLE:YES;
#OFFSET:0.666;
#BPMS:0.000=180.000
,372.000=160.000
,374.000=150.000
,376.000=170.000
,378.000=160.000
,379.500=145.000
,380.000=140.000
,383.750=120.000
;
#STOPS:;
#BGCHANGES:;
#FGCHANGES:;

//--------------- dance-single - DJSuperNOVA ----------------
#NOTES:
     dance-single:
     DJSuperNOVA:
     Beginner:
     5:
     0,0,0,0,0:
0000
0000
0000
0000
,
0000
0000
0000
0000
,
0000
0000
0000
0000
,
0000
0000
0000
0000
,
0000
0000
0000
0000
,
0000
0000
0000
0000
,
0000
0000
0000
0000
,
0000
0000
0000
0000
,
0000
0000
0000
0000
,
0000
0000
0000
0000
,
0001
0000
0000
0000
,
0100
0000
0000
0000
,
1000
0000
0000
0000
,
0100
0000
0000
0000
,
0001
0000
0000
0000
,
1000
0000
0000
0000
,
0001
0000
0000
0000
,
0010
0000
0000
0000
,
0001
0000
0001
0000
,
1000
0000
1000
0000
,
0100
0000
0100
0000
,
1000
0000
1000
0000
,
0001
0000
0001
0000
,
0010
0000
0010
0000
,
0100
0000
0100
0000
,
0100
0100
0100
0100
,
1000
0000
0000
0000
,
1000
0000
0000
0000
,
0001
0000
0000
0000
,
0001
0000
0000
0000
,
0100
0000
0000
0000
,
0010
0000
0000
0000
,
1000
0000
0000
0000
,
0000
0000
0000
0000
,
1000
0000
0000
0000
,
0010
0000
0000
0000
,
0100
0000
0000
0000
,
0100
0000
0000
0000
,
0001
0000
0000
0000
,
0001
0000
0000
0000
,
1000
0000
0000
0000
,
0000
0000
0000
0000
,
1000
0000
0000
0000
,
0100
0000
0000
0000
,
0010
0000
0000
0000
,
0010
0000
0000
0000
,
0001
0000
0000
0000
,
0100
0000
0000
0000
,
0010
0000
0000
0000
,
0010
0000
0000
0000
,
1000
0000
1000
0000
,
0001
0000
0001
0000
,
0100
0000
0100
0000
,
0010
0000
0010
0000
,
1000
0000
0100
0000
,
0010
0000
0001
0000
,
0100
0000
0010
0000
,
1000
0000
0001
0000
,
2001
0000
0000
3000
,
0002
0000
0000
0003
,
0200
0000
0000
0300
,
0020
0000
0000
0030
,
2000
0000
0000
3000
,
0200
0000
0000
0300
,
0020
0000
0000
0030
,
0002
0000
0000
0003
,
2000
0000
0000
3000
,
0002
0000
0000
0003
,
0200
0000
0000
0300
,
0020
0000
0000
0030
,
1000
0000
1000
0000
,
0001
0000
0001
0000
,
1000
1000
0001
0001
,
1000
0001
2002
3003
,
0100
0000
0100
0000
,
0010
0000
0010
0000
,
1000
0000
0001
0000
,
0100
0000
0001
0000
,
1000
0000
1000
0000
,
0010
0000
0010
0000
,
0100
0000
0001
0000
,
1000
0000
0100
0000
,
0010
0000
0000
0000
,
0010
0000
0000
0000
,
0001
0000
0000
0000
,
0001
0000
0000
0000
,
1000
0000
1000
0000
,
0001
0000
0001
0000
,
0100
0000
0100
0000
,
0100
0100
0100
0100
,
0010
0000
0000
0000
,
1000
0000
0000
0000
,
0001
0000
0000
0000
,
1000
0000
0000
0000
,
0100
0000
0000
0000
,
0010
0000
0001
0000
,
2000
0000
0000
0000
,
3000
0000
0000
0000
;

//--------------- dance-single - DJSuperNOVA ----------------
#NOTES:
     dance-single:
     DJSuperNOVA:
     Easy:
     7:
     0,0,0,0,0:
0000
0000
0000
0000
,
0000
0000
0000
0000
,
0000
0000
0000
0000
,
0000
0000
0000
0000
,
0000
0000
0000
0000
,
0000
0000
0000
0000
,
0000
0000
0000
0000
,
0000
0000
0000
0000
,
0000
0000
0000
0000
,
0000
0000
0000
0000
,
1000
0001
0010
0100
,
0000
0010
0100
1000
,
0000
0010
0100
0001
,
0000
1000
0010
0100
,
0000
0001
1000
0100
,
0000
0010
0001
0100
,
0000
0010
1000
0100
,
0000
0010
0001
1001
,
1000
0010
0100
0100
,
0001
0010
0100
0100
,
1000
0001
0100
0100
,
0001
1000
0100
0100
,
0010
0001
0100
0100
,
0010
1000
0100
0100
,
0001
1000
0001
1000
,
0010
0100
0010
0100
,
0110
0000
0000
1000
,
0100
0000
0000
0100
,
1000
0000
0000
0001
,
0100
0000
0010
0000
,
1000
0000
0000
0000
,
0100
0000
0010
0000
,
0001
0000
0000
0000
,
0000
0000
0000
0000
,
0100
0000
0010
0000
,
1000
0000
0100
0000
,
0001
0000
0000
0000
,
0010
0000
0100
0000
,
1000
0000
0000
0001
,
1000
0000
0010
0000
,
0100
0000
0000
0000
,
0000
0000
0001
0100
,
0010
0000
0000
0010
0000
0000
0010
0000
,
1000
0000
0000
1000
0000
0000
0001
0000
,
0100
0000
0000
0100
0000
0000
0010
0000
,
1000
0000
1000
0001
,
0100
0000
0000
0100
0000
0000
0100
0000
,
0001
0000
0000
0001
0000
0000
0010
0000
,
0100
0000
0100
1000
,
0001
0000
0001
1000
,
0010
0000
0010
0000
,
1000
0000
1000
0000
,
0001
0001
0010
0010
,
0100
0100
0010
1000
,
0100
0000
0000
0100
0000
0000
1000
0000
,
0001
0000
0000
0001
0100
0000
0100
0000
,
0010
0000
0010
0010
,
1000
0000
1000
1000
,
0100
0010
0001
1000
,
0100
0010
0001
1000
,
0010
0100
0001
0001
,
0100
0010
1000
1000
,
0010
0100
0001
0001
,
0100
0010
1000
0001
,
0001
0010
0100
1000
,
0001
0100
0010
1000
,
1000
0100
0010
0001
,
1000
0100
1000
0010
,
0100
0100
0001
0001
,
0010
0100
1000
1000
,
0100
1000
0100
1100
,
0010
0001
0010
0011
,
0001
0100
0010
1000
,
0001
1000
1001
1001
,
0001
0100
0010
0010
,
1000
0100
0010
0010
,
0001
0100
0001
1000
,
0100
0010
0001
0100
,
1000
1000
0001
0001
,
0100
0010
1000
0100
,
0001
0100
1000
0100
,
0010
0001
0100
0110
,
0000
0010
0010
0010
,
0000
1000
1000
1000
,
0000
0001
0001
0001
,
0000
1000
1000
1000
,
0000
0100
0100
0100
,
0000
0010
0010
0010
,
0001
1000
0001
1000
,
0010
0010
0010
0010
,
0110
0000
0000
0100
,
0001
0000
0010
0000
,
0100
0000
0000
0100
,
1000
0000
0100
0000
,
1000
0000
0000
0000
,
0001
0000
0100
0000
,
0002
0000
0000
0000
,
0003
0000
0000
0000
;

//--------------- dance-single - DJSuperNOVA ----------------
#NOTES:
     dance-single:
     DJSuperNOVA:
     Medium:
     13:
     0,0,0,0,0:
0000
0000
0000
0000
,
0000
0000
0000
0000
,
0000
0000
0000
0000
,
0000
0000
0000
0000
,
0000
0000
0000
0000
,
0000
0000
0000
0000
,
0000
0000
0000
0000
,
0000
0000
0000
0000
,
0000
0000
0000
0020
,
0000
0000
0000
0000
,
0031
1000
0010
0100
0001
1000
0100
1000
,
0000
1000
0001
0010
0100
1000
0001
0100
,
0000
0100
0010
1000
0001
0010
0100
1000
,
0000
1000
0010
0100
0001
1000
0001
0100
,
0000
0100
0001
0010
0100
1000
0100
1000
,
0000
1000
0001
0100
0010
1000
0010
0100
,
0000
0100
0001
0010
0001
1000
0010
0100
,
0000
0100
0001
0010
0100
0010
0001
1000
,
0000
1000
0010
0100
0001
1000
0100
0010
,
0100
0010
0001
0100
0010
1000
0001
1000
,
0100
1000
0010
0100
0001
1000
0100
1000
,
0010
0100
0001
0010
0100
1000
0100
1000
,
0010
0100
0001
1000
0100
1000
0010
0100
,
0001
0010
0001
1000
0001
0010
0100
1000
,
0001
1000
0001
1000
0001
1000
0001
1000
,
0010
0100
0010
0100
0010
0100
0010
0100
,
0010
0000
0000
0000
0000
0000
0100
0010
,
1000
0000
0000
0000
0000
0000
0100
1000
,
0001
0000
0000
0000
0000
0000
0100
0001
,
1000
0000
0100
0000
,
1000
0000
0000
0000
,
0100
0000
0010
0000
,
0001
0000
0000
0000
,
1000
0000
0000
0000
,
0001
0000
0010
0000
,
0100
0000
1000
0000
,
0010
0000
0000
0000
,
0100
0000
0001
0000
,
1000
0000
0000
0000
0000
0000
0100
1000
,
0001
0000
0100
0000
,
0001
0000
0000
0000
,
1000
0000
0000
0000
0100
0010
0001
1000
,
0010
0000
0000
0010
0000
0000
0100
0010
,
1000
0000
0000
1000
0000
0000
0001
0100
,
0001
0000
0000
0001
0000
0001
1000
0100
,
0010
0000
0000
0010
0000
0000
0010
0000
0001
0000
0010
0000
0001
0000
0000
0000
,
0100
0000
0000
0100
0000
0000
0001
0100
,
0010
0000
0000
0010
0000
0000
0010
0100
,
0001
0000
0000
0001
0000
0000
1000
0000
0001
0000
0000
0000
1000
0000
0100
0000
,
1000
0000
0000
0100
0000
0000
1000
0000
0100
0000
0010
0000
0100
0000
1000
0000
,
0001
0000
0000
0001
0000
0000
1000
0100
,
1000
0000
0000
1000
0100
0010
0001
0100
,
0010
1000
0001
0100
0001
0100
0010
1000
,
0001
0000
0000
1000
0000
0000
0001
0000
1000
0000
0100
0000
0010
0000
0001
0000
,
1000
0000
0000
1000
0100
0000
0010
0001
,
1000
0000
0000
1000
0010
0100
0001
0000
,
1000
0000
0000
0001
0000
0000
0100
0000
0001
0000
1000
0000
0001
0000
0100
0000
,
0010
0000
0000
1000
0000
0000
0010
0000
0100
0000
0010
0000
0100
0000
0000
0000
,
0001
0100
0010
1000
0001
0100
0010
1000
,
0001
1000
0100
0010
0001
1000
0100
0010
,
0001
1000
0100
1000
0010
0100
0001
1000
,
0001
0100
0010
0100
0001
0010
0100
1000
,
0001
1000
0100
0010
0001
0010
0001
0100
,
0010
1000
0100
0010
0001
0100
0010
1000
,
0010
0100
0010
0100
0001
0010
0001
0010
,
0001
1000
0100
0010
0001
0100
0010
1000
,
0100
1000
0100
0010
0001
1000
0001
0010
,
0001
0100
0010
1000
0010
0100
0001
1000
,
0100
1000
0100
0010
0001
0010
0001
0100
,
0010
1000
0100
1000
0010
0100
0001
1000
,
0100
1000
0100
1000
0100
0010
0001
0100
,
0001
0100
0001
0100
0010
1000
0100
1000
,
0001
1000
0001
1000
0001
1000
0001
1000
,
0010
0100
0010
0100
0010
0100
0010
0100
,
0001
0100
0010
1000
0100
0001
0100
1000
,
0010
0100
0001
0100
1000
0100
0001
0010
,
0100
1000
0100
1000
0010
0001
0010
1000
,
0100
0010
0001
0100
0001
0010
0100
1000
,
0010
1000
0100
1000
0010
0100
0001
0100
,
1000
0100
0001
0010
0100
0010
0001
1000
,
0100
1000
0010
0100
0010
1000
0100
0010
,
0001
0100
1000
0100
0001
1000
0100
0010
,
0000
0100
0010
0001
0100
0010
1000
0100
,
0000
0100
0010
0100
1000
0001
0100
0001
,
0000
0001
0010
0001
1000
0100
1000
0001
,
0000
0001
0010
0100
1000
0100
1000
0001
,
0000
0001
0010
0001
1000
0100
0010
0100
,
0000
0100
0010
0100
1000
0001
0100
0010
,
1000
0100
0001
0100
1000
0010
0001
0010
,
1000
0100
0001
0100
1000
0010
0001
0010
,
1000
0000
0000
0001
,
0001
0010
0100
1000
,
0001
0000
0000
0001
,
0001
0000
0000
0100
0000
0000
0010
0000
1000
0000
0000
0000
0010
0000
0000
0000
,
0100
0000
0000
0000
,
0100
0000
0001
0000
,
2000
0000
0000
0000
,
3000
0000
0000
0000
;

//--------------- dance-single - DJSuperNOVA ----------------
#NOTES:
     dance-single:
     DJSuperNOVA:
     Hard:
     18:
     0,0,0,0,0:
0000
0000
0000
0000
,
1000
0000
0000
0010
,
0010
0100
0001
1000
,
0001
0000
0000
0010
,
0010
0100
1000
0001
,
0100
0000
0000
0000
,
0001
0000
0000
0000
,
1000
0000
0000
0000
,
0000
0000
0000
0020
,
0000
0000
0000
0000
,
0130
0001
0010
0100
1000
0010
0100
0001
,
0000
1000
0010
0100
0001
0010
0100
1000
,
0000
0001
0010
0001
0100
0010
1000
0100
,
0000
1000
0010
0100
0001
0010
0100
1000
,
0000
0100
0010
0001
1000
0100
1000
0001
,
0000
0100
0010
1000
0001
0010
0100
0010
,
0000
0100
0010
0001
1000
0010
0100
0001
,
0000
0001
0010
0100
1000
0010
0100
0001
,
1000
0100
0010
0100
1000
0100
0010
0001
0010
0100
0010
0001
0100
0010
1000
0100
,
1000
0001
0100
0010
1000
0001
0010
0100
1000
0100
0010
0100
0010
0001
1000
0100
,
1000
0010
0100
0001
0010
0100
1000
0010
0100
0001
0010
0001
1000
0100
0010
0001
,
1000
0100
1000
0010
0100
0001
0010
0001
1000
0100
0010
0001
0010
0100
1000
0001
,
0100
0010
0100
0010
1000
0001
1000
0001
0010
0001
0010
0001
1000
0100
1000
0100
,
1000
0010
1000
0010
0100
0001
0100
0001
0100
0010
0100
0010
1000
0010
1000
0010
,
1000
0100
1000
0001
1000
0100
1000
0001
1000
0100
1000
0010
1000
0100
1000
0010
,
0100
0001
0010
0100
1000
0010
0100
0001
0010
0100
1000
0010
0100
0001
0010
0100
,
1000
0000
0000
0000
0000
0000
0100
1000
,
0001
0000
0000
0000
0000
0000
0100
0001
,
1000
0000
0000
0000
0000
0000
0001
1000
,
0010
0000
0100
0000
,
0001
0000
0000
0000
,
1000
0000
0010
0000
,
0100
0000
0000
0000
,
0001
0000
0000
0000
,
1000
0000
0010
0000
,
0100
0000
0001
0000
,
1000
0000
0000
0000
,
0100
0000
1000
0000
,
0001
0000
0000
0000
0000
0000
1000
0100
,
0010
0000
0100
0000
,
1000
0000
0000
0000
,
0010
0000
0000
0000
0000
0000
0000
0000
1000
0100
0010
0001
1000
0100
0010
0001
,
0010
0000
0001
0010
0000
0000
0001
0000
0010
0001
0000
0000
1000
0000
0010
0000
,
0100
0000
0010
1000
0000
0000
0010
0000
1000
0010
0000
0000
0100
0000
0001
0000
,
1000
0000
0001
1000
0000
0000
0001
0000
1000
0001
1000
0000
0100
0000
0010
0000
,
0001
0000
0010
0001
0000
0100
0001
0000
1000
0001
1000
0000
0100
0000
0000
0000
,
1000
0000
0100
1000
0000
0000
0100
0000
1000
0100
0000
0000
0010
0000
0001
0000
,
0010
0000
0001
0010
0000
0000
0001
0000
1000
0001
0000
0000
0010
0000
0001
0000
,
1000
0000
0001
1000
0000
0010
1000
0000
0010
1000
0000
0010
1000
0010
0100
0000
,
0001
0000
0100
0001
0000
0100
0001
1000
0100
0000
1000
0000
0001
0000
1000
0000
,
0100
0000
0010
0001
0000
0000
0100
0000
0010
1000
0000
0000
0001
0000
0100
0000
,
0001
0000
1000
0100
0000
0000
0010
0000
0001
1000
0001
0000
0010
0000
0100
0000
,
1000
0000
0010
1000
0010
0000
0100
0001
0100
0001
0000
1000
0001
1000
0100
0000
,
1000
0000
0100
1000
0100
0000
0010
0000
0001
0010
0001
0000
1000
0000
0100
0000
,
0010
0000
0001
1000
0000
0000
0100
0000
1000
0001
0000
0000
0100
0000
0010
0000
,
1000
0000
0001
0100
0000
0000
0001
0000
1000
0100
1000
0000
0001
0100
0001
0000
,
1000
0000
0010
1000
0000
0010
1000
0000
0001
0100
0001
0000
1000
0100
1000
0000
,
0010
0000
1000
0010
0000
1000
0010
0000
2000
0000
0000
0000
3000
0000
0000
0000
,
1000
0100
0010
0001
1000
0010
0100
0001
1000
0100
0010
0001
1000
0010
0100
0001
,
0010
0001
0100
0010
1000
0001
0010
0100
1000
0001
0100
0010
1000
0001
0010
0100
,
1000
0100
0010
0100
0010
0001
1000
0100
0010
0100
0010
0001
0010
0100
1000
0001
,
1000
0010
1000
0010
0100
0001
0100
0001
0010
0001
0010
0001
1000
0100
1000
0100
,
1000
0100
0010
0001
0100
0010
1000
0100
0010
0001
0100
0010
1000
0100
0010
0001
,
1000
0010
0100
0010
1000
0001
0010
0100
1000
0010
0100
0001
0010
0100
1000
0010
,
0100
0010
0100
0010
1000
0010
1000
0010
0100
0001
0100
0001
1000
0100
1000
0100
,
0010
0001
1000
0100
0010
0100
1000
0001
0100
0010
0100
0001
1000
0100
0010
0001
,
1000
0100
1000
0100
0010
0100
0010
0100
0010
0001
0010
0001
1000
0100
0010
0001
,
0100
0001
0100
0001
0100
0010
0100
0010
1000
0010
1000
0010
0100
0001
0100
0010
,
1000
0100
1000
0100
0010
0001
0010
0001
1000
0100
0010
0001
1000
0010
0100
0001
,
0010
0001
0100
0010
1000
0100
1000
0010
0100
0001
0010
0001
1000
0100
0010
0100
,
1000
0100
1000
0100
0010
0100
0010
0100
0010
0001
0010
0001
0100
0010
1000
0001
,
0100
0001
0100
0001
0100
0010
0100
0010
1000
0010
1000
0010
0100
0001
0010
0001
,
1000
0010
1000
0010
0100
0010
0100
0010
1000
0010
1000
0001
0100
0001
0100
0001
,
1000
0100
0010
0001
1000
0010
0100
0001
1000
0100
0010
0001
1000
0010
0100
0001
,
0010
0001
1000
0010
0100
0001
0010
0001
1000
0100
0010
0100
1000
0001
0100
0010
,
0100
0001
0010
0001
0100
0010
0100
0001
1000
0100
0010
0001
0010
0100
1000
0001
,
1000
0100
0010
0100
1000
0001
0100
0010
1000
0100
0010
0001
0010
0100
0010
0001
,
1000
0100
1000
0001
0010
0100
1000
0100
0010
0100
1000
0100
0010
0001
0010
0001
,
0100
0010
1000
0010
0100
0001
1000
0010
0100
0001
1000
0100
0010
0001
0010
0001
,
0010
0100
1000
0001
0100
0001
0010
0100
1000
0100
1000
0001
0100
0010
1000
0100
,
0010
0001
0010
0001
0010
0100
0010
0001
0100
0010
0100
0001
1000
0100
0010
0001
,
1000
0010
0100
0001
0010
0001
0100
0010
1000
0001
1000
0100
0010
0001
1000
0100
,
1000
0001
0010
0100
1000
0010
0100
0001
,
0000
0100
0010
0100
0001
1000
0100
0010
,
0000
0100
0010
0001
0010
0100
1000
0100
,
0000
1000
0010
0100
0010
1000
0100
1000
,
0000
1000
0010
0100
0001
0010
0100
1000
,
0001
1000
0010
0100
0001
0010
0001
1000
,
0100
1000
0100
1000
0100
1000
0100
1000
0001
0100
0001
0100
0001
0100
0001
0100
,
0001
0100
1000
0100
0001
0010
1000
0010
0001
0100
1000
0100
0001
0010
0100
1000
,
0001
0000
0000
0010
,
0010
0100
1000
0001
,
1000
0000
0000
0001
,
0001
0000
0000
0010
0000
0000
0100
0000
1000
0000
0000
0000
0001
0000
0000
0000
,
0100
0000
0000
0000
,
0001
0000
0100
0000
,
0020
0000
0000
0000
,
0030
0000
0000
0000
;
