#TITLE:Dark Sheep;
#SUBTITLE:;
#ARTIST:黒魔;
#TITLETRANSLIT:Dark Sheep;
#SUBTITLETRANSLIT:;
#ARTISTTRANSLIT:Chroma;
#GENRE:;
#CREDIT:DJSuperNOVA;
#MUSIC:Dark Sheep.ogg;
#BANNER:Dark Sheep.png;
#BACKGROUND:Dark Sheep-bg.png;
#CDTITLE:;
#SAMPLESTART:49.838;
#SAMPLELENGTH:21.695;
#SELECTABLE:YES;
#OFFSET:0.331;
#BPMS:0.000=177.000
,336.000=88.500
,337.250=177.000
,337.500=354.000
,340.000=177.000
,371.000=88.500
,371.250=177.000
,371.500=354.000
,372.000=177.000
,435.000=88.500
,435.250=177.000
,435.500=354.000
,436.000=177.000
,562.000=88.500
,562.500=177.000
,563.000=354.000
,564.000=177.000
;
#STOPS:;
#DISPLAYBPM:177.000;
#BGCHANGES:;
#FGCHANGES:;

//--------------- dance-single - DJSuperNOVA ----------------
#NOTES:
     dance-single:
     DJSuperNOVA:
     Easy:
     9:
     0,0,0,0,0:
0000
0000
0000
0000
,
0000
0000
0000
0000
,
0000
0000
0000
0000
,
0001
0000
0100
0000
,
0000
0100
0001
1000
,
0100
0000
0200
0000
,
0000
0300
0000
0100
,
1000
0000
0001
0000
,
0000
1000
0100
0010
,
0002
0000
0000
0000
,
0003
0000
1000
0000
,
0020
0000
0000
0000
,
0030
0000
1000
0000
,
0020
0000
0030
0001
,
2000
0000
0000
3000
,
0002
0000
0003
1000
,
0020
0000
0000
0130
,
0010
1000
0100
0010
,
0002
0000
0200
0303
,
0101
0000
0000
0000
,
0000
0000
0000
1001
,
0000
0000
0000
0000
,
0010
1001
0000
0000
,
0000
0000
0000
1001
,
0000
0000
0000
0010
,
1001
1000
0100
0100
,
0010
0010
0001
0001
,
0100
0100
0010
0010
,
1000
1000
0001
1001
,
1100
0000
0011
0000
,
1010
0000
0101
0101
,
1010
0000
1100
0000
,
0011
0000
0110
1001
,
0110
0000
1010
0000
,
0101
0000
0011
1100
,
1001
0000
0110
0000
,
1001
0000
0020
0000
,
0130
0100
1000
1000
,
0001
0001
0010
0010
,
1000
1000
0001
0001
,
0010
0010
0100
0100
,
1000
1000
0000
0000
0001
0001
0000
2000
,
0000
3001
0010
0100
,
1000
1000
0000
0000
0001
0001
0000
0020
,
0000
0031
0100
1000
,
0001
0001
1000
1000
,
0010
0010
0100
0100
,
0010
0010
1000
1000
,
0100
0100
0001
0001
,
1000
0100
0010
0100
,
0001
0010
0001
0100
,
0001
0001
0000
0000
1000
1000
0000
0000
,
2002
0000
3003
0000
,
1000
1000
0001
0001
,
0100
0001
0010
0100
,
1000
1000
0010
0010
,
0100
0001
1000
0100
,
0010
0010
0001
0001
,
0100
0010
1000
0001
,
2000
0100
0100
3100
,
0020
0001
0001
0031
,
1000
0000
0001
0000
1000
0100
1000
0000
,
0100
0000
0010
0000
0001
0010
0001
0000
,
0100
0000
0010
0000
1000
0010
1000
0000
,
0010
0000
0100
0000
0001
0100
0001
0000
,
0010
0000
0100
0000
1000
0010
1000
0000
,
0100
0000
0010
0000
0001
0100
0001
0000
,
0010
0100
0010
0100
,
2000
0000
0002
3003
,
2000
0000
0200
3000
,
0020
0300
0002
0030
,
0200
0000
0003
0000
,
0020
0000
0330
0000
,
0002
0000
0200
0003
,
0020
0300
2000
0030
,
0020
0000
3000
0000
,
0200
0000
0330
0000
,
0010
0010
0001
0100
,
1000
1000
0100
0010
,
0001
0001
1000
0001
,
0010
0100
0100
0010
,
0001
1000
0001
1000
,
0010
1000
0100
0010
,
0001
0100
0001
0100
,
1001
0000
0010
0000
,
0110
0000
0000
0000
0000
0000
0000
1001
,
0000
1001
0001
1000
,
0110
0000
0000
0110
,
0001
0100
0010
1000
,
1001
0001
0100
0100
,
1010
0101
0200
0320
,
1030
0001
0100
0010
,
0110
1100
0101
0100
,
0010
0010
1000
1000
,
0001
0001
0110
1001
,
0100
0100
0001
0001
,
1000
1010
0001
0101
,
1000
1000
0100
0100
,
0001
0001
1100
0110
,
0001
0001
0100
0100
,
0010
1010
0100
0110
,
1001
0100
0001
0100
,
1000
0100
0110
0011
,
1100
0001
0010
0100
,
0010
0110
1100
0011
,
1001
0100
0010
0001
,
0100
0010
1010
0110
,
0101
0010
0100
1000
,
2002
0000
3003
1001
,
1000
0100
0020
0000
,
0000
0031
0100
0010
,
1000
0000
0000
0001
0000
0000
2000
0000
0000
0000
0000
0000
0000
0000
0000
0000
,
3001
0001
1000
1000
,
1001
0100
0020
0000
,
0000
1030
0100
0010
,
0001
0000
0000
0010
0000
0000
0200
0000
0000
0000
0000
0000
0000
0000
0000
0000
,
0320
0000
0032
0000
,
1003
0100
0010
0001
,
0001
0100
0010
1000
,
0200
0010
0010
0010
,
0010
0310
0100
0010
,
1001
0010
0100
1000
,
0100
1000
0010
0100
,
2002
0000
0000
0000
,
3003
0000
0100
0010
,
0110
0000
1001
0000
,
0011
0000
1100
0110
,
0101
0000
0011
0000
,
0110
0000
1001
1100
,
0101
0000
0011
0000
,
0110
0000
1100
1001
,
0101
0000
0011
0000
,
0110
0000
1100
0011
,
1001
0100
0110
0010
,
0011
0001
0110
1010
,
0101
0100
0110
0010
,
1010
1000
1001
0110
,
1001
1000
1100
0100
,
0110
0010
0011
1001
,
1100
0010
0101
0010
,
1010
0100
0012
0000
,
1003
1000
0001
0001
,
1000
0001
1000
0100
,
0010
0010
0100
0100
,
0010
0100
0010
0001
,
1000
1000
0000
0000
0001
0001
0000
0020
,
0000
0031
0010
0100
,
1000
1000
0000
0000
0001
0001
0000
0020
,
0000
0130
1000
0001
,
0100
0100
0001
0001
,
1000
0010
0100
0001
,
0010
0010
0100
0100
,
1000
0100
0001
0100
,
0010
0001
0100
1000
,
0100
0001
0010
0100
,
0010
0010
0000
0000
0100
0100
0000
0000
,
0220
0000
0330
0000
,
0110
0000
0000
0000
,
0000
0000
0000
1001
,
0000
0000
0000
0000
,
0000
0110
0000
0000
,
0000
0000
0000
1001
,
0000
0000
0000
0000
,
1000
1000
0001
0001
,
0100
0100
0010
0010
,
0100
0010
0100
0010
,
1000
0001
1000
0001
,
1001
0100
0020
0030
,
1001
0100
0020
0030
,
1001
1000
0100
0010
,
0001
0100
0010
1000
,
0040
0000
0000
0000
,
0000
0000
0000
0000
,
0000
0000
0000
0000
,
0000
0000
0000
0000
,
0030
0000
0000
0000
;

//--------------- dance-single - DJSuperNOVA ----------------
#NOTES:
     dance-single:
     DJSuperNOVA:
     Medium:
     14:
     0,0,0,0,0:
0000
0000
0000
0000
,
0000
0000
0000
0000
,
0000
0000
0000
0000
,
2000
0000
0000
3010
0200
0000
0000
0000
,
0000
0000
0301
0010
0100
0000
1000
0000
,
0200
0000
0000
0310
0200
0000
0000
0000
,
0000
0000
0000
0000
0300
0000
1000
0100
,
2000
0000
0000
3100
0020
0000
0000
0000
,
0000
0000
0031
0100
0001
0000
1000
0000
,
0200
0000
0000
0000
,
0000
0300
2000
0000
,
3020
0000
0000
0000
,
0000
0000
0230
0000
,
0320
0000
0000
0000
0000
0000
0000
0000
1030
0000
0010
0000
,
0200
0000
0000
0300
,
0002
0000
0000
0000
0000
0000
0000
0000
1003
0000
0010
0000
,
2000
0000
0000
0000
0000
0000
0000
0000
3100
0000
0010
0000
,
0001
0000
0100
0000
0010
0000
1000
0000
0100
0000
1000
0000
,
0010
0000
0000
0100
0002
0000
0003
0000
,
1001
0000
0001
0000
0100
0000
0010
1000
,
0000
0010
0100
0001
1000
0000
1001
0000
,
1000
0000
0010
0100
0000
0001
0010
0001
,
1000
0000
1001
0000
0001
0000
1000
0100
,
0000
0010
0001
0100
0001
0000
0101
0000
,
0100
0000
0010
1000
0000
0010
0100
0001
,
1000
1000
0100
0100
,
0010
0010
0001
0001
,
1000
1000
0010
0010
,
0100
0100
0001
1000
,
1001
0000
0000
1000
0100
1000
0100
0000
0000
0001
0100
0001
,
0100
0000
0000
0010
0001
0010
0001
0000
0000
0011
0000
0000
,
1100
0000
0000
1000
0010
1000
0010
0000
0000
0100
0001
0100
,
0001
0000
0000
1000
0001
1000
0001
0000
0000
0110
0000
0000
,
1001
0000
0000
1000
0010
0100
0001
0000
0000
0001
0010
0100
,
1000
0000
0000
1000
0010
0100
0001
0000
0000
0101
0000
0000
,
1010
0000
0000
0001
0100
0010
1000
0000
0000
0001
0010
0100
,
1000
0000
0000
1000
0100
0010
0002
0000
0000
0000
0000
0000
,
1003
0000
0000
0100
0000
0000
1000
0000
0001
0000
0000
0100
0000
0000
0001
0000
,
1000
0000
0000
0010
0000
0000
1000
0000
0001
0000
0000
0010
0000
0000
0001
0000
,
0100
0000
0000
0001
0000
0000
0100
0000
0010
0000
0000
1000
0000
0000
0010
0000
,
0100
0000
0000
0001
0000
0000
0100
0000
0010
0000
1000
0000
0100
0000
0010
0000
,
0001
1000
0000
0001
1000
0010
0000
0200
,
0000
0310
0100
0010
1000
0100
0010
0001
,
1000
0100
0000
0010
0001
0100
0000
0002
,
0000
0013
0100
1000
0100
0010
0200
0000
,
0310
0000
0000
0001
0000
0000
0100
0000
0001
0000
0000
0010
0000
0000
0100
0000
,
0010
0000
0000
0100
0000
0000
1000
0000
0010
0000
0000
0100
0000
0000
0010
0000
,
1000
0000
0000
0100
0000
0000
0010
0000
0100
0000
0000
0010
0000
0000
0001
0000
,
1000
0000
0000
0001
0000
0000
1000
0000
0010
0000
0000
0100
0000
0000
0010
0000
,
1000
0100
1000
0100
0010
0001
0010
0001
,
1000
0100
0010
0001
0100
0010
1000
0100
,
0010
0010
0000
0000
0100
0100
0000
0000
,
2002
0000
0000
3003
,
1000
0000
0001
1000
0100
0000
0010
0000
,
0100
0000
0010
0001
0010
0000
0100
0000
,
1000
0000
0100
1000
0100
0000
1000
0000
,
0100
0000
0010
0000
0001
0000
0100
0001
,
0100
0000
0010
1000
0010
0000
0100
0000
,
0010
0000
1000
0100
0010
0000
0001
0000
,
0100
0010
1000
0100
1000
0100
0010
0000
,
0100
0010
0001
0100
0001
0100
0010
0000
,
1000
0100
0010
0001
0010
0001
0010
0100
,
1000
0010
0100
0001
0100
0001
0100
0010
,
1000
0100
1000
0100
0010
0100
0010
0001
,
0010
0001
0010
0100
0010
0100
1000
0100
,
1000
0100
1000
0010
0100
0001
0010
0001
,
0100
0010
1000
0100
0010
0100
0010
0100
,
1000
0100
0010
0001
1000
0100
0010
0001
,
2000
0000
0002
3003
,
0200
0000
0302
0000
,
0203
0000
0320
0000
,
2030
0000
0100
0000
,
0020
0000
3030
0000
,
2000
0000
3020
0000
,
0230
0000
0302
0000
,
0023
0000
0100
0000
,
0002
0000
0033
0000
1000
0100
0010
0001
,
2000
0000
0000
3001
0200
0000
0000
0000
,
0000
0000
0301
0010
0001
0100
0010
0100
,
0002
0000
0000
0013
0200
0000
0000
0000
,
0000
2300
3200
0320
,
0031
0010
0001
0010
0100
1000
0100
1000
,
0001
0100
0001
0100
0010
1000
0010
1000
,
0100
0010
0001
1000
0010
0100
0001
0010
,
0100
0000
0000
0000
0000
0100
0000
0000
0010
0000
0000
0000
0000
0000
0000
0000
,
0110
0000
0000
0000
0000
0000
0000
1001
,
0000
1000
0001
0000
0011
0000
1100
0000
,
0110
0000
0000
0000
0000
1000
0010
0000
,
1000
0100
1000
0001
0010
0100
1000
0000
,
1010
0000
0010
0000
0001
0100
0001
1000
,
0000
0010
1000
0000
1010
0000
0101
0000
,
1001
0000
1000
0000
0001
0100
0010
1000
,
0100
0010
0100
0010
0001
0100
0010
0000
,
1000
0000
0000
1000
0000
0000
1000
0000
0001
0000
0000
0001
0000
0000
0001
0000
,
0100
0000
0000
0100
0000
0000
0100
0000
0010
0000
0000
0000
1010
0000
0000
0000
,
1100
0000
0000
0100
0000
0000
0100
0000
0010
0000
0000
0010
0000
0000
0010
0000
,
0001
1000
0001
1000
0100
0010
0001
0010
,
0001
0000
0000
0001
0000
0000
0001
0000
0100
0000
0000
0100
0000
0000
0100
0000
,
0010
0000
0000
0010
0000
0000
0010
0000
1000
0000
0000
0000
1100
0000
0000
0000
,
0110
0000
0000
0100
0000
0000
0100
0000
0010
0000
0000
0010
0000
0000
0010
0000
,
0001
1000
0100
1000
0010
1000
0200
0000
,
0301
0000
0100
0001
0000
0000
0100
0000
0010
0000
1000
0010
0000
0000
1000
0000
,
0100
0000
1000
0100
0000
0000
1000
0000
0001
0000
0000
0000
0101
0000
0000
0000
,
1010
0000
0010
1000
0000
0000
0010
0000
0100
0000
0010
0100
0000
0000
0001
0000
,
0010
0001
0100
0001
0010
0001
0100
0010
,
1000
0000
0001
1000
0000
0000
0010
0000
0100
0000
0010
0100
0000
0000
0010
0000
,
1000
0000
0100
1000
0000
0000
0001
0000
0100
0000
0000
0000
1001
0000
0000
0000
,
1100
0000
1000
0100
0000
0000
0010
0000
0001
0000
0010
0000
0001
0000
0010
0000
,
0100
1000
0010
0100
0001
1000
0010
0000
,
0020
0000
1030
0001
0200
0000
0001
0000
,
0001
0000
0310
1000
0200
0000
0320
0000
,
0031
0000
0000
1000
0000
0000
0020
0000
0100
0000
0000
0000
1000
0000
0000
0000
,
0001
1000
0100
1030
,
0002
0000
1003
0001
2000
0000
0100
0000
,
0001
0000
3100
0010
0002
0000
0023
0000
,
0031
0000
0000
1000
0000
0000
0200
0000
1000
0000
0000
0000
1300
0000
0100
0000
,
2000
0100
3002
0203
,
0320
0000
1000
0000
0100
0000
1030
0100
,
0020
0031
2000
3001
,
0200
0001
0010
0001
,
0010
0301
0200
0302
,
1003
0100
1000
0100
1000
0100
1000
0100
,
0010
0001
0010
0001
0010
0001
0010
0001
,
1000
0100
1000
0001
0100
0001
1000
0010
,
0100
0000
2000
3020
,
1030
0000
0000
1000
0100
1000
0001
0000
0000
0001
0100
0001
,
1000
0000
0000
1000
0100
0010
0001
0000
0000
0011
0000
0000
,
1100
0000
0000
0001
1000
0100
1000
0000
0000
1000
0001
0100
,
0001
0000
0000
0001
0100
0010
1000
0000
0000
0110
0000
0000
,
1001
0000
0000
1000
0010
0100
0001
0000
0000
0001
0010
0100
,
1000
0000
0000
1000
0010
0100
0001
0000
0000
0101
0000
0000
,
1010
0000
0000
1000
0001
0100
0010
0000
0000
0100
0001
0010
,
0100
0000
0000
1000
0100
0010
0001
0000
0000
1001
0000
0000
,
1000
0100
1000
0100
1000
0000
0001
0100
0001
0100
0001
0000
,
1000
0100
1000
0001
0100
0001
1000
0000
0000
1001
0000
0000
,
0001
0100
0001
0100
0010
0000
1000
0100
1000
0100
0010
0000
,
0001
1000
0100
0010
0001
0100
0001
0000
0000
0101
0000
0000
,
1000
0100
0010
0100
0010
0000
0001
0100
0010
0100
0010
0000
,
1000
0100
0010
0100
0010
0001
1000
0000
0000
1001
0000
0000
,
0001
0100
0010
1000
0001
0000
1000
0001
0100
0010
1000
0000
,
0001
1000
0010
0100
0001
0100
0020
0000
0000
0000
0000
0000
,
1030
0000
0000
0100
0000
0000
1000
0000
0001
0000
0000
0100
0000
0000
0001
0000
,
1000
0000
0000
0010
0000
0000
1000
0000
0001
0000
0000
0010
0000
0000
0001
0000
,
0100
0000
0000
0001
0000
0000
0100
0000
0010
0000
0000
1000
0000
0000
0010
0000
,
0100
0000
0000
0001
0000
0000
0100
0000
0010
0000
1000
0000
0100
0000
0010
0000
,
0001
1000
0000
0001
1000
0010
0000
0200
,
0000
0310
0100
0010
1000
0100
0010
0001
,
0010
0001
0000
0010
0001
0100
0000
0002
,
0000
0013
0100
1000
0100
0010
0200
0000
,
0310
0000
0000
0001
0000
0000
0100
0000
0001
0000
0000
0010
0000
0000
0100
0000
,
0010
0000
0000
0100
0000
0000
1000
0000
0010
0000
0000
0100
0000
0000
0010
0000
,
1000
0000
0000
0100
0000
0000
0010
0000
0100
0000
0000
0010
0000
0000
0001
0000
,
1000
0000
0000
0001
0000
0000
1000
0000
0010
0000
0000
0100
0000
0000
0010
0000
,
1000
0100
1000
0100
0010
0001
0010
0001
,
1000
0100
0010
0001
0100
0010
1000
0100
,
0010
0010
0000
0000
0100
0100
0000
0000
,
2002
0000
0000
3003
,
1001
0000
0001
0000
0100
0000
0010
1000
,
0000
0010
0100
0001
1000
0000
1001
0000
,
1000
0000
0010
0100
0000
0001
0010
0001
,
1000
0000
1001
0000
0001
0000
1000
0100
,
0000
0010
0001
0100
0001
0000
0101
0000
,
0100
0000
0010
1000
0000
0010
0100
0001
,
1000
1000
0010
0010
,
0100
0100
0001
0001
,
1000
0100
0010
0001
,
1000
0010
0100
0001
,
1001
0000
0000
1000
0100
0040
0004
0000
0000
0033
0000
0000
,
1100
0000
0000
0001
0100
0040
4000
0000
0000
3030
0000
0000
,
0101
0000
0000
1000
0100
0010
0001
0000
0000
0001
0010
0100
,
1000
0000
0000
1000
0100
0010
0001
0010
0100
1000
0000
0000
,
4004
0000
0000
0000
,
0000
0000
0000
0000
,
0000
0000
0000
0000
,
0000
0000
0000
0000
,
3003
0000
0000
0000
;
