#TITLE:Cupid;
#SUBTITLE:;
#ARTIST:FIFTY FIFTY;
#TITLETRANSLIT:;
#SUBTITLETRANSLIT:;
#ARTISTTRANSLIT:;
#GENRE:;
#CREDIT:DJSuperNOVA;
#MUSIC:Cupid.ogg;
#BANNER:Cupid.png;
#BACKGROUND:Cupid-bg.png;
#CDTITLE:;
#SAMPLESTART:41.348;
#SAMPLELENGTH:16.000;
#SELECTABLE:YES;
#OFFSET:-1.098;
#BPMS:0.000=120.000;
#STOPS:;
#BGCHANGES:;
#FGCHANGES:;

//--------------- dance-single - DJSuperNOVA ----------------
#NOTES:
     dance-single:
     DJSuperNOVA:
     Beginner:
     3:
     0,0,0,0,0:
0000
0000
0000
0000
,
0000
0000
0000
0000
,
0000
0000
0000
0000
,
0000
0000
0000
0000
,
0000
0000
0000
0000
,
0010
0000
0010
0010
,
0001
0000
0010
0000
,
0001
0000
0001
0001
,
1000
0000
0100
0000
,
1000
0000
0100
0100
,
1000
0000
0010
0000
,
1001
0000
0001
0001
,
0000
1000
1000
0000
,
0001
0010
0000
0000
,
1000
1000
1000
0000
,
0010
1000
0000
0000
,
0001
0001
0001
0000
,
1000
0000
0100
0000
,
0010
0010
0010
0000
,
0001
0000
0000
1000
0000
0000
0001
0000
,
0000
0010
0010
0010
,
0000
0110
0000
0100
,
0000
0001
0000
0100
,
0000
1000
0000
0100
,
0000
1000
0000
0001
,
0000
1000
0000
0010
,
0000
1000
0000
0001
,
0000
0010
0000
0100
,
0000
1000
0000
1001
,
0001
0000
0001
0000
,
1000
1000
1000
0000
,
0010
0000
0100
0000
,
0010
0010
0010
0000
,
1000
0000
0001
0001
,
1000
0000
0100
0100
,
1000
0000
0001
0000
,
1000
1000
1000
0000
,
1002
0000
0003
0000
0000
0000
0000
2000
,
0000
3000
0000
0000
0000
0000
0000
0000
,
0020
0000
0030
0000
0000
0000
0000
0200
,
0000
0300
0000
0000
0000
0000
0000
0000
,
0002
0000
0003
0000
0000
0000
0000
2000
,
0000
3000
0000
0000
0000
0000
0000
0000
,
0020
0000
0030
0000
0000
0000
0000
0020
,
0000
0000
0000
0030
0000
0000
0000
0000
,
0000
1000
0001
0000
,
1000
1001
0000
0001
,
0000
0100
0000
0010
,
1000
1000
0000
0100
,
0000
0010
0000
0001
,
0001
0000
1000
0000
,
0010
0010
0010
0000
,
0001
0000
0010
0000
,
0100
0000
1000
0001
,
1000
1001
0000
0001
,
0000
0100
0000
0001
,
0000
1000
0000
0100
,
0000
0010
0000
0001
,
0001
0000
0001
0000
,
0100
0100
0100
0000
,
0010
0000
1000
0000
,
0001
0000
0100
0000
;

//--------------- dance-single - DJSuperNOVA ----------------
#NOTES:
     dance-single:
     DJSuperNOVA:
     Easy:
     5:
     0,0,0,0,0:
0000
0000
0000
0000
,
0000
0000
0000
0000
,
0000
0000
0000
0000
,
0000
0000
0000
0000
,
0000
0000
0000
0000
,
1001
0000
0001
0010
,
0001
0001
1000
0010
,
1000
0000
1000
0100
,
1000
0100
0001
0100
,
1000
0000
0001
0100
,
0010
0100
0001
2000
,
0002
3003
0110
0110
,
0000
0110
1001
0000
,
0001
0100
0001
0001
,
1000
0100
0010
0001
,
1000
1000
0000
0001
,
0010
0100
1000
0000
,
0001
0000
0100
0000
,
0010
0010
1000
0001
,
1001
0000
0000
0110
0000
0000
1001
0000
,
0000
0001
0010
0100
,
1000
0011
0000
0001
,
1000
0010
0100
0001
,
0100
0000
1010
0000
0010
0000
1000
0010
,
0000
0010
0100
0001
,
1000
0000
0100
0000
0010
0000
0000
0010
,
0000
0000
0001
0000
0001
0000
0000
2000
,
0000
0000
3001
0100
0000
0000
0001
1000
,
0000
0100
0010
0110
,
0001
0001
1000
1000
,
0001
0100
0010
0110
,
1000
1000
0100
0010
,
0001
0001
1000
1001
,
0001
0100
1000
0100
,
0010
0010
0001
1001
,
1000
0000
0000
0001
0000
0000
1000
0000
0000
0000
0010
0000
0010
0000
0000
0000
,
0100
0110
0010
1001
,
0001
0000
0000
0010
0000
0000
0001
0000
,
0000
0000
1000
0100
,
0010
0000
0000
0000
0010
0000
0000
0100
,
0000
0000
0001
0100
,
0010
0000
0000
1000
0000
0000
0010
0000
,
0000
0000
0000
1000
0100
0000
0000
0110
,
0000
0000
0000
0001
0100
0000
0000
0220
,
0000
0330
0000
0000
,
0000
0001
0010
0100
,
1000
0011
0000
0001
,
1000
0010
0100
0001
,
0100
0000
1010
0000
0010
0000
1000
0010
,
0000
0010
0100
0001
,
1000
0000
0100
0000
0010
0000
0000
0010
,
0000
0000
0001
0000
0001
0000
0000
2000
,
0000
0000
3001
0100
0000
0000
0001
1000
,
0000
0100
1000
0010
,
0100
0101
0000
0001
,
1000
0010
0100
0001
,
0100
0000
0110
0000
0010
0000
0100
0001
,
0000
0010
0100
1000
,
0001
0000
0100
0000
0010
0000
0000
0010
,
0000
0000
1000
0000
0001
0000
0000
2000
,
0000
0000
3001
0010
0000
0000
0100
1000
,
0000
0001
1000
1001
;

//--------------- dance-single - DJSuperNOVA ----------------
#NOTES:
     dance-single:
     DJSuperNOVA:
     Medium:
     7:
     0,0,0,0,0:
0000
0000
0000
0000
,
0000
0000
0000
0000
,
0000
0000
0000
0000
,
0000
0000
0000
0000
,
0000
0000
0000
0000
,
1001
0000
0100
0000
0001
0100
0001
0100
,
0000
0010
0000
1000
0000
0100
0000
0010
,
0000
0000
0001
0000
0100
0001
1000
0001
,
0000
1000
0000
0001
0000
0010
0000
0100
,
0000
0000
1000
0000
0001
0100
0010
1000
,
0000
0001
0000
1000
0000
0100
0000
0020
,
0000
0030
0011
0011
,
0000
1010
1010
0000
,
0010
0100
0101
0101
,
1000
0010
1000
0010
0100
0000
0001
0000
,
1000
0100
1100
1100
,
0100
1000
0001
0100
0001
0000
1000
0000
,
0001
0000
0000
0100
0000
0000
0001
0000
1000
0000
0000
0000
0100
0000
0000
0000
,
1100
1010
0101
0011
,
1000
0000
0000
0001
0000
0000
0220
0000
,
0330
0100
0100
0010
,
0110
1001
0100
1000
,
0100
0001
0010
1000
,
0010
0110
0100
0001
,
1000
0000
0001
0000
0010
0100
1000
0000
,
0100
0000
1000
0000
1100
0000
0100
0010
,
0000
0010
0001
0000
0011
0000
0001
0200
,
0000
0300
0100
0020
0000
0030
0010
2000
,
0000
3001
0100
1001
,
0010
0000
0110
0000
0100
0001
1000
0000
,
0001
0100
0001
0000
1000
0000
1100
0000
,
0010
0000
0001
0000
0010
0001
0010
0000
,
0001
1000
1001
0110
,
0010
0000
1000
0000
0001
0100
0001
0000
,
1000
0000
0100
0000
1000
0010
1000
0000
,
0001
0000
0000
0100
0000
0000
0001
0000
0000
0000
0100
0000
0110
0000
0000
0000
,
0010
0001
0100
1000
,
1001
0000
0000
1000
0000
0000
0001
0000
,
0000
0000
0010
0100
,
1000
0000
0000
0000
0000
0000
0001
0000
0100
0000
0000
0001
0000
0000
0010
0000
,
0000
0000
0100
0100
,
0110
0000
0000
0010
0000
0000
0001
0000
,
0000
0000
0000
0000
0000
0000
0000
0000
1000
0000
0000
0001
0000
0000
1000
0000
,
0000
0000
0000
0000
0000
0000
0000
0000
0010
0000
0000
0100
0000
0000
0020
0000
,
0000
0000
0000
0200
0000
0000
0330
0000
,
0000
0100
0100
0010
,
0110
1001
0100
1000
,
0100
0001
0010
1000
,
0010
0110
0100
0001
,
1000
0000
0001
0000
0010
0100
1000
0000
,
0100
0000
1000
0000
1100
0000
0100
0010
,
0000
0010
0001
0000
0011
0000
0001
0200
,
0000
0300
0100
0020
0000
0030
0010
2000
,
0000
3001
0100
1001
,
0110
1001
0100
0001
,
0100
1000
0010
0001
,
0010
0110
0100
1000
,
0001
0000
0001
0000
0010
0100
0010
0000
,
1100
0000
1000
0000
1100
0000
0100
0010
,
0000
0010
0001
0000
0011
0000
0001
0020
,
0000
0030
0010
0200
0000
0300
1000
2000
,
0000
0000
3001
0000
0001
1000
0001
1000
;

//--------------- dance-single - DJSuperNOVA ----------------
#NOTES:
     dance-single:
     DJSuperNOVA:
     Hard:
     12:
     0,0,0,0,0:
0000
0000
0000
0000
,
0000
0000
0000
0000
,
0000
0000
0000
0000
,
0000
0000
0000
0000
,
0000
0000
0000
0000
,
0110
0000
0100
1000
0001
0010
0100
0010
,
0000
0011
0000
1000
0000
0010
0000
0110
,
0000
0000
0100
0001
0010
0100
1000
0001
,
0000
0101
0000
0010
0000
0100
0000
1100
,
0000
0000
0001
1000
0010
0100
0001
1000
,
0000
1100
0000
0010
0000
0001
0000
0021
,
0000
0000
0031
1000
0010
0000
1010
0000
,
0100
0001
1000
0000
1001
1000
0100
1000
,
0001
0000
0101
0000
0100
0000
0010
1000
,
0001
1000
0010
1000
0100
0010
0001
1000
,
0100
0000
1100
0000
0011
0000
0010
0001
,
0100
0010
1000
0100
1000
0000
1001
0000
,
0001
0000
0000
0100
0000
0000
0001
0000
0010
0000
0000
0000
0110
0000
0000
0000
,
1000
0010
1000
0001
1000
0100
0010
0001
,
0011
0000
0000
1100
0000
0000
2002
0000
,
3003
0001
0100
0010
1000
0100
0010
0001
,
0100
0000
1010
0000
0101
0000
0001
0010
,
0000
0010
0001
0010
0100
1000
0010
0100
,
0001
0000
0201
0000
1000
0000
0310
1000
,
0000
1000
0001
1000
0100
0010
0100
1000
,
0001
0000
0110
0000
1001
0000
0001
0010
,
0000
0100
1000
0000
0001
1000
0000
2020
,
0000
3030
0020
0200
0000
0030
0302
0200
,
0003
0301
0000
0001
0000
0001
0010
0100
,
1000
0010
0100
0001
1000
0010
0100
0001
,
0100
0001
0100
0001
1000
0000
0010
0000
1000
0000
0100
0000
0010
0000
0001
0000
,
0010
0001
0010
0001
1000
0000
0010
0000
0100
0000
0010
0000
0010
0000
0100
0000
,
0001
1000
0001
1000
0001
0000
0010
0000
0100
0000
1000
0000
0001
0000
0000
0000
,
1001
1000
0100
0010
0001
1000
0001
0100
,
0001
1000
0000
0001
0000
0010
0000
0100
0000
1000
0100
1000
0100
0000
1000
0000
,
1100
0000
0000
0110
0000
0000
0011
0000
0000
0000
0010
0000
0001
0000
0000
0000
,
1000
0000
0001
0100
0000
0000
0001
0000
0000
1000
0010
1000
0001
0000
0000
0000
,
1002
0000
0000
2003
0000
0000
3020
0100
,
0000
0000
0030
0100
0001
0000
1000
0000
,
2020
0000
0000
0000
3000
0000
2030
0000
3002
0000
0000
0023
0000
0000
0032
0000
,
0000
0000
0000
1003
0100
0000
1100
0000
,
0021
0000
0000
0000
0000
0000
0032
0000
0000
0003
0000
0000
2020
0000
0000
0000
,
3030
0000
0000
0000
0000
0000
1000
0000
0001
0000
0000
0010
0000
0000
0220
0000
,
0000
0000
0330
0000
0000
0000
0001
0000
1000
0000
0000
0010
0000
0000
0220
0000
,
0000
0000
0000
0330
0000
0000
0000
0000
,
0000
0001
0100
0010
1000
0100
0010
0001
,
0100
0000
1010
0000
0101
0000
0001
0100
,
0000
0100
0001
0010
0100
1000
0010
0100
,
0001
0000
0021
0000
0100
0000
0031
1000
,
0000
1000
0001
1000
0100
1000
0001
0100
,
0001
0000
0110
0000
1001
0000
1000
0010
,
0000
0010
1000
0000
0001
1000
0000
0220
,
0000
0330
0020
2000
0000
0030
3002
0200
,
0003
0301
0100
0010
1000
0100
0010
0001
,
0010
0000
0011
0000
1100
0000
0001
0100
,
0000
0100
0001
0010
0100
1000
0010
0100
,
0001
0000
0201
0000
1000
0000
0310
1000
,
0000
1000
0001
1000
0010
0100
0010
1000
,
0001
0000
0101
0000
1100
0000
0001
0010
,
0000
0100
1000
0000
1000
0100
0000
0022
,
0000
0033
0020
0200
0000
0030
2300
0200
,
3000
0000
1300
0001
0100
0001
1000
0001
;
