#TITLE:Candy Pop;
#SUBTITLE:;
#ARTIST:TWICE;
#TITLETRANSLIT:;
#SUBTITLETRANSLIT:;
#ARTISTTRANSLIT:;
#GENRE:;
#CREDIT:DJSuperNOVA;
#MUSIC:Candy Pop.ogg;
#BANNER:Candy Pop.png;
#BACKGROUND:Candy Pop-bg.png;
#CDTITLE:;
#SAMPLESTART:43.793;
#SAMPLELENGTH:24.828;
#SELECTABLE:YES;
#OFFSET:0.345;
#BPMS:0.000=174.000;
#STOPS:;
#BGCHANGES:0.345=Candy Pop.avi=1.000=0=0=0=StretchNoLoop====,
99999.000=-nosongbg-=1.000=0=0=0=StretchNoLoop====
;
#FGCHANGES:;

//--------------- dance-single - DJSuperNOVA ----------------
#NOTES:
     dance-single:
     DJSuperNOVA:
     Beginner:
     2:
     0,0,0,0,0:
0000
0000
0000
0000
,
0000
0000
0000
0000
,
0000
0000
0000
0000
,
0000
0000
0000
0000
,
0000
0001
0000
0000
,
0000
0000
0000
0000
,
0000
1000
0000
0000
,
0000
0000
0000
0000
,
0001
0000
0000
0000
,
0001
0000
0000
0000
,
1000
0000
0000
0000
,
1000
0000
0000
0000
,
0010
0000
0000
0000
,
0010
0000
0000
0000
,
0100
0000
0000
0000
,
0100
0000
0000
0000
,
1000
0000
0000
0000
,
1000
0000
0000
0000
,
0001
0000
0000
0000
,
0001
0000
0000
0000
,
1000
0000
0000
0000
,
0001
0000
0000
0000
,
1000
0000
0000
0000
,
0001
0000
0000
0000
,
0010
0000
0000
0000
,
0010
0000
0000
0000
,
0100
0000
0000
0000
,
0100
0000
0000
0000
,
0010
0000
0000
0000
,
0100
0000
0000
0000
,
2002
0000
0000
0000
,
3003
0000
0000
0000
,
0001
0000
0001
0000
,
0001
0000
0000
0000
,
1000
0000
1000
0000
,
1000
0000
0000
0000
,
0010
0000
0010
0000
,
0000
0000
0100
0000
,
0100
0000
0000
0000
,
0100
0000
0000
0000
,
1000
0000
1000
0000
,
1000
0000
0000
0000
,
0001
0000
0001
0000
,
0001
0000
0000
0000
,
0010
0000
0010
0000
,
0010
0000
0000
0000
,
1000
0000
0000
0000
,
0010
0000
0010
0000
,
0010
0000
0000
0000
,
1001
0000
0000
0000
,
0001
0000
0000
0000
,
1000
0000
0000
0000
,
0100
0000
0000
0000
,
1000
0000
0000
0000
,
0001
0000
0000
0000
,
0100
0000
0000
0000
,
0001
0000
0000
0000
,
0001
0000
1000
0000
,
0001
0000
0000
0000
,
1000
0000
0000
0000
,
0001
0000
0000
0000
,
0010
0000
0000
0000
,
0100
0000
0000
0000
,
1000
0000
0000
0000
,
0100
0000
0000
0000
,
1000
0000
0001
0000
,
1000
0000
0000
0000
,
1000
0000
0000
0000
,
0001
0000
0000
0000
,
0001
0000
0000
0000
,
0010
0000
0000
0000
,
0100
0000
0000
0000
,
2002
0000
0000
3003
,
0000
0000
0000
0000
,
0010
0000
0010
0000
,
0010
0000
0000
0000
,
0100
0000
0100
0000
,
0100
0000
0000
0000
,
0001
0000
0001
0000
,
0000
0000
1000
0000
,
1000
0000
0001
0000
,
1000
0000
0000
0000
,
0010
0000
0100
0000
,
0010
0000
0000
0000
,
1000
0000
0001
0000
,
1000
0000
1000
0000
,
0001
0000
0000
0000
,
1000
0000
0001
0000
,
1000
0000
0000
0000
,
0010
0000
0100
0000
,
0001
0000
0000
0000
,
0001
0000
1000
0000
,
1000
0000
0000
0000
,
1000
0000
0001
0000
,
0001
0000
0000
0000
,
0001
0000
1000
0000
,
1000
0000
0000
0000
,
0000
0000
0010
0000
,
0010
0000
0000
0000
,
0020
0000
0030
0000
;

//--------------- dance-single - DJSuperNOVA ----------------
#NOTES:
     dance-single:
     DJSuperNOVA:
     Easy:
     5:
     0,0,0,0,0:
0000
0000
0000
0000
,
0000
0000
0000
0000
,
0000
0000
0000
0000
,
0000
0000
0000
0000
,
0000
1000
0000
0001
,
0000
0100
0000
1000
,
0000
1000
0000
0100
,
0000
0001
1000
0001
,
1000
0000
0001
0000
,
0100
0000
0100
0000
,
0001
0000
0100
0000
,
0001
0000
0001
0000
,
1001
0000
1000
0000
,
0001
0000
0100
0000
,
1000
1000
1000
0000
,
0001
0001
0001
0000
,
1001
0000
0100
0000
,
1000
0000
0100
0000
,
0001
0000
0010
0000
,
0100
0000
1000
0000
,
1001
0000
0001
0000
,
0100
0000
0001
0000
,
1000
0000
0000
1000
0000
0000
0001
0000
,
0000
0001
0000
0000
1001
0000
0000
0000
,
1000
0000
0000
0000
,
0001
0000
0000
0000
,
0100
0000
0010
0000
,
1000
0000
1000
0000
,
0001
0000
0100
0000
,
0010
0000
1000
0000
,
0001
0000
0000
0000
,
1000
0000
0001
0000
,
1000
0001
1000
1000
,
0010
0010
0010
0000
,
0001
0100
1000
0100
,
0010
0010
0010
0000
,
1000
0001
1001
1001
,
0000
0100
0010
0110
,
0120
0000
2030
0000
,
3002
0000
2000
3003
,
0001
0001
1000
1000
,
0100
0010
0001
0000
,
1000
0001
0010
0100
,
1000
1000
0001
0001
,
1000
0001
0000
0001
,
1000
0100
1000
0100
,
0010
0000
0000
0001
,
1000
0001
0100
0010
,
0110
0000
0000
0000
,
1001
0000
1000
1000
,
1000
0001
0100
0000
,
0100
0000
0001
0000
,
0001
0000
1000
0000
,
0100
0000
0010
0000
,
1001
0000
0010
0100
,
0010
0000
1000
0000
,
0001
0000
1000
0001
,
1000
0000
0100
0000
,
0110
0000
0001
0010
,
0100
0100
1000
0000
,
0001
0000
1000
0000
,
0100
0100
0010
0000
,
1001
0000
0010
0000
,
0001
0000
1000
0000
,
0001
0000
0000
0001
0000
0000
1000
0000
,
0000
1000
0000
0000
1001
0000
0000
0000
,
0100
0000
0000
0000
,
0010
0000
0000
0000
,
0100
0000
0100
0000
,
0010
0000
0010
0000
,
1000
0000
0100
0000
,
0010
0000
0001
0000
,
1001
0000
0000
0000
,
0001
0000
1000
0000
,
0001
0001
1000
1000
,
0010
0010
0010
0000
,
0100
0001
0010
0100
,
1000
1000
0001
0000
,
1000
0100
0110
0110
,
0000
0001
1000
0001
,
2001
0000
3002
0000
,
0203
0000
0020
0330
,
0010
0010
0100
0100
,
1000
0001
1000
0000
,
0100
0010
0001
1000
,
0001
0010
0100
1000
,
0001
1000
0000
0010
,
0001
1000
0000
0010
,
0100
0000
0000
1000
,
0100
0010
0001
1000
,
1001
0000
0001
0000
,
0001
0000
1000
0000
,
1000
0000
1000
0000
,
0000
0010
0001
0100
,
0100
0000
1000
0000
,
0001
0000
0010
0000
,
0010
0000
0100
0000
,
1000
0000
0001
1000
,
2002
0000
0000
0000
,
3003
0000
0000
0000
;

//--------------- dance-single - DJSuperNOVA ----------------
#NOTES:
     dance-single:
     DJSuperNOVA:
     Medium:
     9:
     0,0,0,0,0:
0000
0000
0000
0000
,
0000
0000
0000
0000
,
0000
0000
0000
0000
,
0000
0000
0000
0000
,
0000
1000
0001
0010
,
0100
1000
0100
0010
,
0000
0001
0010
0100
,
1000
0001
1000
0000
0110
0000
0110
0000
,
1001
0000
0100
0010
,
1000
0100
1000
0000
,
0001
0000
0010
0100
,
1000
1000
0001
0000
,
0100
1000
0100
1000
,
0001
0100
0010
1000
,
0001
0000
0100
0010
0000
0000
0010
0000
,
0100
0010
0100
1000
,
1001
0000
0100
0001
,
0100
1000
0010
1000
,
0001
0000
1000
0001
,
0100
0001
1000
0000
,
0000
0010
0011
0001
,
0100
0010
1010
0001
,
1000
0100
0000
1000
0100
0000
0010
0001
,
0000
0010
0001
0000
1001
0000
1000
0000
,
0020
0000
0100
0000
,
0230
0000
0001
0000
,
0302
0000
2003
0000
,
3020
0000
0130
0000
,
0200
0000
0320
0000
,
2030
0000
0001
0000
,
0002
0000
3003
0000
,
1000
1000
0001
0001
,
1000
0100
1000
0100
1000
0000
1001
0000
,
0101
0000
0001
0100
0000
0000
0100
0000
,
0001
0100
0001
0100
0001
0000
1001
0000
,
1010
0000
1000
0010
0000
0000
0100
0000
,
0010
0100
0010
0000
0110
0000
1001
0000
,
0000
0000
1000
0001
1000
0000
0100
0000
,
0020
0000
0032
0000
,
2003
0000
0020
3030
,
0001
0100
0001
0100
0001
0000
1001
0000
,
1100
0000
1000
0100
0000
1000
0100
0000
,
0010
0100
0010
0100
0010
0000
1001
0000
,
0001
0010
0100
1000
,
0010
0000
0100
0001
0000
0001
0100
0000
,
0010
0000
0100
0010
0000
0000
0110
0000
,
2002
0000
0000
0000
3003
0000
0001
1000
,
0000
1000
0001
0000
1001
0000
0110
0000
,
1001
0000
0000
0000
,
0001
0001
1000
1000
,
1001
0001
0100
0001
,
1000
0000
0010
1000
0000
0000
0100
0000
,
0010
0001
0100
0001
,
1000
0000
0001
1000
0000
0000
1001
0000
,
0100
0001
0010
0001
,
2000
0000
0000
0000
3000
0000
0010
0100
,
0000
0001
0100
0010
,
0200
0000
0310
0010
,
0110
0000
0100
0010
,
1000
1000
0001
0100
,
1000
0000
0001
0010
,
0100
1000
0001
0110
,
0000
1000
0001
0001
,
1000
0000
1000
0000
0010
0100
0010
0000
,
0100
0001
0000
0100
0001
0000
0010
1000
,
0000
0010
1000
0000
1010
0000
1001
0000
,
0002
0000
0100
0000
,
0203
0000
0010
0000
,
0320
0000
1000
0000
,
2030
0000
3001
0000
,
0002
0000
2003
0000
,
3020
0000
0230
0000
,
0020
0000
0330
0000
,
0010
0010
0100
0100
,
0001
0100
0001
1000
0001
0000
0101
0000
,
0110
0000
0010
1000
0000
0000
1000
0000
,
1000
0100
1000
0100
1000
0000
1001
0000
,
0101
0000
0100
0001
0000
0001
1000
0000
,
0001
1000
0001
0000
1001
0000
0110
0000
,
0000
0000
0100
0010
0100
0000
0110
0000
,
0120
0000
0032
2003
,
3200
0000
0020
0330
,
0010
0001
0010
0001
0100
0000
1001
0000
,
1010
0000
1000
0010
0000
0100
0010
0000
,
0010
0100
0010
0100
0010
0000
1001
0000
,
1000
0010
0100
0001
,
0100
0000
0001
0100
0000
0100
0010
0000
,
0100
0000
0010
1000
0000
0001
1000
0000
,
2002
0000
0000
0000
3003
0000
1000
0001
,
0000
0001
1000
0000
0110
0000
1001
0000
,
0110
0000
0200
0000
,
0320
0000
1000
0000
,
1000
0000
1030
0000
,
0001
1000
0001
0100
,
0110
0000
0200
0000
,
0001
0000
0010
0000
,
0010
0000
0310
0000
,
1000
0000
0001
0100
0010
0000
0110
0000
,
2002
0000
0000
0000
,
3003
0000
0000
0000
;

//--------------- dance-single - DJSuperNOVA ----------------
#NOTES:
     dance-single:
     DJSuperNOVA:
     Hard:
     12:
     0,0,0,0,0:
0000
0000
0000
0000
,
0000
0000
0000
0000
,
0000
0000
0000
0000
,
0000
0000
0000
0000
,
0000
0000
1000
0001
0010
0000
0100
0000
,
1000
0100
1000
0001
,
0000
0000
1000
0001
0010
0000
0001
0000
,
1000
0001
1000
0100
0010
0001
1000
0000
,
1001
0000
0000
0000
0001
0100
0010
1000
,
0001
0000
1000
0000
1001
0000
1000
0010
,
0100
0000
0100
0000
0100
0010
1000
0100
,
0010
0100
1000
0001
0010
0100
0010
0001
,
1000
0001
1001
0010
,
0110
0000
0100
0000
1000
0100
0010
0100
,
1000
0000
1000
0010
0000
0010
0100
0000
,
0001
0010
0100
1000
0001
0000
1000
0001
,
1000
0000
0001
0000
0100
0010
1000
0001
,
0100
0000
0100
0001
1000
0000
1000
0010
,
0100
0000
0001
0000
1000
0100
0010
0001
,
1000
0100
1000
0001
1000
0000
0010
0000
,
1001
0100
1001
0010
,
1001
0000
1000
0001
0100
0000
0100
0000
,
0010
1000
0000
0010
0100
0000
0001
0010
,
0000
0100
1000
0000
1001
0001
1000
0000
,
0020
0000
0100
0000
,
0230
0000
0001
0000
,
0302
0000
0000
1000
2003
0000
0000
0100
,
3200
0000
0000
0010
0020
0000
0330
0000
,
0002
0000
0000
0100
0203
0000
0000
0010
,
0320
0000
2030
0000
,
0002
0000
3003
0000
,
1000
0001
1000
0001
0100
0010
0100
0010
,
0001
1000
0001
1000
1010
0000
0101
0000
,
1001
0000
1000
0010
0000
0010
0100
0000
,
0001
0010
0100
0010
0011
0000
0101
0000
,
0110
0000
0010
1000
0000
1000
0100
0000
,
0100
0010
0100
0010
0110
0000
1001
0000
,
1000
0001
0100
0001
1000
0000
0010
0000
,
0100
0000
0001
0000
1000
0100
0001
0000
,
0100
0000
1000
0000
0001
0100
1000
0000
,
0010
0100
0001
1000
1001
0000
0110
0000
,
1001
0000
1000
0100
0000
0001
0100
0000
,
0010
1000
0100
0010
0011
0000
1001
0000
,
1020
0000
0230
0000
0302
0000
1003
0100
,
1000
0000
0010
0100
0000
0001
0100
0000
,
0010
0000
1000
0100
0000
1000
0010
0000
,
0220
0000
0000
0000
0330
0000
1000
0001
,
0000
0001
1000
0000
1001
0000
0110
0000
,
1001
0000
0000
0000
,
1000
0100
1000
0100
0010
0001
0010
0001
,
1000
0000
0001
0100
1000
0100
0010
0100
,
0001
0100
0010
1000
0000
1000
0010
0100
,
0001
0000
0001
0100
1000
0100
0010
0100
,
0010
1000
0100
0001
0000
0000
0110
0000
,
1001
0000
1000
0100
0001
0000
0001
0100
,
2000
0000
0001
0000
3001
0000
0001
1000
,
0000
0000
0100
1000
0010
0000
0100
0001
,
0020
0000
0130
0000
0110
0000
0001
1000
,
0001
0000
0000
0000
1000
0100
0001
0100
,
1000
0001
0010
0001
1000
0000
0001
0100
,
0010
0000
1000
0000
0010
1000
0100
1000
,
0010
0100
0001
0100
0001
0000
1001
0000
,
0010
0001
1001
0100
,
1001
0000
0010
0000
1000
0001
0100
0000
,
0001
0010
0000
0001
0100
0000
0010
1000
,
0000
0100
1000
0000
0110
0000
0010
0000
,
1002
0000
1000
0000
,
2003
0000
0001
0000
,
3002
0000
0000
0103
0002
0000
0000
1003
,
0020
0000
0200
0330
,
2000
0000
0000
3100
0020
0000
0000
0031
,
0200
0000
0020
0300
,
2000
0000
3030
0000
,
0001
0100
0001
0100
0010
1000
0010
1000
,
0100
0010
0100
0010
0110
0000
1001
0000
,
0110
0000
0010
1000
0000
0001
0100
0000
,
0010
0001
1000
0001
1001
0000
1100
0000
,
1001
0000
0001
0100
0000
0010
1000
0000
,
0001
1000
0100
1000
1100
0000
0011
0000
,
1000
0001
0010
0100
0010
0000
0011
0000
,
1100
0000
0001
0000
1000
0010
0001
0000
,
0100
0000
0010
0000
1000
0010
0001
0000
,
1000
0100
0010
0001
1001
0000
1100
0000
,
1001
0000
0100
0001
0000
1000
0100
0000
,
0010
0100
0001
1000
1100
0000
1001
0000
,
0101
0000
0011
0000
0001
0000
0010
0001
,
0100
0000
0010
1000
0000
1000
0001
0000
,
1001
0000
0001
1000
0000
1000
0100
0000
,
0110
0000
0010
0000
0001
1000
0100
0010
,
0000
0010
0001
0010
0100
0000
1001
0000
,
0110
0000
0001
0100
1000
0000
0001
0000
,
0100
0001
1000
0000
0010
0000
0100
0000
,
0110
0000
0010
1000
0001
0000
1000
0000
,
0001
1000
0100
0000
1100
0000
0010
0000
,
0001
0000
1000
0001
1000
0000
0010
0000
,
0100
0001
1000
0000
1010
0000
0100
0000
,
0110
0000
0010
0001
0100
0000
0100
0000
,
0010
1000
0100
0010
0001
0100
1000
0200
,
0020
0000
0000
0000
,
0330
0000
0000
0000
;

//--------------- dance-single - DJSuperNOVA ----------------
#NOTES:
     dance-single:
     DJSuperNOVA:
     Challenge:
     16:
     0,0,0,0,0:
0000
0000
0000
0000
,
0000
0000
0000
0000
,
0000
0000
0000
0000
,
0000
0000
0000
0000
,
0000
0000
1000
0100
0010
0000
0001
0000
,
1000
0100
1000
0010
,
0000
0000
0100
0001
0010
0000
0001
0000
,
1000
0000
0001
1000
0001
0000
0100
0000
0010
0000
1000
0000
0100
0000
0010
0000
,
0001
0000
0000
0000
1000
0000
0001
1000
0001
0000
0000
0000
0100
0000
0000
0000
,
0010
1000
1000
0000
0001
1000
0100
0000
,
0110
0000
0000
0000
0001
0000
0010
0001
0010
0000
0001
0000
0100
0000
0001
0000
,
1000
0100
1000
0001
1000
0100
0010
0001
,
1000
0000
0000
0000
0001
0000
0100
0001
1000
0000
0000
0000
0010
0000
0000
0000
,
0100
0001
0100
0000
0010
1000
0100
0001
,
0100
0000
0000
0000
0010
0000
0001
0010
0001
0000
1000
0000
0001
0000
0100
0000
,
0010
0000
0000
1000
0000
0000
1000
0000
0000
0001
0000
0000
1000
0000
0100
0000
0010
0000
0100
0000
0010
0000
0001
0000
,
1000
0000
0100
0000
1000
0000
0001
0100
0001
0000
0010
0000
0100
0000
0010
0000
,
0001
0000
1000
0000
0100
0000
0010
0000
0001
0000
1000
0000
0001
1000
0001
1000
,
0100
0000
0010
0000
0001
0000
1000
0100
1000
0000
0010
0000
1000
0000
0100
0000
,
0010
0100
1000
0001
0100
0010
1000
0001
,
1001
0000
0000
0000
1000
0000
0001
0100
0010
0000
1000
0000
0010
0000
1000
0000
,
0100
0000
0010
0000
0001
1000
0001
1000
0001
0000
0100
0000
0010
0000
1000
0000
,
0100
0000
0010
0000
0001
0000
0100
0010
1000
0000
0100
0000
0010
0000
0001
0000
,
1000
0000
0001
1000
0001
0000
0100
0000
0010
0000
1000
0000
0001
0100
0010
0100
,
0001
0000
0000
1000
0001
0000
1000
0000
,
0001
0000
1000
0000
1000
0000
0000
0000
0010
0000
0000
0000
0100
0010
0100
0010
,
1000
0000
0000
1000
0001
0000
1000
0000
,
0001
0000
0010
0000
0100
0000
0000
0000
0010
0000
0000
0000
0010
0001
0010
0001
,
1000
0000
0000
0001
1000
0000
0010
0000
,
0010
1000
0001
0000
1001
0000
0001
1000
,
0200
0000
0000
0000
,
0310
0000
0010
0100
0010
0000
0100
0000
0010
0000
0100
0000
0010
0000
0001
0000
,
1000
0000
0001
0000
1000
0000
0001
1000
0001
0000
0100
0000
0010
0000
1000
0000
,
0100
0000
0010
0000
0001
0000
1000
0100
1000
0000
0001
0000
0100
0000
0000
0000
,
0001
0000
0100
0000
0010
0000
1000
0010
1000
0000
0010
0000
0100
0000
0001
0000
,
0010
0000
0100
0000
0010
0000
0001
1000
0001
0000
1000
0000
0100
0000
0000
0000
,
0100
1000
0010
0100
0001
0000
1001
0000
,
1000
0000
0010
0000
0100
0000
0001
0000
0010
0000
0100
0010
0100
0000
0010
0000
,
0002
0000
1003
0010
0200
0000
0310
0100
,
0020
0000
0000
1030
0100
0010
0100
0010
0001
1000
0000
0000
,
0001
0000
0100
0000
0001
0000
1000
0001
1000
0000
0100
0000
1000
0000
0010
0000
,
0100
0000
0001
0000
1000
0000
0100
0010
0100
0000
1000
0000
0001
0000
0000
0000
,
1000
0000
0010
0000
0100
0000
0010
1000
0010
0000
0100
0000
0001
0000
0100
0000
,
0001
0000
0100
0000
1000
0000
0100
0010
0100
0000
0010
0000
1000
0000
0000
0000
,
0001
0100
0010
1000
0000
0100
1000
0010
,
0100
0000
0001
0000
0010
0000
0001
0000
0000
0000
1000
0001
1000
0000
0000
0000
,
2002
0000
0000
0000
3003
1000
0001
1000
,
0000
0000
0000
1000
0000
0000
0001
0000
0100
0000
0010
0000
1000
0000
0010
0000
0100
0000
0001
0000
0010
0000
0100
0000
,
1000
0000
0000
0000
,
0001
0000
0001
1000
0001
0000
1000
0000
0001
0000
0100
0000
0010
0000
0100
0000
,
0110
0000
0000
0000
0010
0000
1000
0010
1000
0000
0100
0000
0001
0000
0100
0000
,
1000
0010
0001
0010
0000
0010
1000
0100
,
0010
0000
0000
0000
0001
0000
1000
0100
1000
0000
0001
0000
0010
0000
0100
0000
,
1000
0010
0010
0100
0100
0001
1001
0000
,
1000
0000
0000
0000
0001
0000
1000
0100
0010
0000
0000
0000
0010
0000
0001
0000
,
0200
0010
0010
0000
0310
0100
0010
1000
,
0100
0000
0000
0000
0100
0000
0010
0001
0020
0000
0000
0000
0031
0000
1000
0000
,
0002
0000
0000
1000
0000
0000
1003
0000
0100
0000
0001
0000
1000
0000
0010
0000
0001
0000
1000
0000
0000
0100
0000
0000
,
0001
0000
0000
0000
0100
0000
0010
1000
0100
0000
0001
0000
0100
0000
0010
0000
,
0001
0000
0100
0000
1000
0000
0100
0000
0001
0000
1000
0000
0001
1000
0001
1000
,
0100
0000
0010
0000
0001
0000
0100
0001
0010
0000
0100
0000
1000
0000
0100
0000
,
0010
0100
1000
0100
0001
0100
0110
0000
,
1001
0000
0000
0000
0001
0000
1000
0100
0001
0000
0100
0000
1000
0000
0001
0000
,
0100
1000
0100
0010
0100
1000
0001
0000
,
1000
0000
0010
0000
0001
0000
1000
0100
1000
0000
0001
0000
0100
0000
1000
0000
,
0010
0000
0100
0001
0100
0000
0010
0000
1000
0000
0100
0000
0010
0001
0100
0001
,
2000
0000
0000
3001
2000
0000
3100
0000
,
0020
0000
0000
0000
0000
0000
0031
0000
0020
0000
0000
0000
0130
0010
0100
0001
,
0200
0000
0000
0310
0200
0000
0000
0310
,
0002
0000
0000
0000
0000
0000
0000
0000
1003
0000
0000
0000
0001
1000
0001
1000
,
0002
0000
0000
0103
0020
0000
0000
1030
,
0200
0000
2300
0000
,
0002
0000
3003
0000
,
0010
0000
0010
0100
0010
0000
0100
0000
0010
0000
0100
0000
0010
0000
0001
0000
,
1000
0000
0001
0000
1000
0000
0001
1000
0001
0000
0100
0000
0010
0000
1000
0000
,
0100
0000
0010
0000
0001
0000
1000
0100
1000
0000
0001
0000
0100
0000
0000
0000
,
0001
0000
0100
0000
0010
0000
1000
0010
1000
0000
0010
0000
0100
0000
0001
0000
,
0010
0000
0100
0000
0010
0000
0001
1000
0001
0000
1000
0000
0010
0000
0100
0000
,
0010
1000
0010
0100
0001
0000
1001
0000
,
1000
0000
0010
0000
0100
0000
0001
0100
0001
0000
0100
0000
0010
0000
0100
0000
,
0002
0000
1003
0010
0200
0000
0310
0100
,
0020
0000
0000
1030
0100
0010
0100
0010
0001
1000
0100
0010
,
0001
0000
0100
0000
0001
0000
1000
0001
1000
0000
0100
0000
1000
0000
0010
0000
,
0100
0000
0001
0000
1000
0000
0100
0010
0100
0000
1000
0000
0001
0000
0000
0000
,
1000
0000
0010
0000
0100
0000
0010
1000
0010
0000
0100
0000
0001
0000
0100
0000
,
0001
0000
0100
0000
1000
0000
0100
0010
0100
0000
0010
0000
1000
0000
0000
0000
,
0001
0100
0010
1000
0000
0100
1000
0010
,
0100
0000
0001
0000
0010
0000
0001
0000
0000
0000
1000
0001
1000
0000
0001
0000
,
2002
0000
0000
0000
3003
1000
0001
1000
,
0000
0000
0000
1000
0000
0000
0001
0000
0010
0000
0100
0000
0010
0000
0100
0000
1000
0000
0001
0000
0010
0000
0100
0000
,
1000
0000
0000
0000
0100
0000
0001
0000
1000
0010
1000
0000
0100
0000
0001
0100
,
0001
0000
0100
0000
0010
0000
1000
0000
0100
0010
0100
0010
0001
0000
1000
0000
,
0100
0000
0010
0000
0001
0000
1000
0000
0001
0100
0001
0000
1000
0000
0100
0000
,
1000
0100
0001
0100
1000
0000
0100
0000
,
0001
0000
0000
0000
1000
0000
0001
0000
0100
0010
0100
0000
0001
0000
1000
0100
,
1000
0000
0100
1000
0100
1000
0010
0000
0100
0000
0001
0000
0100
0001
0100
0001
,
0010
0000
0010
0001
1000
0000
0001
1000
,
0100
0000
0100
0010
0100
0000
0010
0000
0100
0000
0001
0000
1000
0000
0002
0000
,
2000
0000
0000
0000
,
3003
0000
0000
0000
;
