#TITLE:Build a Bitch;
#SUBTITLE:;
#ARTIST:Bella Poarch;
#TITLETRANSLIT:;
#SUBTITLETRANSLIT:;
#ARTISTTRANSLIT:;
#GENRE:;
#CREDIT:DJSuperNOVA;
#MUSIC:Build a Bitch.ogg;
#BANNER:Build a Bitch.png;
#BACKGROUND:Build a Bitch-bg.png;
#CDTITLE:;
#SAMPLESTART:46.593;
#SAMPLELENGTH:18.641;
#SELECTABLE:YES;
#OFFSET:-0.574;
#BPMS:0.000=103.000;
#STOPS:;
#BGCHANGES:;
#FGCHANGES:;

//--------------- dance-single - DJSuperNOVA ----------------
#NOTES:
     dance-single:
     DJSuperNOVA:
     Beginner:
     1:
     0,0,0,0,0:
0000
0000
0000
0000
,
0000
0000
0000
0000
,
0000
0000
0000
0000
,
0000
0000
0000
0000
,
0001
0000
0000
0000
,
1000
0000
0000
0000
,
0001
0000
0000
0000
,
1000
0000
0000
0000
,
0010
0000
0000
0000
,
0100
0000
0000
0000
,
0010
0000
0000
0000
,
0100
0000
0000
0000
,
0001
0000
0001
0000
,
1000
0000
0000
0000
,
1000
0000
1000
0000
,
0001
0000
0000
0000
,
0010
0000
0010
0000
,
0100
0000
0000
0000
,
0100
0000
0100
0000
,
0010
0000
0000
0000
,
1000
0000
1000
0000
,
0100
0000
0000
0000
,
0001
0000
0001
0000
,
0100
0000
0000
0000
,
1000
0000
1000
0000
,
0010
0000
0000
0000
,
0001
0000
0001
0000
,
0010
0000
0000
0000
,
1000
0000
0000
1000
,
0001
0000
0000
0001
,
1000
0000
0000
1000
,
0010
0000
0000
0010
,
0100
0000
0000
0000
,
0010
0000
0010
0000
,
1000
0000
1000
0000
,
0001
0000
0000
0000
,
0001
0000
0001
0000
,
0100
0000
0000
0000
,
0010
0000
0010
0000
,
1000
0000
0000
0000
,
0001
0000
1000
0000
,
0001
0000
0000
0000
,
1000
0000
0001
0000
,
1000
0000
0000
0000
,
0010
0000
0100
0000
,
0010
0000
0010
0000
,
1000
0000
0100
0000
,
0010
0000
0000
0000
,
0001
0000
0001
0000
,
0100
0000
0100
0000
,
1000
0000
1000
0000
,
0100
0000
0100
0000
,
1000
0000
0010
0000
,
0001
0000
0010
0000
,
1000
0000
0100
0000
,
0001
0000
1000
0000
;

//--------------- dance-single - DJSuperNOVA ----------------
#NOTES:
     dance-single:
     DJSuperNOVA:
     Easy:
     3:
     0,0,0,0,0:
0000
0000
0000
0000
,
0000
0000
0000
0000
,
0000
0000
0000
0000
,
0000
0000
0000
0000
,
0001
0000
1000
0000
,
0010
0010
0010
0000
,
1000
1000
1000
0000
,
0001
0001
0001
0000
,
1000
0000
0001
0000
,
0100
0100
0100
0000
,
0001
0001
1000
1000
,
2002
0000
3003
0000
,
1000
0100
0001
0000
,
1000
1000
1000
0000
,
0001
0100
1000
0000
,
0001
0001
0001
0000
,
0010
0100
0100
0000
,
0010
0001
1000
0000
,
1000
0000
0001
0000
,
1001
0000
0000
0000
,
1000
0000
0001
0000
,
0100
0100
0100
0000
,
0010
0010
0010
0000
,
1000
0001
1000
0000
,
0010
0000
0100
0000
,
0001
0001
0001
0000
,
1000
1000
0001
0001
,
2002
0000
0000
3003
,
1000
0001
0000
0001
,
1000
0010
0010
0000
,
1000
0001
0000
1000
,
0001
0100
0100
0000
,
0010
0000
0000
0000
,
0000
0000
0000
0000
,
0010
0100
0001
0000
,
1000
1000
1000
0000
,
0100
0010
0001
0000
,
0010
0010
0010
0000
,
0100
1000
0001
0000
,
1001
0000
0000
0000
,
0001
0000
1000
0000
,
0010
0010
0010
0000
,
1000
1000
1000
0000
,
0001
0001
0001
0000
,
0100
0000
0001
0000
,
1000
1000
1000
0000
,
0010
0010
0100
0100
,
0220
0000
0000
0330
,
0010
0000
0100
0000
,
0001
0001
0001
0000
,
1000
0000
0010
0000
,
1000
1000
1000
0000
,
0010
0100
0010
0000
,
0100
0010
0100
0000
,
0001
1000
0001
1000
,
2002
0000
3003
0000
;

//--------------- dance-single - DJSuperNOVA ----------------
#NOTES:
     dance-single:
     DJSuperNOVA:
     Medium:
     5:
     0,0,0,0,0:
0000
0000
0000
0000
,
0000
0000
0000
0000
,
0000
0000
0000
0000
,
0000
0000
0000
0000
,
0010
0100
0000
0001
,
1000
1000
1000
0100
,
0010
0010
0010
0001
,
1000
0001
1001
0000
,
1000
0001
0000
1000
,
0010
0010
0010
0100
,
0001
0001
1000
1000
,
2002
0000
3003
0000
,
0001
1000
0001
0100
,
0010
0010
1000
1001
,
0001
0100
0010
1000
,
0100
0010
0001
0011
,
1000
0001
0000
0001
,
0100
0010
1000
1010
,
1000
0001
0100
0010
,
0000
0110
1001
0000
,
0001
0100
1000
1000
,
0100
0100
0100
0010
,
0001
0001
0001
0100
,
0010
1000
0001
1001
,
1000
0001
0100
0001
,
1000
1000
0100
0100
,
0010
0010
0001
1000
,
2002
0000
0000
3003
,
0100
0110
0010
0001
,
0100
0100
0001
1001
,
0010
0110
0010
1000
,
0100
0100
0010
0110
,
0010
0000
0000
0000
,
0000
0000
0000
0000
,
1000
0001
0010
0100
,
0100
0010
0001
1001
,
0010
0100
1000
0001
,
1000
1000
0001
0000
,
1000
0010
0100
0001
,
0000
1001
0110
0000
,
0001
0100
1000
0100
,
0010
0010
0010
0001
,
1000
1000
1000
0010
,
0100
0010
0110
0000
,
0001
0100
1000
0100
,
0010
0010
1000
1000
,
0100
0100
0010
0001
,
2002
0000
0000
3003
,
0001
1000
0010
0100
,
0100
0001
0010
0000
,
0100
0010
1000
0100
,
0010
0001
1000
0000
,
0001
0010
0100
1000
,
0001
0100
0010
1000
,
0100
0010
0001
1000
,
0001
0100
0010
0000
;

//--------------- dance-single - DJSuperNOVA ----------------
#NOTES:
     dance-single:
     DJSuperNOVA:
     Hard:
     7:
     0,0,0,0,0:
0000
0000
0000
0000
,
0000
0000
0000
0000
,
0000
0000
0000
0000
,
0000
0000
0000
0000
,
1000
0000
0000
0000
0001
0000
1000
0100
,
1000
0000
0010
0000
0010
0000
1000
0001
,
1000
0000
0100
0000
0010
0000
0001
0010
,
0001
1000
1000
0001
,
0100
0000
0010
0000
0000
0000
0010
0100
,
0010
1000
1000
0001
,
0001
0010
0001
0000
1000
0010
1000
0000
,
2002
0000
3003
0000
,
0001
0000
0100
0000
0000
0001
0010
0000
,
0100
1000
0100
0000
1000
0000
1000
0000
,
0001
0000
0010
0000
0001
0000
0000
0000
0000
0000
0001
0000
0000
1000
0000
0000
,
0010
0100
0010
0000
1000
0000
1000
0000
,
0001
0000
1000
0000
0100
1000
0100
0000
,
0010
0001
0010
0000
0001
0000
1000
0000
,
0010
0100
0001
1000
,
0000
0110
1001
0000
,
0001
0100
0010
1000
,
0010
0100
0010
0000
0010
0000
1000
0000
,
0001
1000
0001
0000
0001
0000
0100
0000
,
0010
0100
0010
0000
0010
0000
1000
0000
,
0001
0010
0100
1000
,
0100
1000
0100
0000
0010
0000
0100
0000
,
0001
0100
0001
0000
1000
0100
1000
0000
,
2002
0000
3003
1000
,
0001
1000
0010
0100
,
0001
0100
0001
1000
0001
0000
1000
0000
,
0001
0100
0010
0010
,
1000
0001
1000
0100
0010
0000
0220
0000
,
0330
0000
0000
0000
,
0000
0000
0000
0000
,
1000
0000
0001
0000
0100
0001
0100
0000
,
0010
0010
1000
1000
,
0001
0000
0100
0000
0001
0100
0001
0000
,
1000
0010
1000
1000
,
0010
0100
0010
0000
1000
0000
0100
0000
,
0010
0110
1001
0000
,
0001
0100
0010
1000
,
0100
0010
0100
0000
0010
0000
0001
0000
,
0100
0010
0100
0000
0010
0000
1000
0000
,
0001
1000
0001
0000
1001
0000
1000
0000
,
0001
0000
0100
0000
1000
0000
0100
0010
,
0100
0010
0001
0100
,
0010
1000
0010
0000
0100
0001
0100
0000
,
2002
0000
0000
3003
,
1000
0000
0001
0010
0001
0000
1000
0000
,
0010
0100
0010
0100
0010
0000
1000
0000
,
0100
0000
0010
0100
0010
0000
0001
0000
,
1000
0001
1000
0001
1000
0000
0100
0000
,
0001
0000
0100
0000
0010
1000
0010
0000
,
0100
0000
0001
0010
0100
0000
1000
0000
,
0010
0100
0010
0000
1000
0000
0001
0100
,
0001
1000
0100
0000
;

//--------------- dance-single - DJSuperNOVA ----------------
#NOTES:
     dance-single:
     DJSuperNOVA:
     Challenge:
     9:
     0,0,0,0,0:
0000
0000
0000
0000
,
0000
0000
0000
0000
,
0000
0000
0000
0000
,
0000
0000
0000
0000
0000
0000
1000
0100
,
0010
0000
0000
0010
0100
0000
0000
0000
1000
0000
0000
0000
0001
0000
0100
0000
,
0010
0100
0001
0010
0100
0000
0010
0001
,
1000
0100
0010
0100
1000
0000
0010
0100
,
0010
1000
0100
0010
0001
0000
0001
0100
,
0010
0000
0000
0010
0100
0000
0000
0000
0001
0000
1000
0000
0100
0000
0001
0000
,
0100
1000
0010
0100
0001
0000
1000
0010
,
0100
0001
0010
0001
0100
1000
0100
0001
,
2000
0000
3000
1001
,
0100
0001
0010
0100
0010
0001
1000
0000
,
0010
0100
0001
0010
0100
0000
0110
0000
,
0010
0001
1000
0100
1000
0010
0100
0000
,
0001
0010
0001
1000
0010
0000
0110
0000
,
0101
0000
0000
0100
0001
0000
0010
0000
0001
0000
1000
0000
0100
0000
0000
0000
,
1000
0010
0100
0001
1000
0000
1001
0000
,
0001
0100
0010
1000
0100
0010
0001
0000
,
2002
0000
3000
0000
0003
0000
1000
0100
,
0010
0000
0000
0010
0100
0000
0000
0000
1000
0000
0000
0000
0001
0000
0100
0000
,
0010
1000
0010
0100
0001
0000
1000
0100
,
0010
0100
0001
0100
0010
0000
0001
0100
,
0010
0100
1000
0100
0010
0000
0010
0100
,
0001
0000
0000
0001
1000
0000
0000
0000
0001
0000
0100
0000
0010
0000
1000
0000
,
0100
1000
0010
0100
0001
0000
1000
0100
,
0001
0100
1000
0100
0010
0001
0100
0010
,
1000
0001
2002
3003
,
0110
0000
1001
1000
0001
0100
0010
1000
,
0010
0100
0001
0010
0100
0000
0110
0000
,
0010
0000
0001
0010
0001
0100
0010
1000
,
0010
0001
0010
1000
0001
0000
2002
0000
,
3003
0000
0000
0000
,
0000
0000
0000
0000
0000
0000
0000
0000
0000
0000
0000
0000
0010
0000
0000
1000
,
0010
0100
0001
0010
1000
0010
0001
0000
,
1000
0100
0001
0100
0010
0000
0110
0000
,
0001
0000
0000
1000
0001
0000
0100
0000
0010
0000
1000
0000
0010
0000
0100
0000
,
0001
0100
1000
0100
0010
0000
0010
0100
,
0010
1000
0100
0010
0100
1000
0001
0000
,
2002
0000
0003
0000
3000
0000
0001
0100
,
0010
0000
0000
0010
0100
0000
0000
0000
0001
0000
0000
0000
1000
0000
0100
0000
,
0010
0100
1000
0001
0100
0000
0010
0100
,
0001
0010
0100
1000
0001
0000
1000
0010
,
0100
0001
1000
0100
0010
0000
0110
0000
,
0002
0100
2003
0100
,
3020
0100
0032
1000
,
0103
0010
0100
0001
0010
0001
1000
0100
,
0010
0100
0220
0330
,
1001
0000
1000
0010
0001
0010
1000
0100
,
0010
0100
1000
0100
0010
0000
0110
0000
,
0101
0000
0001
0100
1000
0100
0010
0100
,
0001
0100
0010
1000
0010
0000
1000
0100
,
0010
0000
0000
0010
0100
0000
1000
0000
0001
0000
0100
0000
0001
0000
1000
0000
,
0010
0000
0000
0010
0100
0000
0001
0000
0100
0000
0001
0000
1000
0000
0010
0000
,
0100
0001
0100
1000
0100
0010
0100
0001
,
1000
0001
0100
0010
0100
0000
0000
0000
,
0000
0000
0000
0000
,
0000
0000
0000
0000
,
0000
0000
0000
0000
,
0000
0000
0000
0000
0000
0000
0000
0000
0000
0000
0000
0000
0000
MMMM
0000
0000
,
0000
0000
M00M
0000
0000
M00M
0000
0000
,
M00M
0000
0000
0000
0000
M00M
0000
0000
0000
0000
M00M
0000
0000
0000
0000
M00M
;
