#TITLE:BOCA;
#SUBTITLE:;
#ARTIST:Dreamcatcher;
#TITLETRANSLIT:;
#SUBTITLETRANSLIT:;
#ARTISTTRANSLIT:;
#GENRE:;
#CREDIT:DJSuperNOVA;
#MUSIC:BOCA.ogg;
#BANNER:BOCA.png;
#BACKGROUND:BOCA-bg.png;
#CDTITLE:;
#SAMPLESTART:106.950;
#SAMPLELENGTH:19.200;
#SELECTABLE:YES;
#OFFSET:-0.150;
#BPMS:0.000=200.000;
#STOPS:;
#BGCHANGES:;
#FGCHANGES:;

//--------------- dance-single - DJSuperNOVA ----------------
#NOTES:
     dance-single:
     DJSuperNOVA:
     Beginner:
     3:
     0,0,0,0,0:
0000
0000
0000
0000
,
0000
0000
0000
0000
,
0000
0000
0000
0000
,
0000
0000
0000
0000
,
0000
0000
0000
0000
,
0000
0000
0000
0000
,
0000
0000
0000
0000
,
1000
0000
0000
0000
,
1000
0000
0000
0000
,
0001
0000
0000
0000
,
0001
0000
0000
0000
,
0010
0000
0000
0000
,
0010
0000
0000
0000
,
0100
0000
0000
0000
,
0001
0000
0000
0000
,
1000
0000
0000
0000
,
1000
0000
0000
0000
,
0010
0000
0000
0000
,
0010
0000
0000
0000
,
0100
0000
0000
0000
,
0100
0000
0000
0000
,
0001
0000
0000
0000
,
1000
0000
0000
0000
,
1001
0000
0000
0000
,
1000
0000
0001
0000
,
1000
0000
0000
0000
,
0001
0000
0001
0000
,
0001
0000
0000
0000
,
1000
0000
1000
0000
,
1000
0000
0000
0000
,
0010
0000
0010
0000
,
0010
0000
0000
0000
,
0000
0000
0001
0000
,
1000
0000
0000
0000
,
1000
0000
0000
0000
,
0010
0000
0000
0000
,
0000
0000
0010
0000
,
0100
0000
0000
0000
,
1000
0000
1000
0000
,
1000
0000
0000
0000
,
0100
0000
0100
0000
,
0100
0000
0000
0000
,
0010
0000
0010
0000
,
0010
0000
0000
0000
,
0001
0000
0001
0000
,
1000
0000
0000
0000
,
0001
0000
1000
0000
,
0001
0000
0000
0000
,
0010
0000
0100
0000
,
0010
0000
0000
0000
,
1000
0000
0010
0000
,
0100
0000
0000
0000
,
0001
0000
0010
0000
,
0100
0000
0000
0000
,
0001
0000
1000
0000
,
1001
0000
0000
0000
,
1001
0000
0000
0000
,
1001
0000
0000
0000
,
0010
0000
0000
0000
,
0110
0000
0000
0000
,
0110
0000
0000
0000
,
0110
0000
0000
0000
,
1000
0000
0001
0000
,
2000
0000
3000
0000
,
0002
0000
0003
0000
,
2000
0000
3000
0000
,
0010
0000
0010
0000
,
0020
0000
0030
0000
,
0200
0000
0300
0000
,
0020
0000
0030
0000
,
0100
0000
0000
0000
,
1001
0000
0000
0000
,
0100
0000
0000
0000
,
0001
0000
0000
0000
,
0100
0000
0000
0000
,
1000
0000
0000
0000
,
1000
0000
0000
0000
,
0001
0000
0000
0000
,
0010
0000
0000
0000
,
0110
0000
0000
0000
,
0100
0000
0000
0000
,
1000
0000
0000
0000
,
0100
0000
0000
0000
,
1000
0000
0000
0000
,
0001
0000
0000
0000
,
1000
0000
0001
0000
,
1000
0000
0001
0000
,
1001
0000
0000
0000
,
0001
0000
1000
0000
,
0020
0000
0030
0000
,
0200
0000
0300
0000
,
0020
0000
0030
0000
,
1000
0000
1000
0000
,
0002
0000
0003
0000
,
2000
0000
3000
0000
,
0002
0000
0003
0000
,
0100
0000
0010
0000
,
0110
0000
0000
0000
,
0110
0000
0000
0000
,
0110
0000
0000
0000
,
0100
0000
0001
0000
,
1001
0000
0000
0000
,
1001
0000
0000
0000
,
1001
0000
0000
0000
,
0001
0000
1000
0001
;

//--------------- dance-single - DJSuperNOVA ----------------
#NOTES:
     dance-single:
     DJSuperNOVA:
     Easy:
     6:
     0,0,0,0,0:
0000
0000
0000
0000
,
0000
0000
0000
0000
,
0000
0000
0000
0000
,
0000
0000
0000
0000
,
0000
0000
0000
0000
,
0000
0000
0000
0000
,
0000
0000
0000
1000
,
0001
0000
0000
0000
,
0001
0000
0100
0000
,
1000
0000
0000
0000
,
1000
0000
0100
0000
,
0010
0000
0000
0000
,
0010
0000
0001
0000
,
0100
0000
0010
0000
,
1000
0000
0001
0000
,
1001
0000
0000
0000
,
1000
0000
0010
0000
,
0001
0000
0000
0000
,
0001
0000
0010
0000
,
1000
0000
0000
0000
,
1000
0000
0001
0000
,
0100
0000
0100
0000
,
0010
0000
0100
0000
,
0110
0000
0000
0000
,
0010
0010
0010
0000
,
0110
0000
0001
0000
,
1000
0010
1000
0000
,
0100
0000
0000
0000
,
0001
0010
0001
0000
,
0100
0000
0000
0000
,
0010
1000
0010
0000
,
1000
0001
1000
0001
,
0000
0000
1000
0100
,
1000
0100
0000
0000
,
0001
0000
0101
0000
,
0010
0100
0010
0100
,
0000
0000
0001
0100
,
0001
0100
0000
0000
,
0001
0000
0100
0000
,
0101
0000
0000
0000
,
1000
0000
0100
0000
,
1100
0000
0000
0000
,
1000
0000
0010
0000
,
1010
0000
0000
0000
,
0001
0000
0010
0000
,
0011
0000
0000
0000
,
1000
0000
1001
0000
,
0110
0000
0000
0000
,
0010
0000
0110
0000
,
1001
0000
0000
0000
,
0001
0000
0010
0000
,
0001
0001
0000
1000
,
0100
0010
0001
0000
,
1001
0000
0100
0010
,
0100
0000
0001
1000
,
0001
0001
0000
0100
,
1000
1000
0000
0100
,
0010
0010
0000
0001
,
1000
0001
1000
0000
,
0001
0001
0000
1000
,
0100
0100
0000
0010
,
0001
0001
0000
0100
,
0010
0100
0010
0000
,
1000
1000
0000
0100
,
0001
0001
0000
0010
,
0100
0100
0000
1000
,
0010
1000
0010
0000
,
0100
0100
0000
0001
,
0100
0100
0000
1000
,
0100
0000
0010
0001
,
1000
0000
1001
0000
,
0110
0000
0010
0001
,
1000
0000
1100
0000
,
1000
0000
0001
0100
,
0001
0000
0101
0000
,
0010
0000
0100
0000
,
0000
0000
1001
0000
,
0001
0000
0010
0000
,
0100
0000
0110
0000
,
1000
0001
1000
0000
,
0001
0000
0101
0000
,
0010
0100
0010
0000
,
0100
0000
0110
0000
,
1000
0100
1000
0000
,
0001
0000
1001
0000
,
1000
1000
1000
1000
,
0001
0001
0001
0001
,
0010
0000
0000
0000
,
0110
0000
1001
0000
,
0001
0001
0000
0100
,
1000
1000
0000
0100
,
0010
0010
0000
0001
,
1000
0001
1000
0000
,
0001
0001
0000
1000
,
0100
0100
0000
0010
,
0001
0001
0000
0100
,
0010
0100
0010
0000
,
1000
1000
0000
0100
,
0001
0001
0000
0010
,
0100
0100
0000
1000
,
0010
1000
0010
0000
,
0100
0100
0000
0001
,
0100
0100
0000
1000
,
0100
0000
0010
0001
,
1000
0000
0100
0010
;

//--------------- dance-single - DJSuperNOVA ----------------
#NOTES:
     dance-single:
     DJSuperNOVA:
     Medium:
     12:
     0,0,0,0,0:
0000
0000
0000
0000
,
0000
0000
0000
0000
,
0000
0000
0000
0000
,
0000
0000
0000
0000
,
0000
0000
0000
0000
,
0000
0000
0000
0000
,
0000
0000
0000
1000
,
0001
0000
0000
1000
0001
0000
0001
0000
,
0100
0000
0010
1000
0010
0000
0100
0000
,
0001
0000
0000
1000
0001
0000
0001
0000
,
1000
0000
0100
1000
0100
0000
0010
0000
,
0001
0000
0000
0010
0001
0000
0001
0000
,
1000
0000
0010
0100
0001
0000
0100
0000
,
0100
0000
0000
0010
0100
0000
0010
0000
,
1000
0000
0000
0001
1000
0000
0001
0000
,
0100
0000
0000
0010
1000
0000
0001
0000
,
1000
0000
0001
0000
0100
0001
0100
0000
,
0010
0000
0000
1000
0100
0000
0010
0000
,
0001
0000
0100
0000
0010
0100
0010
0000
,
1000
0000
0000
0001
1000
0000
1010
0000
,
0100
0000
0000
0001
0100
0000
0101
0000
,
0001
0100
0010
0010
,
1000
0000
0000
0001
1000
0000
0010
0000
,
0110
0000
0000
0000
0000
0000
1000
0100
,
0010
0011
1100
1001
,
0110
0000
0000
0010
0100
0000
0001
0000
,
1000
1100
0100
0010
,
0001
0100
0000
0100
0010
0000
1000
0000
,
1001
0001
1000
1000
,
0010
0100
0000
0100
0001
0000
1000
0000
,
1100
0100
1000
0001
,
0101
0100
0010
1000
,
0001
0000
1100
0100
,
0010
0001
1000
1000
,
1000
0000
0000
0001
1000
0000
0010
0000
,
0110
0100
0001
1000
,
0001
0000
0110
0010
,
0001
0100
0010
1000
,
0001
1000
0000
0000
1000
0001
0000
0000
,
0110
0000
0000
0000
,
0010
0001
0000
0000
0001
1000
0000
0000
,
1100
0000
0000
0000
,
0010
1000
0000
0000
1000
0010
0000
0000
,
0110
0000
0000
0001
,
0010
0100
0000
0000
1000
0010
0000
0000
,
0101
0000
0000
0000
,
0001
0100
0000
0000
1000
0100
0000
0000
,
0110
0000
0000
0010
0000
0000
0001
0000
,
1001
0000
0000
0100
0000
0000
1000
0000
,
1001
0000
0000
0100
0000
0000
0010
0000
,
1010
0010
0101
0100
,
0001
0001
1000
1000
,
0010
0100
0010
0000
0100
0010
0100
0000
,
1001
0000
0000
0001
0010
0000
0100
0000
,
1000
0000
0110
1001
,
0001
1000
0001
1000
0000
0000
0100
0000
,
0010
0100
0010
0100
0000
0000
0001
0000
,
1000
0100
1000
0100
0000
0000
0010
0000
,
0100
0000
0010
0001
0000
1000
0001
0000
,
0010
0001
0010
0001
0000
0000
1000
0000
,
0001
0100
0001
0100
0000
0000
0010
0000
,
1000
0001
1000
0001
0000
0000
0100
0000
,
0001
0000
0010
0100
0010
0000
0100
0000
,
1001
0000
0001
1000
0001
0000
0010
0000
,
0011
0000
1000
0100
1000
0000
0010
0000
,
1010
0000
0100
0001
0100
0000
0010
0000
,
1010
0000
0001
0100
0010
0000
1000
0000
,
1001
0000
1000
0100
1000
0000
0010
0000
,
0110
0000
0001
0100
0001
0000
0010
0000
,
0110
0000
1000
0001
0100
0000
0001
0000
,
1000
0010
1000
0000
0001
0010
0001
0000
,
1001
0100
0001
1000
,
1001
0000
0110
0001
,
0100
0000
0000
0010
1000
0000
0100
0000
,
0010
0000
0011
1000
,
0010
0000
0000
0010
0100
0000
0001
0000
,
1000
0000
1001
0100
,
0010
0000
0000
0010
1000
0000
0001
0000
,
0100
0000
0000
0100
0001
0000
0100
0000
,
0110
0000
0000
0010
1000
0000
0100
0000
,
0010
0000
0011
0001
,
0100
0000
0000
0100
0010
0000
1000
0000
,
0001
0000
1001
0010
,
0100
0000
0000
0100
0010
0000
0001
0000
,
1000
0000
1001
0001
,
1000
1000
0001
0001
,
0010
0100
0010
0000
0100
0010
0100
0000
,
2002
0000
0000
3003
0000
0000
0000
0000
,
0000
0000
0110
0000
,
0001
1000
0001
1000
0000
0000
0100
0000
,
0010
0100
0010
0100
0000
0000
0001
0000
,
1000
0100
1000
0100
0000
0000
0010
0000
,
0100
0000
0010
0001
0000
1000
0001
0000
,
0010
0001
0010
0001
0000
0000
1000
0000
,
0001
0100
0001
0100
0000
0000
0010
0000
,
1000
0001
1000
0001
0000
0000
0100
0000
,
0001
0000
0010
0100
0010
0000
0100
0000
,
1001
0000
0001
1000
0001
0000
0010
0000
,
0011
0000
1000
0100
1000
0000
0010
0000
,
1010
0000
0100
0001
0100
0000
0010
0000
,
1010
0000
0001
0100
0010
0000
1000
0000
,
1001
0000
1000
0100
1000
0000
0010
0000
,
0110
0000
0001
0100
0001
0000
0010
0000
,
0110
0000
1000
0001
0100
0000
0001
0000
,
1001
0000
0110
1001
;

//--------------- dance-single - DJSuperNOVA ----------------
#NOTES:
     dance-single:
     DJSuperNOVA:
     Hard:
     14:
     0,0,0,0,0:
0000
0000
0000
0000
,
0000
0000
0000
0000
,
0000
0000
0000
0000
,
0000
0000
0000
0000
,
0000
0000
0000
0000
,
0000
0000
0000
0000
,
0000
0000
0000
1000
,
1001
0000
0001
1000
0001
0000
0100
0000
,
0010
1000
0001
0100
0010
1000
0100
0000
,
0010
0000
0001
1000
0010
0000
1000
0000
,
0010
0100
0010
1000
0100
0010
0100
0000
,
1000
0000
0001
1000
0100
0000
0010
0000
,
0001
0010
0001
0010
0100
1000
0100
0000
,
0001
0000
1000
0001
1000
0000
0100
0000
,
0010
0000
0001
0010
0001
0000
1000
0000
,
1001
0000
1000
0100
1000
0000
0001
0000
,
0100
0010
0100
0001
1000
0001
1000
0000
,
1000
0000
0100
1000
0100
0000
0010
0000
,
0001
0010
0001
0100
0010
1000
0010
0000
,
0010
0000
0100
0010
0100
0000
0001
0000
,
1001
0000
1000
0100
0010
0100
1000
0000
,
0010
1000
0100
0010
0001
0100
0010
0000
,
1000
0000
0001
1000
0001
0000
1000
0000
,
1001
0000
0000
0100
,
0110
0000
0010
0000
1001
0000
1000
0100
,
0010
0000
0001
0100
0010
0000
1000
0010
,
0001
0010
1000
0100
1000
0100
0010
0001
,
1000
0001
0000
0100
0001
0000
0100
0010
,
1000
0001
0010
0100
1000
0010
0100
0001
,
0010
0001
0000
1000
0100
0000
1000
0010
,
1000
0100
0010
0001
0100
0000
0110
0000
,
0010
1000
0010
0100
0010
0000
1010
0000
,
1000
0010
1000
0000
0001
1000
0001
0010
,
0001
0000
0011
0000
0001
0100
0001
0000
,
1001
0000
1000
0001
0100
0000
0010
0000
,
1000
0100
1000
0010
1000
0000
1100
0000
,
1000
0100
1000
0000
0001
0100
0001
0010
,
0001
0000
0101
0000
0001
0100
0001
0000
,
0010
1000
0000
0000
0010
0001
0000
0000
,
0011
0000
0000
0000
,
0010
0001
0000
0000
0010
1000
0000
0000
,
1010
0000
0000
0000
,
0100
1000
0000
0000
0001
0010
0000
0000
,
1100
0000
0000
0010
,
0100
0001
0000
0000
1000
0010
0000
0000
,
0101
0000
0000
0000
,
0001
0100
0000
0000
1000
0100
0000
0000
,
0001
0100
0100
0010
1000
1000
0100
0010
,
0001
0001
0100
0010
0010
1000
0001
0010
,
0100
0100
1000
0010
0010
0100
0001
1000
,
1000
0010
0100
0001
0010
0100
1000
0100
,
1000
0010
1000
0100
1000
0010
0001
0010
,
1000
0001
0100
1000
0100
0001
0010
0100
,
1000
0000
0000
0010
0100
0000
0001
0000
,
1000
0000
0110
1001
,
0101
0100
0010
1010
0000
1000
0100
0000
,
0011
0001
1000
1010
0000
0010
0100
0000
,
0110
0010
1000
1001
0000
0001
1000
0000
,
0001
1000
0100
0010
0001
0100
0010
1000
,
1010
0010
0100
0101
0000
0001
0010
0000
,
0110
0100
1000
1001
0000
0001
0100
0000
,
0101
0001
1000
1100
0000
0100
1000
0000
,
1000
0100
0010
0100
1000
0010
0100
0001
,
2000
0000
0001
0001
0000
0100
0100
0000
,
3020
0000
0001
0001
0000
1000
1000
0000
,
0130
0000
0010
0110
0000
0010
0100
0000
,
0110
0000
0001
0100
0001
1000
0010
0000
,
0110
0100
0001
1001
0000
1000
0010
0000
,
1010
0010
1000
1100
0000
0010
0001
0000
,
0011
0001
1000
0010
0100
0000
0110
0000
,
0010
1000
0010
1000
0100
0010
0001
0100
,
0010
0000
1000
0001
0010
0000
0001
1000
,
0010
0000
0100
0001
0010
0000
0100
0000
,
1000
0000
0001
0100
0001
0000
0100
0000
,
0100
0000
0001
0100
0010
0000
0100
0000
,
1001
0000
1000
0001
0010
0000
0001
0000
,
1000
0000
1000
0100
0010
0000
0100
0000
,
0110
0000
0010
0001
1000
0000
0001
0000
,
1001
0000
0100
0001
0010
0000
0100
0000
,
1100
0000
1000
0100
0010
0000
0001
0000
,
0100
0010
0100
0010
1000
0000
0001
0100
,
0001
0000
1000
0100
1000
0000
0010
0000
,
1010
0000
1000
0001
0010
0000
0100
0000
,
0110
0000
0100
1000
0001
0000
0100
0001
,
1000
0010
1001
0100
,
0010
0100
0001
0100
0010
1000
0100
0001
,
0100
1000
0010
0100
0001
0010
1000
0010
,
0001
0000
0000
0000
,
0000
2000
3001
0000
,
1100
0100
0010
0011
0000
0100
0010
0000
,
1010
1000
0001
0101
0000
0010
0100
0000
,
0110
0010
0001
1001
0000
1000
0001
0000
,
1000
0001
0100
0010
1000
0100
0010
0001
,
0011
0010
0100
1100
0000
0010
0100
0000
,
0110
0100
0001
1001
0000
0001
1000
0000
,
1100
1000
0001
0101
0000
0100
0001
0000
,
0001
0100
0010
0100
0001
0010
0100
1000
,
0002
0000
1000
1000
0000
0100
0100
0000
,
0023
0000
1000
1000
0000
0001
0001
0000
,
0130
0000
0010
0110
0000
0010
0100
0000
,
0110
0000
1000
0100
1000
0001
0010
0000
,
0110
0100
1000
1100
0000
0001
0010
0000
,
0011
0010
0001
0101
0000
0010
1000
0000
,
1010
1000
0001
0010
0100
0000
0110
0000
,
0001
0010
0100
1000
0001
0000
2002
0000
,
3003
0000
0000
0000
;

//--------------- dance-single - DJSuperNOVA ----------------
#NOTES:
     dance-single:
     DJSuperNOVA:
     Challenge:
     15:
     0,0,0,0,0:
0000
0000
0000
0000
,
0000
0000
0000
0000
,
0000
0000
0000
0000
,
0000
0000
0000
0000
,
0000
0000
0000
0000
,
0000
0000
0000
0000
,
0000
0000
0000
0001
,
1001
0000
1000
0001
1000
0000
0100
0000
,
0010
0001
1000
0100
0010
0001
0100
0000
,
0110
0000
1000
0001
0100
0000
0001
0000
,
0010
0100
0010
0001
0100
0010
0100
0000
,
1001
0000
0001
1000
0100
0000
0010
0000
,
0001
1000
0001
0010
0100
1000
0010
0000
,
0110
0000
1000
0001
0100
0000
0010
0000
,
0110
0000
1000
0010
0100
0000
0001
0000
,
1001
0000
1000
0100
1000
0000
0001
0000
,
0100
0010
0100
0001
1000
0100
0010
0000
,
0011
0000
0100
0001
0010
0000
0110
0000
,
0001
0010
0001
0100
0010
1000
0010
0000
,
0110
0000
0010
0100
0010
1000
0001
0000
,
1001
0000
1000
0100
0010
0100
1000
0000
,
0010
1000
0100
0010
0001
0100
0010
0000
,
1010
0000
1000
0010
0001
0000
1000
0000
,
1001
0000
0000
0000
0000
0000
0010
0100
,
0110
0000
1010
0000
0101
0000
1000
0100
,
0010
0000
0001
0100
0010
0000
1000
0010
,
0001
0010
1000
0100
1000
0100
0010
0001
,
1000
0001
0000
0001
0100
0000
0100
0010
,
1000
0001
0010
0100
1000
0010
0100
0001
,
0010
0001
0000
0001
0100
0000
0100
0010
,
1000
0100
0010
0001
0100
0000
0110
0000
,
0010
1000
0001
0100
0010
0000
1001
0000
,
1000
0010
1000
0100
0010
0001
1000
0100
,
0010
0000
0011
0000
0001
0100
0001
0000
,
1001
0000
1000
0001
0100
0000
0010
0000
,
1000
0100
1000
0010
1000
0000
1100
0000
,
1000
0001
0100
0001
0100
0010
1000
0010
,
0100
0000
0101
0000
0001
0100
0001
0000
,
0010
1000
0000
0000
0010
0001
0000
0000
,
0011
0000
0000
0010
0000
0000
0001
0000
,
0010
0100
0000
0000
1000
0100
0000
0000
,
1100
0000
0000
0100
0000
0000
1000
0000
,
0001
1000
0000
0000
0001
0010
0000
0000
,
1100
0000
0000
0010
0000
0000
0010
0000
,
0100
0001
0000
0000
1000
0010
0000
0000
,
0101
0000
0000
0001
0000
0000
0100
0000
,
0001
0100
0000
0000
1000
0100
0000
0000
,
0001
0000
0100
0000
0100
0000
0010
0000
1000
0000
1000
0000
0010
0100
0010
0000
,
1000
0000
1000
0000
0100
0000
0010
0000
0010
0000
0001
0000
0010
0001
0010
0000
,
0100
0000
0100
0000
1000
0000
0010
0000
0010
0000
0100
0000
0001
1000
0001
0000
,
1000
0010
0100
0001
0010
0100
1000
0100
,
1000
0100
1000
0000
0100
0000
0010
0000
0001
0010
0001
0000
0100
0000
0010
0000
,
1000
0001
1000
0000
0010
0000
0100
0000
0001
0100
0001
0000
0100
0010
0100
0000
,
0010
0000
0000
0010
0100
0000
0001
0000
,
1000
0000
0110
1001
,
0100
0001
0100
0000
0010
0000
1010
0000
0000
0000
0010
0000
1000
0000
0000
0000
,
0001
0010
0001
0000
1000
0000
1010
0000
0000
0000
0010
0000
0100
0000
0000
0000
,
0010
0100
0010
0000
1000
0000
1001
0000
0000
0000
1000
0000
0001
0000
0000
0000
,
1000
0001
1000
0000
0100
0000
0010
0000
0001
0000
0100
0000
0010
0000
1000
0000
,
0010
1000
0010
0000
0100
0000
0101
0000
0000
0000
0001
0000
0010
0000
0000
0000
,
0100
0010
0100
0000
1000
0000
1001
0000
0000
0000
0001
0000
0100
0000
0000
0000
,
0001
0100
0001
0000
1000
0000
1100
0000
0000
0000
0100
0000
1000
0000
0000
0000
,
1000
0001
0100
0000
0010
0000
0100
0000
0010
1000
0001
0000
0100
0000
0000
0000
,
2010
0000
0001
0001
0000
0100
3100
0000
,
0012
0000
0100
0100
0000
1000
1003
0000
,
0110
0000
0100
0110
0000
0001
1000
0000
,
0010
0100
0010
0000
1000
0000
0100
0000
0001
0000
0100
0000
1000
0000
0000
0000
,
0100
0010
0100
0000
0001
0000
0011
0000
0000
0000
1000
0000
0010
0000
0000
0000
,
0010
0100
0010
0000
1000
0000
1010
0000
0000
0000
0010
0000
0100
0000
0000
0000
,
0001
0100
0010
0000
1000
0000
0100
0000
0010
0000
0001
0000
0100
0000
0000
0000
,
1010
1000
0010
1000
0100
0010
0001
0100
,
0110
0000
1000
0001
0010
0000
0001
1000
,
0010
0000
0100
0001
0010
0000
0100
0000
,
1100
0000
0001
0100
0001
0000
0100
0000
,
0110
0000
0100
0001
0010
0000
0100
0000
,
1001
0000
1000
0001
0010
0000
0001
0000
,
1001
0000
1000
0100
0010
0000
0100
0000
,
0110
0000
0010
0001
1000
0000
0001
0000
,
1001
0000
0100
0001
0010
0000
0100
0000
,
1100
0000
1000
0100
0010
0000
0001
0000
,
0100
0010
0100
0010
1000
0000
0001
0100
,
0001
0000
1000
0100
1000
0000
0010
0000
,
1010
0000
1000
0001
0010
0000
0100
0000
,
0110
0000
0100
1000
0001
0000
0100
0001
,
1000
0010
1001
0100
,
0110
0000
0001
0100
0010
1000
0100
0001
,
0100
1000
0010
0100
0001
0010
1000
0010
,
0001
0000
0000
0000
,
0000
0000
0000
0000
0001
1000
0001
1000
0001
0000
0000
0000
0000
0000
0000
0000
,
0100
0001
0100
0000
0010
0000
0110
0000
0000
0000
0010
0000
1000
0000
0000
0000
,
0001
0010
0001
0000
1000
0000
1010
0000
0000
0000
0010
0000
0100
0000
0000
0000
,
0010
0100
0010
0000
1000
0000
1001
0000
0000
0000
1000
0000
0001
0000
0000
0000
,
1000
0001
1000
0000
0100
0000
0010
0000
0001
0000
0100
0000
0010
0000
1000
0000
,
0010
1000
0010
0000
0100
0000
0101
0000
0000
0000
0001
0000
0010
0000
0000
0000
,
0100
0010
0100
0000
1000
0000
1001
0000
0000
0000
0001
0000
0100
0000
0000
0000
,
0001
0100
0001
0000
1000
0000
1100
0000
0000
0000
0100
0000
1000
0000
0000
0000
,
1000
0001
0100
0000
0010
0000
0100
0000
0010
1000
0001
0000
0100
0000
0000
0000
,
2010
0000
0001
0001
0000
0100
3100
0000
,
0012
0000
0100
0100
0000
1000
1003
0000
,
0110
0000
0100
0110
0000
0001
1001
0000
,
0010
0100
0010
0000
1000
0000
0100
0000
0001
0000
0100
0000
0010
0000
0001
0000
,
0100
0010
0100
0000
0001
0000
0011
0000
0000
0000
1000
0000
0010
0000
0000
0000
,
0010
0100
0010
0000
1000
0000
1010
0000
0000
0000
0010
0000
0100
0000
0000
0000
,
0001
0100
0010
0000
1000
0000
0100
0000
0010
0000
0001
0000
0100
0000
0000
0000
,
0001
0010
0100
1000
0001
0000
2002
0000
,
3003
0000
0000
0000
;
