#TITLE:Alcohol-Free;
#SUBTITLE:;
#ARTIST:TWICE;
#TITLETRANSLIT:;
#SUBTITLETRANSLIT:;
#ARTISTTRANSLIT:;
#GENRE:;
#CREDIT:DJSuperNOVA;
#MUSIC:Alcohol-Free.ogg;
#BANNER:Alcohol-Free.png;
#BACKGROUND:Alcohol-Free-bg.png;
#CDTITLE:;
#SAMPLESTART:48.479;
#SAMPLELENGTH:19.794;
#SELECTABLE:YES;
#OFFSET:0.696;
#BPMS:0.000=194.000;
#STOPS:;
#BGCHANGES:;
#FGCHANGES:;

//--------------- dance-single - DJSuperNOVA ----------------
#NOTES:
     dance-single:
     DJSuperNOVA:
     Beginner:
     3:
     0,0,0,0,0:
0000
0000
0000
0000
,
0000
0000
0000
0000
,
0000
0000
0000
0000
,
0000
0000
0000
0000
,
0000
0000
0000
0000
,
0001
0000
0000
0000
,
1000
0000
0000
0000
,
1001
0000
0000
0000
,
0000
0000
0000
0000
,
1000
0000
0000
0000
,
1000
0000
0000
0000
,
0001
0000
0000
0000
,
0001
0000
0000
0000
,
0010
0000
0000
0000
,
0010
0000
0000
0000
,
0001
0000
0000
0000
,
1000
0000
0000
0000
,
0001
0000
0000
0000
,
0001
0000
0000
0000
,
1000
0000
0000
0000
,
1000
0000
0000
0000
,
0100
0000
0000
0000
,
1000
0000
0000
0000
,
0001
0000
0000
0000
,
1001
0000
0000
0000
,
0010
0000
0000
0000
,
0010
0000
0010
0000
,
0010
0000
0000
0000
,
0100
0000
0000
0000
,
0100
0000
0000
0000
,
0100
0000
0100
0000
,
0100
0000
0000
0000
,
0001
0000
0000
0000
,
1000
0000
0000
0000
,
0001
0000
0000
0000
,
1000
0000
1000
0000
,
1000
0000
0000
0000
,
0002
0000
0000
0000
,
0000
0000
0003
0000
,
1000
0000
0000
0000
,
0001
0000
0000
0000
,
1001
0000
0000
0000
,
0100
0000
0000
0000
,
0001
0000
0000
0000
,
0100
0000
0000
0000
,
1000
0000
0000
0000
,
0100
0000
0000
0000
,
1000
0000
0000
0000
,
0000
0000
0000
0000
,
0001
0000
0000
0000
,
0010
0000
0000
0000
,
1000
0000
0000
0000
,
0010
0000
0000
0000
,
0001
0000
0000
0000
,
0010
0000
0000
0000
,
0001
0000
1000
0000
,
1001
0000
0000
0000
,
0100
0000
0000
0000
,
0100
0000
0000
0000
,
0010
0000
0000
0000
,
0010
0000
0010
0000
,
0010
0000
0000
0000
,
1000
0000
0001
0000
,
1000
0000
0000
0000
,
0001
0000
1000
0000
,
0001
0000
0000
0000
,
1000
0000
0000
0000
,
0010
0000
0000
0000
,
0100
0000
0000
0000
,
0010
0000
0000
0000
,
0010
0000
0000
0000
,
2002
0000
0000
0000
,
3003
0000
0000
0000
,
1000
0000
0000
0000
,
0100
0000
0000
0000
,
0001
0000
0000
0000
,
0100
0000
0000
0000
,
1000
0000
0000
0000
,
0010
0000
0000
0000
,
1000
0000
0000
0000
,
0000
0000
0000
0000
,
0001
0000
0000
0000
,
0010
0000
0000
0000
,
1000
0000
0000
0000
,
0010
0000
0000
0000
,
0001
0000
0000
0000
,
0100
0000
0000
0000
,
0001
0000
0000
0000
,
1000
0000
1000
0000
,
1000
0000
0000
0000
,
0001
0000
0000
0000
,
0100
0000
0100
0000
,
0100
0000
0000
0000
,
0010
0000
0010
0000
,
0010
0000
0000
0000
,
1000
0000
0000
0000
,
0001
0000
0000
0000
,
0100
0000
0000
0000
,
0001
0000
0000
0000
,
0100
0000
1000
0000
,
0100
0000
0000
0000
,
0001
0000
0000
0000
,
1000
0000
0000
0000
,
0100
0000
0001
0000
,
1000
0000
0000
1000
0000
0000
1000
0000
;

//--------------- dance-single - DJSuperNOVA ----------------
#NOTES:
     dance-single:
     DJSuperNOVA:
     Easy:
     5:
     0,0,0,0,0:
0000
0000
0000
0000
,
0000
0000
0000
0000
,
0000
0000
0000
0000
,
0000
0000
0000
0000
,
0000
0000
0000
0000
,
0001
0000
0000
0000
,
1000
0000
0001
0000
,
1001
0000
0000
0000
,
1000
0000
0100
0000
,
1000
0000
0001
0000
,
0000
0000
0001
0000
,
0100
0000
0001
0000
,
0010
0000
0100
0000
,
1000
0000
0001
0000
,
0000
0000
0001
0000
,
1000
0000
0010
0000
,
0100
0000
0001
0000
,
0100
0000
0010
0000
,
0000
0000
0010
0000
,
1000
0000
0100
0000
,
1000
0000
0010
0000
,
0100
0000
0001
0000
,
0000
0000
0001
0000
,
1000
0000
0001
0000
,
1001
0000
1000
0000
,
0001
0000
0000
0000
,
1000
0000
0100
0000
,
1000
0000
0000
0000
,
0001
0000
0100
0000
,
0001
0000
0000
0000
,
0010
0000
0100
0000
,
0010
0000
1000
0000
,
0001
0000
0000
0000
,
1000
0000
1000
0000
,
0001
0000
0001
0000
,
0100
0000
0010
0000
,
0100
0000
0001
0000
,
2000
0000
3000
0000
,
0200
0000
0300
0000
,
0010
0000
0010
0000
,
0110
0000
0000
0000
,
0001
0001
1000
0000
,
0100
0000
1000
0000
,
0010
0010
0100
0000
,
0001
0000
1000
0000
,
0001
0001
1000
0000
,
0100
0000
0010
0000
,
0001
1000
0100
0000
,
0001
0000
0001
0000
,
1000
1000
0001
0000
,
0100
0000
1000
0000
,
0100
0100
0010
0000
,
0001
0000
0100
0000
,
0010
0010
1000
0000
,
0001
0100
0001
0000
,
1000
0000
0001
0000
,
1001
0000
1000
0000
,
0001
0100
0001
0000
,
1000
0100
1000
0000
,
0010
0000
0100
0000
,
0001
1000
0001
0000
,
1000
0000
0100
0000
,
1000
0000
0100
0010
,
0001
0000
0001
0000
,
0100
0010
1000
0000
,
0001
0000
1000
0000
,
0001
0000
0001
0000
,
0100
0000
0010
0000
,
1000
0000
1000
0000
,
0001
0000
0001
0000
,
1000
0000
1000
0000
,
0001
0010
0100
0000
,
1001
0000
0000
0000
,
1000
0001
1000
0000
,
0100
0000
0010
0000
,
0001
0100
0001
0000
,
0010
0000
0100
0000
,
1000
0010
0100
0000
,
0001
0000
0100
0000
,
0001
1000
0001
0000
,
1000
0000
0100
0000
,
0010
0100
0010
0000
,
0001
0000
0100
0000
,
0100
0010
1000
0000
,
0001
0000
1000
0000
,
0001
0100
0001
0000
,
1000
0100
1000
0000
,
0010
0000
0100
0000
,
0010
0000
0110
0000
,
1000
0100
1000
0000
,
0001
0000
1000
0000
,
0001
0100
0001
0000
,
1000
0100
1000
0000
,
0010
0100
0010
0000
,
1000
0010
1000
0000
,
0001
0000
0100
0000
,
0010
0000
1000
0000
,
0001
0100
0010
0000
,
1000
0100
0010
0000
,
0001
1000
0100
0000
,
1000
0001
0100
0000
,
0001
1000
0010
0000
,
1000
0001
0010
0000
,
0001
0000
1000
0000
0000
0001
0000
1000
,
0001
0000
0000
0110
0000
0000
1001
0000
;

//--------------- dance-single - DJSuperNOVA ----------------
#NOTES:
     dance-single:
     DJSuperNOVA:
     Medium:
     7:
     0,0,0,0,0:
0000
0000
0000
0000
,
0000
0000
0000
0000
,
0000
0000
0000
0000
,
0000
0000
0000
0000
,
0000
0000
0000
0000
,
1000
0000
1000
0000
0000
0001
0000
0000
,
0100
0010
0010
1000
,
1001
0000
0000
0000
,
1000
0000
0001
0000
,
1000
0100
1000
0000
,
0001
0100
0001
0010
,
0100
0100
0010
0000
,
0001
0100
0001
0000
,
1000
0010
1000
0100
,
0010
0010
0001
0000
,
1000
0001
1000
0000
,
0001
0100
0010
1000
,
0100
0100
1000
0000
,
0001
0100
1000
0000
,
1000
0100
0001
0100
,
0001
0010
0100
1000
,
0010
0010
0100
0000
,
0001
1000
0001
1000
,
0100
0000
0100
0000
,
0010
0001
0010
0001
,
1000
0000
0000
0001
1000
0000
0100
0000
,
1000
0000
0000
0010
0100
0000
0001
0000
,
0100
0000
0000
0010
1000
0000
0001
0000
,
1000
0000
0000
0001
1000
0000
0001
0000
,
1000
0000
0100
0010
,
0001
0000
0100
0010
,
1000
0000
0001
0000
,
0100
0010
0100
0010
,
1000
0000
0100
0000
,
0001
0000
0100
0000
,
0110
0000
1010
0000
,
0101
0000
0002
0000
,
2000
0000
0000
0000
,
3003
0000
0000
0000
,
0100
0010
0100
0010
,
0110
0010
0100
0100
,
1000
0000
0001
0000
1000
0001
0000
0000
,
1000
0100
0010
0000
,
0001
0000
0100
0000
0001
0100
0000
0000
,
0001
0100
0010
0000
,
1000
0000
0100
0000
1000
0100
0000
0000
,
0010
0001
1000
0000
,
0001
0000
0100
0000
0001
0100
0000
0000
,
0010
1000
0001
1000
,
1001
0000
0001
0000
1000
0001
0000
0000
,
0100
0010
1000
0000
,
1000
0000
0010
0000
0100
0010
0000
0000
,
1000
0001
1000
0000
,
0010
0000
0001
0000
0010
0001
0000
0000
,
1000
0001
0100
0010
,
1000
1001
0001
1000
,
0100
0010
0001
0000
,
1000
0100
1000
0000
,
0001
0100
0010
1000
,
0001
0001
1000
0000
,
0001
1000
0100
0010
,
0110
0001
1000
0000
,
0001
0100
0010
0000
,
1000
0010
1000
0010
,
0100
0001
1001
1000
,
0001
0000
0000
0100
0010
0000
0000
0000
,
1000
0100
0010
0001
,
0100
0000
0000
0100
0010
0000
0000
0000
,
1000
0001
0100
0010
,
1000
1000
0001
0001
,
0100
0100
0010
0010
,
1000
0100
0010
0001
,
1001
1000
0001
0001
,
1000
0000
0001
0000
1000
0001
0000
0000
,
1000
0100
0010
0000
,
0001
0000
0100
0000
0001
0100
0000
0000
,
0001
0100
0010
0000
,
1000
0000
0100
0000
1000
0100
0000
0000
,
0010
0001
1000
0000
,
0001
0000
0100
0000
0001
0100
0000
0000
,
0010
1000
0001
1000
,
1001
0000
0001
0000
1000
0001
0000
0000
,
0100
0010
1000
0000
,
1000
0000
0100
0000
0010
0001
0000
0000
,
1000
0001
1000
0000
,
0010
0000
0100
0000
0010
0100
0000
0000
,
0001
1000
0100
0010
,
0001
0000
1000
0000
0001
0100
0000
0000
,
0010
0010
0100
0100
,
1001
0000
0001
0000
0000
1000
0000
1000
,
0000
0000
0010
0000
,
0100
0000
0100
0000
0000
0001
0000
0000
,
1000
0000
1000
0000
0000
0100
0000
0000
,
0010
0000
0010
0000
0000
0001
0000
0001
,
0000
0000
0000
0000
1000
0001
0000
0000
,
1000
0000
0001
0000
0100
0000
0000
0100
,
0010
0100
0010
0000
,
1001
1000
0001
0000
,
0001
0100
0001
0010
,
0100
1000
0010
0000
,
1000
0010
0100
0001
,
1000
0100
1000
0000
,
0001
0100
0001
0010
,
0100
0000
1000
0000
0001
1000
0000
1000
,
0001
0000
0000
0110
0000
0000
2002
0000
,
3003
0000
0000
0000
;

//--------------- dance-single - DJSuperNOVA ----------------
#NOTES:
     dance-single:
     DJSuperNOVA:
     Hard:
     13:
     0,0,0,0,0:
0000
0000
0000
0000
,
0000
0000
0000
0000
,
0000
0000
0000
0000
,
0000
0000
0000
0000
,
0000
0000
0000
0000
,
0001
0000
0001
0000
1000
0001
0000
0100
,
0001
0000
0100
0000
0010
0100
0000
0100
,
0010
0000
0000
0000
0000
0000
1000
0100
,
0010
0000
0010
0001
0000
1000
0000
0001
,
0100
0000
0100
0000
0001
1000
0000
0100
,
1000
0000
0010
0000
0100
0010
0000
0010
,
0100
0000
0001
0000
1000
0001
0000
1000
,
0001
0000
1000
0010
0000
0100
0001
1000
,
0010
0000
0010
0000
1000
0100
0000
0010
,
0001
0000
1000
0010
0100
0010
0000
0010
,
1000
0000
0001
0000
0100
0010
0000
1000
,
0001
0000
0001
0010
0000
0010
0100
0010
,
0100
0000
0110
0000
0010
0001
0000
1000
,
0100
0000
1000
0000
0001
1000
0000
1000
,
0100
0000
1000
0000
0010
0100
0000
0001
,
0100
0001
0010
0001
1000
0001
0000
0100
,
0010
0000
0010
1000
0100
0010
0000
0010
,
0001
0000
0001
1000
0100
1000
0000
1000
,
0001
0000
1000
0100
0010
0100
0000
0100
,
1000
0000
1000
0001
0100
0001
1000
0100
,
0010
0000
0000
0000
0010
0000
0001
0010
,
0001
0000
1000
0100
1000
0010
0000
0010
,
0100
0000
0000
0000
0100
0000
0001
1000
,
0001
0000
0001
0010
0100
1000
0000
1000
,
0010
0000
0000
0000
0010
0000
1000
0001
,
0100
0000
0100
0001
0000
1000
0000
0100
,
0010
0000
0000
0000
0010
0000
0001
0100
,
0001
0000
1000
0001
0000
1000
0000
0001
,
0100
0000
0000
0000
0100
0010
1000
0010
,
0100
0000
0100
0001
0000
1000
0000
0000
,
1001
0000
0011
0000
,
0110
0000
2100
0000
,
0002
0000
0000
0000
,
3003
0000
0001
1000
,
0001
0000
1000
0000
0001
0000
1000
0000
0010
0000
0100
0000
0010
1000
0010
1000
,
0010
0010
1000
0001
,
1001
0000
1001
0000
0001
0100
0010
1000
,
0001
1000
0100
0010
0001
0000
1000
0100
,
1000
0000
0001
0000
0100
0001
0010
0100
,
1000
0000
0001
0100
0001
1000
0000
1000
,
0010
0000
0010
0100
0001
0010
0001
1000
,
0010
1000
0100
0010
0001
0000
1000
0010
,
1000
0000
1000
0000
1001
0000
0001
0100
,
0010
1000
0100
1000
0100
0010
0001
1000
,
0001
0000
1001
0000
0001
0100
0010
1000
,
0010
1000
0100
0010
0001
0000
1000
0100
,
1000
0000
0001
0000
0100
0001
0010
0001
,
1000
0000
0010
0100
0010
1000
0100
0010
,
0001
0000
0011
0000
0001
0010
0100
0010
,
0001
1000
0100
1000
0010
0000
0010
0100
,
0001
0000
1001
0000
0001
1000
0000
1000
,
0100
0010
0001
1000
0001
0100
0010
1000
,
0001
1000
0001
0000
0001
0100
0010
1000
,
0010
0100
0010
1000
0100
0010
0001
1000
,
0100
1000
0010
0100
0010
1000
0000
1000
,
0001
1000
0100
0010
0001
1000
0001
0010
,
0001
0011
1000
1001
,
0000
0001
0100
0001
1000
0010
0100
0001
,
1000
1100
0010
0011
,
0010
0001
0010
0001
1000
0100
1000
0100
,
0010
0000
0010
0001
0100
0000
0001
0000
,
1000
0000
0010
1000
0100
0010
0100
1000
,
0001
0000
0001
0100
0010
0000
1000
0000
,
0001
0000
1000
0001
0100
0010
0100
0001
,
1000
1000
0001
0001
,
0100
0010
0100
0010
1000
0100
1000
0100
,
0010
0001
1000
0010
0100
0001
0010
0100
,
1000
0010
0100
0010
,
0110
0000
0110
0000
0001
0100
0010
1000
,
0001
1000
0100
0010
0001
0000
1000
0010
,
0100
0000
0001
0000
0100
0001
0010
0100
,
1000
0000
0001
0010
0001
0100
0000
0100
,
0010
0000
0010
0100
0001
0010
0001
1000
,
0010
1000
0100
0010
0100
0000
0100
0010
,
0001
0000
0100
0000
0101
0000
0001
0100
,
0010
1000
0100
1000
0100
0010
0001
1000
,
0001
0000
1001
0000
0001
0100
0010
1000
,
0010
1000
0100
0010
0001
0000
1000
0100
,
1000
0000
0001
0000
0100
0001
1000
0001
,
0100
0000
0010
0100
0010
1000
0100
0010
,
0001
0000
0011
0000
0001
0010
0100
0010
,
0001
1000
0100
1000
0010
0000
0010
0100
,
0001
0000
0101
0000
0001
0010
0100
1000
,
0001
1000
0100
1000
0001
0010
0100
1000
,
0010
0000
0110
0000
0100
0001
0000
0001
,
1000
0000
1100
0000
0010
0001
0000
0001
,
0100
0000
0110
0000
0010
1000
0000
1000
,
0010
0000
1010
0000
0100
0001
0000
0001
,
1000
0000
1001
0000
0001
0010
0100
1000
,
0001
0000
1001
0000
1000
0100
0010
0001
,
1000
0000
1001
0000
0001
0100
0000
0010
,
1000
0000
1010
0000
1000
0100
0010
0001
,
1000
0000
0001
2000
0000
0100
0000
0000
,
0001
0000
3001
0000
0100
0010
0100
0010
,
1000
0000
1001
0000
0001
0100
0001
1000
,
0001
1000
0100
0010
0001
0100
0000
0100
,
0010
0000
0100
0002
0000
1000
0000
0000
,
0100
0000
0103
0001
0000
0001
1000
0001
,
1000
0000
1001
0000
1000
0010
0000
0100
,
0001
0000
0000
0110
0000
0000
2002
0000
,
3003
0000
0000
0000
;
