#TITLE:ALIEN;
#SUBTITLE:;
#ARTIST:이수현;
#TITLETRANSLIT:ALIEN;
#SUBTITLETRANSLIT:;
#ARTISTTRANSLIT:LEE SUHYUN;
#GENRE:;
#CREDIT:DJSuperNOVA;
#MUSIC:ALIEN.ogg;
#BANNER:ALIEN.png;
#BACKGROUND:ALIEN-bg.png;
#CDTITLE:;
#SAMPLESTART:54.375;
#SAMPLELENGTH:22.500;
#SELECTABLE:YES;
#OFFSET:-0.000;
#BPMS:0.000=128.000;
#STOPS:;
#BGCHANGES:-2.345=ALIEN.avi=1.000=0=0=0=StretchNoLoop====,
99999.000=-nosongbg-=1.000=0=0=0=StretchNoLoop====
;
#FGCHANGES:;

//--------------- dance-single - DJSuperNOVA ----------------
#NOTES:
     dance-single:
     DJSuperNOVA:
     Beginner:
     1:
     0,0,0,0,0:
0000
0000
0000
0000
,
0000
0000
0000
0000
,
0000
0000
0000
0000
,
0000
0000
0000
0000
,
0000
0000
0000
0000
,
0001
0000
0000
0000
,
0001
0000
0000
0000
,
1000
0000
0000
0000
,
1000
0000
0000
0000
,
0010
0000
0000
0000
,
0010
0000
0000
0000
,
0100
0000
0000
0000
,
0100
0000
0000
0000
,
0001
0000
0000
0000
,
0001
0000
0000
0000
,
1000
0000
0000
0000
,
1000
0000
0000
0000
,
0100
0000
0000
0000
,
0010
0000
0000
0000
,
0100
0000
0000
0000
,
0010
0000
0000
0000
,
2002
0000
0000
0000
,
3003
0000
0000
0000
,
1000
0000
0000
0000
,
1000
0000
0000
0000
,
2002
0000
0000
0000
,
3003
0000
0000
0000
,
0001
0000
0000
0000
,
0001
0000
0000
0000
,
1000
0000
1000
0000
,
1000
0000
0000
0000
,
0001
0000
0001
0000
,
0001
0000
0000
0000
,
0100
0000
0100
0000
,
0100
0000
0000
0000
,
0010
0000
0010
0000
,
0010
0000
0000
0000
,
1000
0000
0000
0000
,
0001
0000
0000
0000
,
1000
0000
0000
0000
,
0001
0000
0000
0000
,
0010
0000
0010
0000
,
0010
0000
0000
0000
,
1000
0000
0001
0001
,
0000
1000
1000
0000
,
0000
0010
0000
0000
,
0010
0000
0010
0000
,
0010
0000
0000
0000
,
0100
0000
0000
0000
,
1001
0000
0000
0000
,
1000
0000
0000
0000
,
0001
0000
0000
0000
,
1000
0000
1000
0000
,
1000
0000
0000
0000
,
0001
0000
0000
0000
,
1000
0000
0000
0000
,
0001
0000
0001
0000
,
1000
0000
1000
0000
,
1000
0000
0000
0000
,
0010
0000
0010
0000
,
0010
0000
0000
0000
,
0100
0000
0100
0000
,
0100
0000
0000
0000
,
0001
0000
0001
0000
,
1000
0000
1000
0000
;

//--------------- dance-single - DJSuperNOVA ----------------
#NOTES:
     dance-single:
     DJSuperNOVA:
     Easy:
     4:
     0,0,0,0,0:
0000
0000
0000
0000
,
0000
0000
0000
0000
,
0000
0000
0000
0000
,
0000
0000
0000
0000
,
0000
0000
0000
0000
,
0001
0000
1000
0000
,
0001
0001
0001
0000
,
0100
0000
0010
0000
,
1000
1000
1000
0000
,
0010
0000
1000
0000
,
0001
0001
0001
0000
,
0010
0000
0100
0000
,
1000
1000
1000
0000
,
0001
0000
0001
0000
,
1000
1000
1000
0000
,
0100
0000
0100
0000
,
0010
0010
0010
0000
,
0001
0000
0001
0000
,
1000
1000
1000
0000
,
0010
0000
0010
0000
,
0100
0100
0100
0000
,
2002
0000
0000
0000
,
3003
0000
0000
0000
,
1000
0000
1000
0000
,
0001
0000
0001
0000
,
0020
0000
0000
0000
,
0030
0000
0000
0000
,
0100
0000
0100
0000
,
1000
0000
0001
0000
,
1000
0000
1000
0000
,
0001
0000
0001
0001
,
0100
0000
0100
0000
,
0010
0000
0010
0010
,
1000
0000
1000
0000
,
0001
0100
0001
0000
,
0010
0000
0010
0000
,
1000
1000
0001
1000
,
0001
0000
0001
0000
,
1000
0100
1000
0000
,
1000
0000
0001
0000
,
0001
0100
0001
0000
,
0001
0001
0001
0000
,
1000
1000
1000
0000
,
0000
0100
0010
0010
,
0100
0010
0010
0000
,
1000
0100
1000
0000
,
0001
0001
1000
0001
,
1000
0000
0000
0000
,
1000
1000
0001
0001
,
1001
0000
0100
0000
,
0001
0000
0100
0000
,
1000
1000
0001
0000
,
0001
0001
1000
0000
,
0001
0000
0100
0000
,
1000
0000
0100
0000
,
0001
0001
1000
0000
,
1000
1000
0001
0000
,
1000
0000
1000
0000
,
0001
0000
0001
0001
,
0100
0000
0100
0000
,
0010
0000
0010
0010
,
1000
0000
0100
0000
,
1000
0100
1000
0000
,
0001
0000
0100
0000
,
0001
1000
0001
1000
;

//--------------- dance-single - DJSuperNOVA ----------------
#NOTES:
     dance-single:
     DJSuperNOVA:
     Medium:
     6:
     0,0,0,0,0:
0000
0000
0000
0000
,
0000
0000
0000
0000
,
0000
0000
0000
0000
,
0000
0000
0000
0000
,
0000
0000
0000
0000
,
1000
0100
0100
0001
,
0100
0100
0010
1000
,
0001
0000
1000
0000
,
0001
0100
1000
1001
,
0001
0000
1000
0000
,
0001
0010
0100
0100
,
1000
0010
0100
0100
,
0001
1000
0001
1001
,
1000
0100
0001
0100
,
0001
0001
1000
1000
,
0001
0100
1000
0100
,
0001
0001
1000
1000
,
0001
0010
0001
1000
,
0010
1000
0100
0010
,
0010
0001
1000
0100
,
0100
0010
0001
0100
,
0120
0000
0000
0000
0000
1000
0000
2030
,
0000
0000
0000
0000
0000
0001
0000
3002
,
0000
0000
0000
0000
,
0000
0000
0000
0100
0000
0000
0000
0000
,
0203
0000
0000
0000
0000
0010
0000
0320
,
0000
0000
0000
0000
0000
1000
0000
2000
,
0000
0000
0000
0000
,
3030
0000
0000
0000
,
1000
0100
0001
0100
,
1000
0100
0001
1001
,
0001
0100
1000
0100
,
0001
0100
1000
1001
,
0001
0000
0100
0000
0001
0010
0001
0000
,
1000
0000
0100
0000
1000
0010
1000
0000
,
0001
0010
1000
0010
,
0001
0000
0010
0000
1000
0001
1000
0000
,
0001
0001
1000
1000
,
0001
1000
0001
1001
,
0100
0100
0010
0010
,
0100
0010
0100
0110
,
0001
1000
0100
1000
,
0010
0001
0010
0100
,
0000
0001
0011
0011
,
1000
1010
2020
3030
,
0001
0100
1000
0010
,
0001
0100
1000
0100
,
0001
0000
0000
0000
0000
0001
0001
0000
,
1000
1000
0001
0001
,
0110
0000
1000
0000
,
0001
0100
1000
0100
,
0010
0010
0010
0001
,
0100
0100
0100
1001
,
0001
0010
1000
0010
,
0001
0010
1000
1001
,
0001
0100
1000
0100
,
0001
0100
1000
1001
,
0100
0010
0001
0100
,
0010
1000
1001
1001
,
0001
0100
0010
1000
,
0100
0010
1001
1001
,
1000
0001
0100
0001
,
1000
0100
1000
0010
,
0100
0100
0010
0010
,
1000
0001
0110
1001
;

//--------------- dance-single - DJSuperNOVA ----------------
#NOTES:
     dance-single:
     DJSuperNOVA:
     Hard:
     11:
     0,0,0,0,0:
0000
0000
0000
0000
,
0000
0000
0000
0000
,
0000
0000
0000
0000
,
0000
0000
0000
0000
,
0000
0000
0000
0000
,
1000
0000
0000
0001
1000
0000
0001
0000
0100
0000
0010
0000
1000
0000
0010
0000
,
0000
1000
0000
0010
0000
0100
0001
0010
,
0001
0000
0000
1000
0001
0000
1000
0000
0100
0000
1000
0000
0010
0000
0100
0000
,
0000
0010
0100
0001
0000
1000
1001
0000
,
0100
0000
0000
0010
1000
0000
0010
0000
0100
0000
0010
0000
1000
0000
0001
0000
,
0000
0001
1000
0100
0010
0001
1000
0001
,
0100
0000
0000
0010
0100
0000
0010
0000
1000
0000
0100
0000
0001
0000
0100
0000
,
1000
0000
0010
0000
0100
0000
0010
0000
1000
0000
0001
1000
0001
0000
0000
0000
,
1001
0000
1100
0000
0010
0001
0100
0001
,
0010
0100
1000
0010
1000
0100
1000
0010
,
1010
0000
0101
0000
0100
0001
0010
0100
,
0010
0001
1000
0010
1000
0100
0001
0100
,
0000
0010
0001
0100
0000
0010
1000
0100
,
1000
0010
1000
0001
0000
0001
0100
0010
,
1000
0000
0001
0000
1000
0000
0001
0000
0000
0000
0000
0000
1001
0000
1000
0001
,
1000
0000
0100
0000
0010
0000
0001
0000
0100
0000
0010
0100
0010
0000
1000
0000
,
2020
0000
0000
0000
3000
0100
0000
0200
,
0000
0000
0000
0000
0000
0000
0000
0000
0030
0000
0301
0000
0000
0000
0001
0100
,
0001
1000
0100
0010
0000
0010
0001
0010
,
0000
0100
1000
0020
0000
0200
0330
0000
,
0002
0000
0000
0000
0000
0200
0003
0020
,
0000
0000
0000
0000
0300
1000
1030
0010
,
0100
0001
1000
0010
0000
0010
1000
0100
,
0000
0000
0100
0000
0010
0000
0001
0000
1000
0000
0001
1000
0001
0000
0000
0000
,
2001
3100
1002
0103
,
1020
0000
0031
0000
0021
0001
1030
0000
,
1002
0013
2001
3010
,
1020
0000
0031
0000
0021
0001
1030
0000
,
0001
0000
1000
0001
1000
0000
0100
0000
0010
0000
0001
0000
1000
0000
0100
0000
,
1000
0010
0100
0001
0010
0001
1000
0010
,
1020
0000
0031
0000
0021
0000
1030
0100
,
1000
0000
0002
0000
0100
0000
0000
0000
1003
0000
0000
1000
0001
0000
1000
0000
,
1001
0000
0110
0000
1000
0001
0100
0001
,
1000
0010
0100
0010
1000
0010
1000
0010
,
0100
0000
0000
0001
0100
0000
0010
0000
1000
0000
0100
0000
0010
0000
0001
0000
,
1000
0000
0001
0000
1000
0000
0100
0000
0010
0000
0001
0010
0001
0000
0000
0000
,
0021
0000
0100
0000
0031
0000
1000
0100
,
1000
0010
0100
0010
1000
0100
0010
0000
,
0110
0000
0001
0100
0110
0000
0110
0000
,
1000
0100
0110
0000
0220
0000
0330
0000
,
0010
0000
0000
0010
0001
0000
0100
0000
0001
0000
0100
0000
0010
0000
1000
0000
,
0010
1000
0100
0010
0001
1000
0200
0000
,
0300
0000
0000
0000
0000
0100
0001
0100
,
1000
0100
0010
0100
1000
0100
0001
0100
,
0010
0000
0000
0010
0001
0000
0100
0000
0001
0000
0100
0000
0010
0000
1000
0000
,
0100
1000
0010
0001
0010
1000
0100
0010
,
0001
0000
0000
1000
0001
0000
0010
0000
0100
0000
0010
0000
0100
0000
1000
0000
,
0100
0001
0100
1000
0010
0100
0001
0000
,
0101
0000
0000
0001
0100
0000
0010
0000
1000
0000
0010
0000
0001
0000
0010
0000
,
0100
0010
1000
0100
0010
0100
0001
0100
,
0010
0000
0110
0010
0001
0100
0010
1000
,
0010
0000
0100
0000
0010
0000
1000
0000
0100
0000
0010
0100
0010
0000
0100
0000
,
0012
0103
2010
3100
,
1020
0000
0031
0000
0021
0001
0130
0000
,
0102
0013
2100
3010
,
0021
0000
1030
0000
1020
1000
0130
0000
,
0110
0000
1000
0100
0010
0100
0010
0001
,
1000
0001
0100
0010
1000
0010
0100
0001
,
0201
1300
1200
0301
,
0120
0000
0130
1000
0100
0010
0001
0000
;
