#TITLE:EGG;
#SUBTITLE:;
#ARTIST:Nauts;
#TITLETRANSLIT:;
#SUBTITLETRANSLIT:;
#ARTISTTRANSLIT:;
#GENRE:Light Pop;
#CREDIT:xXMokou98Xx;
#BANNER:[TECHNIKA 3] EGG [xXMokou98Xx].png;
#BACKGROUND:[TECHNIKA 3] EGG [xXMokou98Xx]-bg.png;
#LYRICSPATH:;
#CDTITLE:cdtitle.png;
#MUSIC:[TECHNIKA 3] EGG [xXMokou98Xx].mp3;
#OFFSET:2.100;
#SAMPLESTART:46.860;
#SAMPLELENGTH:14.740;
#LASTBEATHINT:3.227;
#SELECTABLE:YES;
#BPMS:0.000=176.000
,336.000=88.000
,338.000=44.000
;
#STOPS:
;
#BGCHANGES:0.000=[TECHNIKA 3] EGG [xXMokou98Xx].avi=1.000=0=0=0=StretchNoLoop====,
99999=-nosongbg-=1.000=0=0=0 // don't automatically add -songbackground-
;
#KEYSOUNDS:;
#ATTACKS:;

//---------------dance-single - ----------------
#NOTES:
     dance-single:
     :
     Easy:
     5:
     0.249,0.317,0.000,0.215,0.008,184.000,0.000,26.000,0.000,0.000,0.000,0.249,0.317,0.000,0.215,0.008,184.000,0.000,26.000,0.000,0.000,0.000:
0000
0000
0000
0000
,
0000
0000
0000
0000
,
0010
0000
0000
0010
0000
0010
0000
0000
,
0100
0000
0000
0100
0000
0100
0000
0200
,
0000
0000
0000
0300
,
1000
1000
1000
0000
,
0100
0000
0000
0100
0000
0100
0000
0000
,
0010
0000
0000
0010
0000
0000
0010
0000
,
1000
0000
0000
1000
0000
0000
1000
0000
,
0000
0001
0000
0000
0001
0000
0001
0000
,
0020
0000
0000
0000
,
0030
0000
0000
0000
,
1000
0000
0000
1000
0000
0000
0000
1000
,
0000
0000
1000
1000
,
0001
0000
0000
0001
0000
0000
0000
0001
,
0000
0000
0001
0001
,
0100
0000
0000
0100
0000
0000
0000
0100
,
0000
0000
0000
0100
0000
0000
0000
0000
,
0010
0000
0000
0010
0000
0010
0000
0010
,
0000
0000
0010
0000
,
0001
0000
0000
0001
0000
0000
0000
0001
,
0000
0000
0001
0001
,
1000
0000
0000
1000
0000
0000
0000
1000
,
0000
0000
1000
1000
,
0010
0000
0000
0010
0000
0000
0000
0010
,
0000
0000
0000
0010
0000
0000
0000
0000
,
0100
0000
0000
0100
0000
0100
0000
0100
,
0000
0000
0100
0000
,
0000
1000
0000
1000
,
0000
0001
0200
0001
,
0300
0100
0000
0100
,
0000
0010
0002
0010
,
0103
1000
0000
1000
,
0000
0010
0002
0010
,
0003
0000
0001
0000
0000
0000
0001
0100
,
0000
0100
0000
0100
0100
0000
0000
0000
,
0010
0010
0010
0010
,
1000
1000
1000
1000
,
0002
0000
0000
0000
,
0203
0000
0000
0000
,
0301
0001
0001
0001
,
1000
1000
1000
1000
,
0200
0000
0000
0000
,
0000
0000
0000
0000
,
0301
0001
1000
1000
,
0100
0100
0010
0010
,
2000
0000
0000
0000
,
3002
0000
0000
0000
,
0013
0010
0100
0100
,
0001
0001
1000
1000
,
0002
0000
0000
0000
,
0000
0000
0000
0000
,
0103
0100
0001
0001
,
1000
1000
0010
0010
,
2000
0000
3002
0000
,
0103
0100
0100
0000
,
0100
0000
0000
0100
0000
0000
0100
0000
,
0001
0000
0000
0001
0000
0000
0001
0000
,
0020
0000
0000
0000
,
0000
0000
0000
0000
,
0230
0000
0000
1300
,
1000
0000
0010
0010
0000
0010
0000
0002
,
0000
0000
0000
0000
,
0000
0000
0000
0000
0000
2003
0000
0000
,
3100
0000
0100
0200
0000
0000
0000
0000
,
0000
0000
0000
0000
0300
0002
0000
0000
,
2003
0000
0000
0000
,
0000
0000
0000
3000
,
0002
0000
0000
0003
,
0200
0000
0000
0300
,
0020
0000
0000
0000
,
0000
0000
0000
0030
,
0000
1000
0000
1000
,
0000
0001
0000
0001
,
0200
0000
0000
0000
,
0000
0000
0000
0000
,
1300
1000
0001
0001
,
0010
0010
0100
0100
,
0000
0001
0000
0001
,
0000
1000
0000
1000
,
0200
0000
0000
0000
,
0000
0000
0000
0300
,
0020
0000
0000
0000
,
1030
0000
0000
0000
,
0010
0000
0000
0000
0000
0000
0010
0000
0000
0000
0000
0000
0100
0000
0000
0000
0000
0100
0000
0000
1000
0000
0000
0000
1000
0000
0000
0000
0000
0000
0000
0000
,
0001
0000
0000
0000
;

//---------------dance-single - Copied from----------------
#NOTES:
     dance-single:
     Copied from:
     Medium:
     6:
     0.376,0.564,0.033,0.224,0.008,287.000,4.000,27.000,0.000,0.000,0.000,0.376,0.564,0.033,0.224,0.008,287.000,4.000,27.000,0.000,0.000,0.000:
0000
0000
0000
0000
,
0000
0000
0000
0000
,
0100
0000
0001
0100
0000
0200
0000
0300
,
0010
0000
1000
0010
0000
0010
0000
0020
,
0000
0000
0000
0030
,
0001
1000
0000
0100
0000
0010
0000
0000
,
0010
0000
1000
0010
0000
0020
0000
0030
,
0100
0000
0001
0100
0000
0000
0100
0000
,
0001
0000
1000
0001
0000
1000
0001
0000
,
0200
1300
0000
0100
1000
0000
1100
0000
,
0200
0000
0000
0000
,
0310
1000
0000
0001
0000
0100
0000
0000
,
0001
0000
0000
0001
0000
0000
0000
0001
,
0000
0000
0001
0001
,
1000
0000
0000
1000
0000
0000
0000
1000
,
0000
0000
1000
1000
,
0010
0000
0000
0010
0000
0000
0000
0010
,
0000
0000
0000
0010
0000
0000
0000
0000
,
0100
0000
0000
0100
0000
0100
0000
0100
,
0000
0000
0100
0000
,
1000
0000
0000
1000
0000
0000
0000
1000
,
0000
0000
1000
1000
,
0001
0000
0000
0001
0000
0000
0000
0001
,
0000
0000
0001
0001
,
0100
0000
0000
0100
0000
0000
0000
0100
,
0000
0000
0000
0100
0000
0000
0000
0000
,
0010
0000
0000
0010
0000
0010
0000
0010
,
0000
0000
0010
0000
,
1000
0000
0001
0100
0000
0000
0001
0100
,
0100
0000
1000
0100
0120
0000
1000
0030
,
0001
0000
0010
0001
0000
0000
0010
0001
,
0001
0000
0100
0001
2001
0000
0100
0000
,
3010
0000
0001
0010
0000
0000
0001
0010
,
0010
0000
0100
0010
0012
0000
0100
0000
,
1003
0000
0010
1000
0000
0000
0010
1000
,
0000
0001
0000
0100
0100
0000
0000
1000
,
0100
0100
0100
0100
,
0001
0001
0001
0001
,
2000
0000
0000
0000
3001
0100
0000
1000
,
0000
0010
0000
0002
0000
0000
0000
0003
,
1000
1000
1000
1000
,
0010
0010
0010
0010
,
0020
0000
0000
2030
0000
0000
3002
0000
,
0000
0203
0000
0000
0302
0000
0000
0000
,
1003
1000
0001
0001
,
0010
0010
0100
0100
,
0002
0000
0000
0000
0000
0000
0000
0103
,
0000
0001
1000
0020
0000
0000
0000
0030
,
0100
0100
0010
0010
,
1000
1000
0001
0001
,
0010
1000
0001
0010
1000
0001
0010
1000
,
0001
0010
1000
0001
0010
1000
0001
0100
,
0010
0010
1000
1000
,
0001
0001
0100
0100
,
0001
0000
1000
0010
0000
0100
0000
0000
,
0010
1000
0000
0001
0000
0100
0000
0000
,
0010
0000
0000
0010
0000
0010
0000
0000
,
1000
0000
0000
1000
0000
1000
0000
0000
,
0200
0000
0000
0000
,
0000
0000
0000
0000
,
0320
0000
0000
0031
,
0001
0000
0100
0100
0000
0100
0000
2000
,
0000
0000
0000
0000
0001
0100
0000
0100
,
0000
0100
0000
0200
3000
0001
1300
0001
,
0010
0000
0010
0020
0000
0000
0000
0000
,
0000
0000
0000
0000
0030
1000
0100
1000
,
0001
0100
1000
0010
0100
1000
0000
0001
,
0000
0100
0000
1000
0000
0020
0000
0000
,
1030
0001
0100
0000
0100
0000
0001
1000
,
0000
0010
0000
0001
0000
1000
0010
1000
,
0200
0000
0000
0000
0000
0000
0000
0301
,
0000
1000
0000
0020
0000
0000
0030
0000
,
0001
0001
1000
1000
,
0100
0100
0010
0010
,
0020
0000
0000
0000
,
0000
0000
0000
0000
,
0031
0001
1000
1000
,
0100
0100
0010
0010
,
0100
0000
1000
0001
0000
0001
0000
0000
,
1000
0010
0000
0001
0000
0100
0000
1000
,
0010
0000
0000
0010
0000
0010
0000
0000
,
1000
0000
0000
1000
0000
1000
0000
0000
,
0200
0000
0000
0000
,
0301
0000
0000
0000
,
0100
0000
0000
0000
0000
0000
0100
0000
0000
0000
0000
0000
0010
0000
0000
0000
0000
0010
0000
0000
0001
0000
0000
0000
0001
0000
0000
0000
0000
0000
0000
0000
,
1000
0000
0000
0000
;

//---------------dance-single - ----------------
#NOTES:
     dance-single:
     :
     Hard:
     9:
     0.664,0.705,0.878,0.207,0.104,430.000,106.000,25.000,0.000,0.000,0.000,0.664,0.705,0.878,0.207,0.104,430.000,106.000,25.000,0.000,0.000,0.000:
0000
0000
0000
0000
,
0000
0000
0000
0000
0000
0000
0000
0000
0000
0000
1000
0001
0100
0000
0001
0000
,
0110
0000
1000
0011
0000
0022
0000
0033
,
1100
0000
0001
0110
0000
1100
0000
0200
,
1000
0000
0000
0010
0000
0010
0300
0000
,
1100
0011
0000
1010
0000
0101
0000
0000
,
1100
0000
0001
1100
0000
2200
0000
3300
,
0011
0000
1000
0110
0000
1001
0010
0100
,
1010
0000
0001
1010
0000
0001
1100
0000
,
0010
0101
0000
0010
0101
0000
0011
0000
,
0220
0000
0000
0000
0000
0000
0000
0330
,
0100
0001
0000
1000
0000
0010
0000
0000
,
1100
0000
0000
1001
0000
0000
0000
1010
,
0000
0000
1001
1001
,
0011
0000
0000
1001
0000
0000
0000
0101
,
0000
0000
0000
1000
0011
0000
0011
0000
,
1100
0000
0000
0101
0000
0000
0000
0110
,
0000
0000
0000
1100
0000
0000
0000
0000
,
1010
0000
0000
0011
0000
0110
0000
0011
,
0000
0000
0000
0000
0010
1000
0001
0100
,
1001
0000
0010
0101
0000
0000
0010
1001
,
0000
0010
1001
0011
,
1010
0000
0100
1001
0000
0000
0100
1010
,
0000
0100
1001
1100
,
0110
0000
0001
1010
0000
0000
0001
0110
,
0000
0000
0001
1010
0000
0000
0001
0000
,
0101
0000
1000
0110
0000
0101
1000
0110
,
0000
0000
0000
0000
0000
0000
0100
0001
0100
0001
1000
0001
0100
0000
0000
0000
,
0101
0000
0000
1010
0000
1001
0000
1100
,
0000
0000
0001
0000
0010
1000
0001
0100
,
1010
0000
0000
1001
0000
0101
0000
0011
,
0000
0000
0100
0000
0001
1000
0010
0100
,
1001
0000
0000
0101
0000
1010
0000
0101
,
0000
0000
0010
0100
1001
0000
0110
0000
,
1001
0000
0000
1001
0000
0000
0000
0101
,
0000
0000
1010
0000
0000
0000
0011
0000
0101
0000
0000
0000
0000
0000
0001
1000
,
0110
0000
0010
0001
0010
0100
0010
0001
,
1000
0000
1000
0001
1000
0010
1000
0000
,
0110
0000
0000
0000
0000
0000
0100
0001
1000
0000
0010
0000
0000
0000
0001
0000
,
0000
0100
0000
2000
0000
0000
0000
3000
,
0011
0000
0001
1000
0001
0100
0001
1010
,
0000
0100
0000
0101
1000
0001
0010
0000
,
0100
0001
1000
0100
0001
1000
0010
0001
,
1000
0000
0010
0000
1000
0000
0001
0000
0010
0000
0001
0010
1000
0000
0100
0000
,
0110
0000
0100
1000
0100
0010
0100
1000
,
0001
0000
0001
1000
0001
0100
0001
0000
,
0110
0000
0010
0001
0010
0001
0010
1100
,
0000
0000
0010
1000
0100
0000
0002
0000
0000
0000
0000
0000
0000
0000
0003
0000
,
1100
0000
1000
0001
1000
0100
1000
0110
,
0000
0010
0000
1010
0001
1000
0100
0000
,
0010
1000
0001
0010
1000
0001
0010
1000
,
0001
0000
0100
0000
0001
0000
1000
0000
0100
0000
1000
0100
0001
0000
0010
0000
,
1001
0000
0001
0100
0001
1000
0001
0100
,
0010
0000
0010
0100
0010
0001
0010
0002
,
0000
0000
0000
0003
1000
0000
0100
0000
0000
0000
0200
0000
0000
0000
0300
0000
,
0001
0100
0000
0001
0000
1000
0010
1000
,
0010
1000
0001
1000
0001
0100
0001
1000
,
0001
0010
0100
0001
1000
0001
0010
1000
,
0001
0100
0001
1000
0010
0001
1000
0010
,
0100
0001
1000
0010
0100
0001
1000
0010
,
0200
0000
0000
1300
,
1000
0000
0010
0010
0000
0010
0000
0000
,
0002
0000
0000
0000
0000
0000
0000
0000
1003
0100
0010
0000
0000
0000
0001
0000
,
0000
0100
0000
0020
0000
1000
0031
1000
,
0100
0000
0100
0200
0000
0000
0000
0000
,
0000
0000
0000
0000
0300
0001
0010
0001
,
1000
0010
0001
0100
0010
0001
0000
1000
,
0000
0010
0000
0001
0000
0200
0000
0000
,
0301
0000
1000
0000
0010
0000
0000
0000
0010
0000
1000
0001
0100
0000
0001
0000
,
0000
0100
0000
1000
0000
0001
0100
0001
,
0020
0000
0000
1000
0001
0100
0000
1030
,
0000
0001
0000
0220
0000
0000
0330
0000
,
1100
0000
1000
0010
0001
1000
0001
1100
,
0000
0001
0000
0011
0100
1000
0100
0000
,
0010
1000
0001
0100
0010
1000
0001
0100
,
0001
0000
1000
0000
0100
0000
0010
0000
0001
0000
1000
0100
0001
0000
0010
0000
,
1001
0000
1000
0010
1000
0001
1000
0010
,
0100
0000
0100
0010
0100
1000
0100
2000
,
0000
0000
0000
3000
0001
0000
0010
0000
0000
0000
0020
0000
0000
0000
0030
0000
,
0001
0100
0000
1000
0000
0010
0000
2002
,
0000
0000
0000
0000
0000
3003
0110
0000
0000
0000
0110
0000
0000
0000
0000
0000
,
0100
0001
1000
0010
0100
0001
1000
0010
0100
0001
1000
0010
0100
0001
1000
0010
,
0202
0000
0000
0000
0000
0000
0000
0303
,
1000
0000
0000
0000
,
0110
0000
0000
0110
0000
0000
1001
0000
0000
1001
0000
0000
0101
0000
0110
0000
,
0000
0000
0000
0000
0000
0001
0010
0100
1000
0000
0000
0000
0000
0000
0000
0000
0000
0000
0000
0000
0000
0000
0000
0000
0000
0000
0000
0000
0000
0000
0000
0000
0000
0000
0000
0000
0000
0000
0000
0000
0000
0000
0000
0000
0000
0000
0000
0000
0000
0000
0000
0000
0000
0000
0000
0000
0000
0000
0000
0000
0000
0000
0000
0000
;

//---------------dance-single - Blank----------------
#NOTES:
     dance-single:
     :
     Challenge:
     9:
     0.771,0.881,0.605,1.000,0.145,413.000,73.000,165.000,0.000,0.000,0.000,0.771,0.881,0.605,1.000,0.145,413.000,73.000,165.000,0.000,0.000,0.000: // measure 0
0000
0000
0000
0000
,  // measure 1
0000
0000
0000
0000
,  // measure 2
2010
0000
3010
0100
0000
0202
0000
0303
,  // measure 3
2001
0000
3001
0100
0000
0010
0000
2020
,  // measure 4
0000
0000
0000
0030
0000
0000
0000
0010
,  // measure 5
0100
0100
0000
0001
0000
3100
0000
0000
,  // measure 6
0012
0000
0013
0100
0000
2200
0000
3300
,  // measure 7
1020
0000
1030
0100
0000
0010
0100
0000
,  // measure 8
1100
0000
0010
0101
0000
0010
1001
0000
,  // measure 9
0100
0010
0100
0000
0000
0000
0001
0000
0101
0000
0100
0000
0101
0000
0001
0000
,  // measure 10
2020
0000
0000
0000
0000
0000
0000
0000
0000
0000
0000
0000
3030
0000
0100
0010
,  // measure 11
0001
2000
0000
3002
0003
0220
0000
0330
,  // measure 12
2100
0000
3200
2300
0000
0000
3020
2030
,  // measure 13
0000
0000
0000
3001
0010
0100
1000
0000
,  // measure 14
0102
0000
0023
0230
0000
0000
2300
3020
,  // measure 15
0000
0000
0000
1030
0100
0010
0001
0000
,  // measure 16
2010
0000
3010
0120
0000
0000
0130
0102
,  // measure 17
0000
0000
0000
1003
0200
0000
0000
0300
,  // measure 18
0022
0033
0000
2020
3030
2002
3003
2200
,  // measure 19
0000
3300
0000
1000
0010
0100
0001
1000
,  // measure 20
0200
0000
0302
0203
0000
0000
0320
0032
,  // measure 21
0000
0000
0000
0103
0010
1000
0100
0000
,  // measure 22
0012
0000
0023
0230
0000
0000
2300
3010
,  // measure 23
0200
0000
0300
0100
0001
0010
0100
1000
,  // measure 24
1020
0000
0230
0320
0000
0000
0230
0302
,  // measure 25
0000
0000
0000
2003
0000
0000
0000
3000
,  // measure 26
0020
0000
0030
0200
0300
0002
0003
0020
,  // measure 27
0030
0000
0000
0000
0000
1000
0010
1000
0010
0100
0010
0100
0010
0000
0000
0000
,  // measure 28
0202
0000
0303
2200
3300
2002
3003
0022
,  // measure 29
0000
0000
0000
0033
1000
0010
0100
0001
,  // measure 30
2200
0000
3300
0220
0330
0202
0303
2002
,  // measure 31
0000
0000
0000
3003
0001
0010
0100
1000
,  // measure 32
0101
0000
0100
0110
0000
0101
0000
2200
,  // measure 33
0000
0000
3300
0000
1000
0010
0100
0020
,  // measure 34
0000
0000
0030
0000
1000
0100
0010
0002
,  // measure 35
0000
0000
1003
0000
0001
0000
0100
0000
0002
0000
0000
0000
0000
0000
0013
1000
,  // measure 36
0010
0010
0010
0010
,  // measure 37
0100
0100
0100
0100
,  // measure 38
0001
0000
0000
0000
0001
0000
0000
0000
0001
0010
1000
0000
0000
0000
0100
0000
,  // measure 39
0000
0010
0000
1001
0000
0010
0100
0001
,  // measure 40
1000
0000
0001
0120
0000
1000
1000
0000
,  // measure 41
0000
0001
0031
0000
0000
0010
1000
0001
,  // measure 42
1000
0100
0010
1000
0100
0010
1000
0100
,  // measure 43
0010
0000
0001
0000
0010
0000
0100
0000
1000
0000
0000
0100
0001
0000
0001
0100
,  // measure 44
0001
0001
0001
0001
,  // measure 45
0100
0100
0100
0100
,  // measure 46
0010
0000
0010
0000
0010
1000
0000
0202
,  // measure 47
0303
0100
0010
0200
0000
0300
0100
0000
,  // measure 48
0102
0000
0013
0100
0000
2200
0000
3300
,  // measure 49
0210
0000
0310
1000
0000
2200
0000
3300
,  // measure 50
1001
0001
0001
0110
0010
0010
1010
1000
,  // measure 51
1000
0000
0100
0000
0010
0000
0001
0000
1000
0000
0000
0010
1000
0000
1000
0001
,  // measure 52
1000
1000
1000
1000
,  // measure 53
0100
0100
0100
0100
,  // measure 54
0010
0010
0010
0010
,  // measure 55
0001
0000
0000
0000
0001
0000
0000
0000
0001
0000
0000
0000
0001
0000
0010
0100
,  // measure 56
1200
0000
1300
0220
0330
0202
0000
0303
,  // measure 57
1020
0000
1030
2002
3003
0202
0000
0303
,  // measure 58
1000
0100
0010
0001
1000
0100
0010
0001
,  // measure 59
0100
0000
0010
1000
0001
0000
0010
0001
1000
0000
0100
1000
0001
0000
0100
0001
,  // measure 60
2000
0000
0000
0000
0000
0000
0000
0000
0000
0000
0000
0000
0000
0000
0000
0000
0000
0000
0000
0000
0000
0000
0000
0000
3200
0000
0000
0000
0300
0000
0000
0010
,  // measure 61
0002
0000
2003
3020
0000
0230
0000
0302
,  // measure 62
0000
0000
0000
0000
0000
0000
0003
0000
0100
0010
0200
0000
0000
0000
0320
0000
,  // measure 63
0000
2030
0000
3200
0300
0100
0010
0001
,  // measure 64
2000
0000
3010
0220
0000
0000
0000
0000
,  // measure 65
0000
0000
0000
0000
0330
0010
0100
1000
,  // measure 66
0001
0100
1000
0200
0000
0302
0003
2020
,  // measure 67
3030
2002
3003
0022
0033
0220
0000
0330
,  // measure 68
1000
0000
0010
0000
1000
0000
0000
0000
0001
0000
0100
0010
1000
0000
0002
0000
,  // measure 69
0000
0000
0000
0000
0023
0000
0000
0000
0000
0000
0000
0000
0230
0000
0000
0000
0000
0000
0000
0000
1300
0000
0000
0000
0010
0000
0000
0000
1000
0000
0000
0001
,  // measure 70
0200
0000
0300
0010
1000
0001
0000
2200
,  // measure 71
3300
0202
0303
0220
0000
0330
0011
0000
,  // measure 72
0102
0000
0013
0200
0000
0000
0000
0300
,  // measure 73
2010
0000
3100
0001
0000
0022
0000
0033
,  // measure 74
0210
0000
0300
0010
0100
0000
0020
0000
0030
0001
0010
0000
0002
0000
0003
0100
,  // measure 75
0001
0000
0200
0000
0300
0010
0100
0000
0010
0000
1000
0000
0100
0000
0010
0001
,  // measure 76
0010
0000
0000
0000
0010
0000
0010
0001
0100
0000
0010
0000
0020
0000
0030
0000
,  // measure 77
0100
0000
0000
0000
0100
0000
0100
0010
1000
0000
0100
0000
0010
0000
0200
0000
,  // measure 78
0000
0000
0302
2003
3000
0120
0030
0100
,  // measure 79
0010
0000
0100
0000
0000
0000
1001
0000
0000
0000
1000
0000
0001
0000
1000
0100
,  // measure 80
0020
0030
0001
0202
0303
0220
0000
0330
,  // measure 81
0010
0000
1000
2002
3003
2200
3300
0220
,  // measure 82
0000
0000
0000
0000
0000
0330
0000
0010
,  // measure 83
0002
0000
0000
0000
0000
0000
0000
0000
0003
0000
0100
0001
0100
0000
0010
0000
,  // measure 84
2000
0000
0000
0000
0000
0000
0000
0000
0000
0000
0000
0000
3200
0000
0000
0000
0000
0000
0000
0000
0000
0000
0000
0000
0320
0000
0000
0000
0000
0000
0000
0000
0000
0000
0002
0000
0030
0000
0000
0000
0203
0000
0000
0000
0000
0000
0000
0000
0020
0000
0000
0000
0000
0000
0000
0000
0330
0000
0000
0000
0000
1000
0010
0100
,  // measure 85
0001
0000
0000
0000
;
