#TITLE:D2;
#SUBTITLE:-Dance of Death-;
#ARTIST:FIRST AID;
#TITLETRANSLIT:;
#SUBTITLETRANSLIT:;
#ARTISTTRANSLIT:;
#GENRE:;
#CREDIT:KNS-17;
#BANNER:[TECHNIKA 2] D2 [KNS-17].png;
#BACKGROUND:[TECHNIKA 2] D2 [KNS-17]-bg.png;
#LYRICSPATH:;
#CDTITLE:cdtitle.png;
#MUSIC:[TECHNIKA 2] D2 [KNS-17].mp3;
#OFFSET:1.140;
#SAMPLESTART:9.000;
#SAMPLELENGTH:18.400;
#LASTBEATHINT:0.415;
#SELECTABLE:YES;
#BPMS:0.000=178.000
,28.000=356.000
,188.000=178.000
,220.000=356.000
,252.000=89.000
,260.000=356.000
,568.000=712.000
;
#STOPS:
;
#BGCHANGES:0.000=[TECHNIKA 2] D2 [KNS-17].avi=1.000=0=0=0=StretchNoLoop====,
0.415=[TECHNIKA 2] D2 [KNS-17]-bg.png=1.000=0=0=1=Centered====,
99999=-nosongbg-=1.000=0=0=0 // don't automatically add -songbackground-
;
#KEYSOUNDS:;
#ATTACKS:;

//---------------dance-single - ----------------
#NOTES:
     dance-single:
     :
     Easy:
     10:
     0.652,0.778,0.347,0.329,0.258,438.000,39.000,37.000,0.000,0.000,0.000,0.652,0.778,0.347,0.329,0.258,438.000,39.000,37.000,0.000,0.000,0.000:
0000
0000
0000
0000
,
2000
0000
0000
3000
0200
0000
0000
0300
,
0020
0000
0000
0030
0002
0000
0000
0003
,
0100
0010
0100
1000
,
0100
0010
0001
0100
,
1000
0100
0010
0100
,
0001
0000
1000
0000
0001
0010
0100
1000
,
0001
0000
0110
0000
,
0010
1000
0010
0000
,
0100
0000
0110
0000
,
0010
0000
1000
0001
,
0000
0000
0100
0000
,
0001
0010
1100
0000
,
0010
0000
0011
0000
,
0001
0000
1000
0100
,
0000
0000
0010
0000
,
0001
1000
1010
0000
,
0100
0000
1100
0000
,
1000
0000
0010
1000
,
0000
0000
0100
0000
,
0001
1000
0011
0000
,
0100
0000
0101
0000
,
0010
1000
0100
0010
,
0000
0000
0100
0000
,
0010
1000
1001
0000
,
0100
0000
1010
0000
,
0001
0000
0010
0100
,
0000
0000
0010
0000
,
0100
0001
1100
0000
,
0010
0000
1001
0000
,
0100
0000
0010
0100
,
0000
0000
0001
0000
,
1000
0100
0110
0000
,
0001
0000
1010
0000
,
0100
0000
0010
0001
,
1000
0010
1000
0010
,
1000
0100
1000
0100
,
0010
0000
0001
0000
2000
0000
0000
3000
,
0010
0100
0001
1000
,
0020
0000
0030
0000
0020
0000
0030
0100
,
0001
0000
0002
0000
0003
0001
0100
0000
,
0200
0000
0300
0010
1000
0000
2000
0000
,
3000
1000
0001
0000
0002
0000
0000
0003
,
0220
0000
0330
0000
0020
0000
0030
0010
,
1000
0000
2000
0000
3000
1000
0100
0000
,
0200
0000
0300
0100
0010
0000
0020
0000
,
0030
0001
1000
0000
2000
0000
3000
0000
,
1000
0000
0000
0000
1000
0000
0010
0000
0000
0000
0010
0000
,
0100
0000
0000
0000
0100
0000
0001
0000
0001
0000
0001
0000
,
1000
0000
0100
0000
0010
0000
0001
0000
0100
0000
0010
0000
,
1000
0100
1000
0000
0010
0000
0100
0000
0001
0000
0010
0000
,
0100
0000
0000
0000
0100
0000
1000
0000
0000
0000
1000
0000
,
0001
0000
0000
0000
0001
0000
0010
0000
0010
0000
0010
0000
,
0001
0000
0100
0000
0010
0000
1000
0000
0100
0000
0010
0000
,
0001
1000
0001
0000
0100
0000
0001
0000
1000
0000
0100
0000
,
0010
0010
0010
0001
,
0001
0001
0100
0100
,
0200
0000
0000
0300
0010
0000
0010
0000
,
0010
1000
1000
1000
,
0001
0000
0001
0000
0002
0000
0000
0003
,
0100
0100
0100
0010
,
0010
0010
1000
0100
,
0010
0001
0010
0001
,
0100
0010
1000
0001
0010
0100
0010
0001
,
1000
0000
0010
0000
0100
0000
0010
0000
1000
0000
0001
0000
0100
0001
1000
0100
,
0010
0000
0001
0000
,
0100
0010
0101
0000
,
0010
0000
1100
0000
,
0010
0000
0001
0100
,
0000
0000
1000
0000
,
0001
0010
1100
0000
,
1000
0000
0101
0000
,
0010
0000
1000
0001
,
0000
0000
0100
0000
,
1000
0100
0011
0000
,
0100
0000
1001
0000
,
0010
0000
0001
0100
,
0000
0000
0010
0000
,
1000
0001
0101
0000
,
0010
0000
1100
0000
,
0001
1000
0010
0100
,
0000
0000
0001
0000
,
1000
0010
0110
0000
,
0010
0000
1100
0000
,
0001
0000
0100
0010
,
0000
0000
1000
0000
,
0001
0010
1100
0000
,
0001
0000
0101
0000
,
0010
0000
1000
0001
,
0000
0000
0100
0000
,
0010
0001
0101
0000
,
1000
0000
0011
0000
,
0100
0000
0001
0100
,
0010
1000
0001
0100
,
0010
0100
0001
1000
,
0100
0000
0010
0000
0200
0000
0000
0300
,
0010
0100
1000
0001
,
0200
0000
0300
0000
0200
0000
0300
0100
,
0010
0000
0020
0000
0030
0010
1000
0000
,
2000
0000
3000
1000
0001
0000
0002
0000
,
0003
0001
0010
0000
0020
0000
0000
0030
,
1001
0000
0000
0000
0000
0000
0000
0000
0001
0000
0000
0000
,
0101
0000
0000
0000
0000
0000
0000
0000
0100
0000
0000
0000
,
0110
0000
0000
0000
0000
0000
0000
0000
0010
0000
0000
0000
,
1010
0000
0000
0000
1000
0000
0000
0000
0100
0000
0000
0000
,
0010
0000
0000
0000
0001
0000
0000
0000
1000
0000
0000
0000
,
0010
0000
0000
0000
0100
0000
0000
0000
0001
0000
0000
0000
,
1000
0000
0100
0000
1000
0000
0000
0000
0100
0000
0000
0000
,
0010
0000
0000
0000
0001
0000
0000
0000
1000
0000
0000
0000
,
1010
0000
0000
0000
0000
0000
0000
0000
0010
0000
0000
0000
,
0110
0000
0000
0000
0000
0000
0000
0000
0100
0000
0000
0000
,
0101
0000
0000
0000
0000
0000
0000
0000
0001
0000
0000
0000
,
1001
0000
0000
0000
1000
0000
0000
0000
0010
0000
0000
0000
,
1000
0000
0000
0000
0100
0000
0000
0000
0010
0000
0000
0000
,
0001
0000
0000
0000
0100
0000
0000
0000
1000
0000
0000
0000
,
0100
0000
0010
0000
0100
0000
0000
0000
0001
0000
0000
0000
,
1000
0000
0000
0000
0010
0000
0000
0000
0100
0000
0000
0000
,
0001
0001
0001
1000
,
1000
1000
0100
0100
,
0200
0000
0000
0300
0010
0000
0010
0000
,
0010
0001
0001
0001
,
0100
0000
0100
0000
0200
0000
0000
0300
,
0010
0010
0010
1000
,
1000
1000
0001
0001
,
0002
0000
0000
0003
1000
0000
1000
0000
,
1000
0001
0001
0001
,
0010
0000
0010
0000
0020
0000
0000
0030
,
0100
1000
0100
1000
,
0010
1000
0001
1000
,
0002
0000
0000
0003
0100
0000
0010
0000
,
0100
0001
0100
0001
,
1000
0000
0001
0000
2000
0000
0000
3000
,
0100
0010
0100
0010
,
0001
0010
0001
0100
,
0010
1000
0001
0010
,
0100
0000
0100
0000
,
1000
0000
1000
0000
,
0001
0000
0001
0000
,
0100
0000
0100
0002
,
2000
0000
0000
0000
,
0000
0000
0000
3003
,
0110
0000
0000
0000
,
2020
0000
0000
0000
,
0000
0000
0000
0000
,
0000
0000
0000
0000
,
0000
0000
0000
0000
0000
0000
0000
3030
;

//---------------dance-single - ----------------
#NOTES:
     dance-single:
     :
     Challenge:
     15:
     1.000,1.000,1.000,0.897,0.746,798.000,142.000,101.000,0.000,0.000,2.000,1.000,1.000,1.000,0.897,0.746,798.000,142.000,101.000,0.000,0.000,2.000:
0000
0000
0000
0000
,
2002
3003
0202
0303
,
0022
0033
2200
3300
,
1000
0100
0010
0001
1000
0100
0010
0001
0100
0010
0100
0001
1000
0010
1000
0001
,
0010
0100
0010
0001
0100
0010
1000
0100
0010
0100
1000
0010
0100
0001
0010
0100
,
1000
0010
0001
0010
0100
0010
0001
0100
0010
1000
0001
1000
0010
1000
0100
0010
,
0001
0100
0001
1000
0001
0010
0100
0010
0001
1000
0010
0100
0001
0010
1000
0010
,
0100
0010
0011
0001
,
0110
1010
0101
0010
,
0100
1000
0110
0001
,
0100
0010
1010
1001
,
0100
0010
0110
0100
,
0011
0101
1010
0001
,
0010
0100
0011
0100
,
0010
1000
0101
0110
,
1000
0010
0101
1000
,
1100
1010
0101
0010
,
0100
0001
1010
0100
,
0010
1000
0101
1001
,
0010
1000
0101
0100
,
1010
0110
0011
1000
,
0100
0010
0101
0010
,
0100
1010
1100
0011
,
0100
1000
0101
0010
,
1100
1001
0101
0010
,
1000
0001
0110
1000
,
0010
0001
1010
1001
,
0100
0010
1100
0010
,
0101
1001
0110
0010
,
0001
0100
1010
1000
,
0001
0010
1100
1010
,
0100
0001
0110
0100
,
1010
1100
1001
0010
,
0001
1000
0110
0100
,
0001
1000
0110
1010
,
0001
0010
0100
1000
,
0001
0100
0010
1000
,
0001
0010
0001
0100
0040
0000
0000
0030
,
1000
0011
0101
1010
,
1000
0010
0001
0010
2000
3000
0000
0010
,
1000
0010
0002
0003
0000
0100
0001
0100
,
2000
3000
0000
0100
1000
0100
0020
0030
,
0000
0100
0001
0100
0220
0000
0000
0330
,
1000
0100
0010
0001
0200
0300
0000
0010
,
1000
0001
2000
3000
0000
0010
0001
1000
,
0002
0003
0000
0100
1000
0010
2000
3000
,
0000
1000
0001
0100
0202
0000
0000
0303
,
0010
0100
0010
0000
0220
0330
0100
0001
0100
0000
0202
0303
,
0001
1000
0001
0000
2002
3003
0220
0000
0000
0330
0100
0000
,
0010
1000
0001
0100
0001
0010
0100
1000
0100
0001
0100
0010
,
0001
1000
0010
0000
0110
0000
0202
0000
0000
0303
2002
3003
,
1000
0100
1000
0000
2200
3300
0100
0010
0100
0000
0220
0330
,
0010
0001
0010
0000
0022
0033
2002
0000
0000
3003
0010
0000
,
0100
0001
1000
0001
0010
0100
1000
0001
0100
1000
0100
0010
,
1000
0001
0010
0000
1100
0000
2020
0000
0000
3030
0100
0000
,
0010
1000
0100
0010
0200
0300
0100
0010
,
0001
0100
0020
0030
0010
1000
0001
0010
,
0100
1000
0001
1000
0010
0100
0010
1000
,
0002
0003
0100
0010
0100
0001
2000
3000
,
0010
0100
0010
0100
0001
1000
0100
0010
,
0001
0100
1000
0100
0020
0030
1000
0100
,
0001
0100
0020
0030
0001
0100
0010
1000
,
0100
0010
0100
0010
0001
0010
0001
0100
,
0001
0010
0100
1000
0001
0010
0100
1000
0010
0100
0010
1000
0001
0100
0001
1000
0100
0010
0100
1000
0010
0100
0001
0010
0100
0010
0001
0100
0010
1000
0100
0010
,
0001
0100
1000
0100
0010
0100
0001
0010
0100
0010
0001
0010
0100
1000
0001
0100
0010
1000
0100
0010
0100
1000
0001
0100
1000
0100
0001
0010
0100
1000
0001
0100
,
0010
0001
0101
0010
,
1100
1010
0101
0100
,
0010
1000
1100
0010
,
0001
1000
0110
0101
,
1000
0001
0110
0100
,
1100
0101
0110
1000
,
0100
1000
0011
1000
,
0010
0100
0101
0011
,
0100
1000
0101
0010
,
1100
1001
0101
0010
,
0100
0001
1100
0010
,
0001
0100
0011
0110
,
1000
0010
0101
1000
,
0011
0101
1010
0001
,
0010
0001
1010
1000
,
0010
0101
0110
1001
,
0100
0010
0110
1000
,
0101
1001
1100
0010
,
0001
1000
0110
0100
,
0001
1000
0011
1001
,
0010
0100
0110
1000
,
0101
0110
1100
0010
,
1000
0100
0011
0100
,
0001
0100
1010
1001
,
0010
0100
1010
0001
,
1010
0110
0101
0010
,
0100
1000
0110
0001
,
1000
0001
0110
1100
,
1000
0010
0100
0001
,
1000
0100
0010
0001
,
1000
0010
1000
0010
0400
0000
0000
0300
,
0010
0101
1010
0110
,
1000
0100
0001
0100
2000
0000
3000
0001
,
0100
1000
0200
0000
0300
0010
0001
0010
,
2000
0000
3000
0010
1000
0010
0002
0000
,
0003
0010
0100
1000
2002
0000
3003
0000
,
0001
0000
0100
0000
0001
0000
0000
0000
0202
0000
0303
0000
,
0100
0000
0010
0000
0100
0000
0000
0000
0220
0000
0330
0000
,
0010
0000
1000
0000
0010
0000
0000
0000
2020
0000
3030
0000
,
2002
0000
0000
0000
0000
0000
3003
0000
1000
0000
0000
0000
,
0100
0000
0010
0000
0001
0000
0100
0000
0010
0000
1000
0000
,
0100
0000
0001
0000
0100
0000
1000
0000
0010
0000
0100
0000
,
0010
0000
0100
0000
0001
0000
0000
0000
0202
0000
0000
0303
,
2020
0000
0000
0000
0000
0000
3030
0000
0100
0000
0000
0000
,
0010
0000
1000
0000
0010
0000
0000
0000
2020
0000
3030
0000
,
1000
0000
0001
0000
1000
0000
0000
0000
2002
0000
3003
0000
,
0001
0000
0100
0000
0001
0000
0000
0000
0202
0000
0303
0000
,
0220
0000
0000
0000
0000
0000
0330
0000
2000
0000
3000
0000
,
0001
0000
0100
0000
0010
0000
1000
0000
0001
0000
0010
0000
,
0100
0000
1000
0000
0001
0000
0010
0000
1000
0000
0010
0000
,
0001
0000
0100
0000
0000
0010
0000
0000
2020
0000
3030
0000
,
2002
0000
0000
0000
0000
0000
3003
0000
0100
0000
0000
0000
,
0010
0100
0010
1000
0002
0003
0010
0100
,
0010
0001
2000
3000
0100
0001
1000
0001
,
1000
0010
0100
0010
1000
0100
0010
0100
,
2000
3000
0001
0100
1000
0100
0002
0003
,
1000
0010
0001
0010
0100
0010
1000
0001
,
0010
1000
0010
0100
0020
0030
0010
0001
,
0010
0100
2000
3000
0010
1000
0001
0010
,
0001
1000
0001
1000
0010
0100
0001
0010
,
0200
0300
0001
1000
0100
1000
0020
0030
,
0001
0100
0010
1000
0001
1000
0001
0100
,
0010
1000
0100
0010
0200
0300
0010
0001
,
0100
0010
0200
0300
0010
1000
0001
0100
,
0202
0000
0000
0303
1000
0010
1000
0001
,
0020
0030
0001
0100
0001
1000
0200
0300
,
0010
0001
0100
0001
2002
0000
0000
3003
,
0001
0010
0100
1000
0020
0030
1000
0010
,
0100
0001
0020
0030
0100
1000
0100
0010
,
0001
0010
0001
0010
0001
0100
0001
0100
,
0010
1000
0001
0100
0010
1000
0001
0100
,
0010
1000
0100
0010
0100
1000
0001
0100
,
0010
0100
0001
0010
0100
1000
0010
0100
,
0010
1000
0001
0100
0010
0100
0001
0020
,
0200
0000
0000
0000
,
0000
0000
0000
0330
,
1010
0000
0000
0000
,
2002
0000
0000
0000
,
0000
0000
0000
0000
,
0000
0000
0000
0000
,
0000
0000
0000
0000
,
0000
0000
0000
0000
,
0000
0000
0000
0000
0000
0000
0000
3003
;

//---------------dance-single - ----------------
#NOTES:
     dance-single:
     :
     Hard:
     13:
     0.969,1.000,0.915,0.595,0.498,593.000,103.000,67.000,0.000,0.000,0.000,0.969,1.000,0.915,0.595,0.498,593.000,103.000,67.000,0.000,0.000,0.000: // measure 0
0000
0000
0000
0000
,  // measure 1
1010
0000
1001
0000
,  // measure 2
0110
0000
0101
0000
,  // measure 3
1000
0100
0010
0001
1000
0100
0010
0001
,  // measure 4
0100
0010
1000
0010
0100
0001
0010
1000
,  // measure 5
0010
0001
0100
0010
0001
0100
0010
1000
,  // measure 6
0100
0000
0010
0000
0001
0000
0010
0000
0001
0010
0100
1000
0001
0010
0100
1000
,  // measure 7
0001
0000
0110
0000
,  // measure 8
0010
0100
1010
0000
,  // measure 9
0100
0000
0011
0000
,  // measure 10
0010
0000
1000
1001
,  // measure 11
0000
0000
1100
0000
,  // measure 12
0001
0100
1010
0000
,  // measure 13
0001
0000
0101
0000
,  // measure 14
0001
0000
1000
0110
,  // measure 15
0000
0000
0011
0000
,  // measure 16
1000
0001
0011
0000
,  // measure 17
0100
0000
1001
0000
,  // measure 18
0010
0000
0100
0101
,  // measure 19
0000
0000
1100
0000
,  // measure 20
0010
0001
1001
0000
,  // measure 21
0100
0000
0101
0000
,  // measure 22
0010
1001
0101
1010
,  // measure 23
0000
0000
0011
0000
,  // measure 24
0100
1000
1001
0000
,  // measure 25
0010
0000
0101
0000
,  // measure 26
0001
0000
1000
1100
,  // measure 27
0000
0000
1010
0000
,  // measure 28
0100
0001
1100
0000
,  // measure 29
0010
0000
0101
0000
,  // measure 30
0100
0000
1000
0110
,  // measure 31
0000
0000
1001
0000
,  // measure 32
1000
0100
0110
0000
,  // measure 33
0001
0000
1010
0000
,  // measure 34
0100
0000
0010
0011
,  // measure 35
0001
0100
0001
0100
,  // measure 36
0010
0100
0010
1000
,  // measure 37
0100
0010
0100
0010
0002
0000
0000
0003
,  // measure 38
0010
0110
1100
0101
,  // measure 39
0020
0000
0030
0000
0020
0000
0030
0100
,  // measure 40
0001
0100
0002
0000
0003
0001
1000
0001
,  // measure 41
2000
0000
3000
0100
1000
0100
2000
0000
,  // measure 42
3000
0100
0010
0100
0020
0000
0000
0030
,  // measure 43
0022
0000
0033
0000
0002
0000
0003
0010
,  // measure 44
1000
0010
2000
0000
3000
0001
1000
0001
,  // measure 45
2000
0000
3000
0010
0100
0010
0200
0000
,  // measure 46
0300
0001
0010
0001
0020
0000
0000
0030
,  // measure 47
1000
0010
1000
0000
1010
0000
0010
0100
0010
0000
0110
0000
,  // measure 48
0100
0001
0100
0000
0101
0000
2000
0000
0000
3000
0010
0000
,  // measure 49
1000
0100
1000
0010
1000
0001
0100
0001
0010
0001
1000
0010
,  // measure 50
0100
0010
0100
0000
0010
0000
0202
0000
0000
0303
1001
0000
,  // measure 51
0100
1000
0100
0000
1100
0000
1000
0001
1000
0000
1001
0000
,  // measure 52
0001
0100
0001
0000
0101
0000
0020
0000
0000
0030
1000
0000
,  // measure 53
0001
0010
0100
1000
0010
0100
0010
1000
0001
0100
0001
0010
,  // measure 54
0100
1000
0100
0000
0010
0000
2002
0000
0000
3003
0100
0000
,  // measure 55
0010
1000
0010
0000
0100
0000
0001
1000
,  // measure 56
0001
0000
0010
0000
0100
1000
0100
2000
,  // measure 57
0200
0000
0000
3300
0010
0001
0010
0000
,  // measure 58
0001
0000
0100
0001
0100
0000
0010
0000
,  // measure 59
1000
0001
1000
0002
2000
0000
0000
3003
,  // measure 60
0010
1000
0100
0000
0010
0000
0001
0100
,  // measure 61
0010
0000
1000
0000
0001
0010
0100
1000
,  // measure 62
0001
0100
0001
0100
1000
0100
1000
0100
,  // measure 63
0001
0010
0100
1000
0001
0010
0100
1000
0001
0100
0010
0100
0001
1000
0100
0010
,  // measure 64
0100
0000
1000
0000
0100
0000
0010
0000
0001
0000
0100
0000
0010
0000
1000
0000
0001
0000
0100
0000
0010
0000
1000
0000
0100
1000
0100
1000
0010
0100
0010
0100
,  // measure 65
0001
0000
1010
0000
,  // measure 66
0100
0010
0011
0000
,  // measure 67
0010
0000
1100
0000
,  // measure 68
0010
0000
0001
0110
,  // measure 69
0000
0000
1010
0000
,  // measure 70
0001
0010
0110
0000
,  // measure 71
0010
0000
0101
0000
,  // measure 72
0010
0000
1000
1001
,  // measure 73
0000
0000
0101
0000
,  // measure 74
1000
0100
0011
0000
,  // measure 75
0100
0000
1100
0000
,  // measure 76
0010
0000
1000
1100
,  // measure 77
0000
0000
0110
0000
,  // measure 78
1000
0001
1001
0000
,  // measure 79
0010
0000
0101
0000
,  // measure 80
1000
0101
1010
1001
,  // measure 81
0000
0000
0011
0000
,  // measure 82
0010
0100
1100
0000
,  // measure 83
0010
0000
0101
0000
,  // measure 84
0001
0000
1000
1001
,  // measure 85
0000
0000
0101
0000
,  // measure 86
0010
1000
1010
0000
,  // measure 87
0001
0000
1100
0000
,  // measure 88
0010
0000
0001
0110
,  // measure 89
0000
0000
0101
0000
,  // measure 90
1000
0100
0110
0000
,  // measure 91
0010
0000
1001
0000
,  // measure 92
0100
0000
1000
1010
,  // measure 93
0010
1000
0001
0100
,  // measure 94
0010
1000
0001
1000
,  // measure 95
0010
0100
0010
0100
2000
0000
0000
3000
,  // measure 96
0100
0101
1001
1100
,  // measure 97
0220
0000
0330
0000
0020
0000
0030
0001
,  // measure 98
0010
0001
0020
0000
0030
0001
0100
0001
,  // measure 99
0200
0000
0300
0010
1000
0010
2000
0000
,  // measure 100
3000
0100
1000
0100
2000
0000
0000
3000
,  // measure 101
1000
0000
0001
0000
1000
0000
0000
0000
2002
0000
3003
0000
,  // measure 102
0001
0000
0100
0000
0001
0000
0000
0000
0202
0000
0303
0000
,  // measure 103
0100
0000
0010
0000
0100
0000
0000
0000
0220
0000
0330
0000
,  // measure 104
2020
0000
0000
0000
0000
0000
3030
0000
0002
0000
0000
0003
,  // measure 105
0010
0000
0001
0000
0100
0000
0010
0000
1000
0000
0001
0000
,  // measure 106
0010
0000
0100
0000
0010
0000
0001
0000
0100
0000
0001
0000
,  // measure 107
1000
0000
0100
0000
1000
0000
0000
0000
0220
0000
0330
0000
,  // measure 108
0202
0000
0000
0000
0000
0000
0303
0000
0010
0000
0000
0000
,  // measure 109
0100
0000
0010
0000
0100
0000
0000
0000
0220
0000
0330
0000
,  // measure 110
0010
0000
1000
0000
0010
0000
0000
0000
2020
0000
3030
0000
,  // measure 111
1000
0000
0001
0000
1000
0000
0000
0000
2002
0000
3003
0000
,  // measure 112
0202
0000
0000
0000
0000
0000
0303
0000
0020
0000
0030
0000
,  // measure 113
1000
0000
0100
0000
0010
0000
0001
0100
0000
0010
0000
0100
,  // measure 114
0001
0000
1000
0001
0000
0010
0000
0100
0000
0010
0000
0001
,  // measure 115
0100
0000
0010
0000
0100
0000
0000
0000
0220
0000
0330
0000
,  // measure 116
2200
0000
0000
0000
0000
0000
0000
3300
0002
0000
0003
0000
,  // measure 117
0100
0001
0100
0000
0110
0000
0010
1000
,  // measure 118
0010
0000
1010
0000
1000
0001
0100
0001
,  // measure 119
0200
0000
0000
0300
0010
1000
0010
0000
,  // measure 120
0110
0000
1000
0001
1000
0000
1001
0000
,  // measure 121
0100
1000
0100
1000
0020
0000
0000
0030
,  // measure 122
0100
0001
0100
0000
0101
0000
0001
1000
,  // measure 123
0001
0000
1001
0000
0010
0100
0010
0100
,  // measure 124
2000
0000
0000
3000
0100
0010
0100
0000
,  // measure 125
0110
0000
0010
0001
0010
0000
0011
0000
,  // measure 126
0100
0001
0100
0010
0200
0000
0000
0300
,  // measure 127
0010
1000
0100
0000
1000
0000
0100
0010
,  // measure 128
0001
0000
0100
0000
0010
1000
0001
1000
,  // measure 129
0100
0010
0100
0010
0100
1000
0001
0000
,  // measure 130
0100
0000
0010
1000
0001
0000
0010
0000
,  // measure 131
0100
1000
0001
1000
0001
0100
0001
0100
,  // measure 132
0010
1000
0100
0000
0010
0000
0100
1000
,  // measure 133
0001
0000
0100
0000
0001
0100
0010
1000
,  // measure 134
0100
0001
0100
0001
0100
1000
0100
1000
,  // measure 135
0010
0001
0100
0010
,  // measure 136
1000
0001
0010
0100
,  // measure 137
1000
0010
0100
0010
,  // measure 138
1000
0100
0010
0002
,  // measure 139
0200
0000
0000
0000
,  // measure 140
0000
0000
0000
0303
,  // measure 141
1010
0000
0000
0000
,  // measure 142
2200
0000
0000
0000
,  // measure 143
0000
0000
0000
0000
,  // measure 144
0000
0000
0000
0000
,  // measure 145
0000
0000
0000
0000
0000
0000
0000
3300
;

//---------------dance-single - ----------------
#NOTES:
     dance-single:
     :
     Medium:
     12:
     0.969,1.000,0.915,0.595,0.498,593.000,103.000,67.000,0.000,0.000,0.000,0.969,1.000,0.915,0.595,0.498,593.000,103.000,67.000,0.000,0.000,0.000: // measure 0
0000
0000
0000
0000
,  // measure 1
1010
0000
1001
0000
,  // measure 2
0110
0000
0101
0000
,  // measure 3
1000
0100
0010
0001
1000
0100
0010
0001
,  // measure 4
0100
0010
1000
0010
0100
0001
0010
1000
,  // measure 5
0010
0001
0100
0010
0001
0100
0010
1000
,  // measure 6
0100
0000
0010
0000
0001
0000
0010
0000
0001
0010
0100
1000
0001
0010
0100
1000
,  // measure 7
0001
0000
0110
0000
,  // measure 8
0010
0100
1010
0000
,  // measure 9
0100
0000
0011
0000
,  // measure 10
0010
0000
1000
1001
,  // measure 11
0000
0000
1100
0000
,  // measure 12
0001
0100
1010
0000
,  // measure 13
0001
0000
0101
0000
,  // measure 14
0001
0000
1000
0110
,  // measure 15
0000
0000
0011
0000
,  // measure 16
1000
0001
0011
0000
,  // measure 17
0100
0000
1001
0000
,  // measure 18
0010
0000
0100
0101
,  // measure 19
0000
0000
1100
0000
,  // measure 20
0010
0001
1001
0000
,  // measure 21
0100
0000
0101
0000
,  // measure 22
0010
1001
0101
1010
,  // measure 23
0000
0000
0011
0000
,  // measure 24
0100
1000
1001
0000
,  // measure 25
0010
0000
0101
0000
,  // measure 26
0001
0000
1000
1100
,  // measure 27
0000
0000
1010
0000
,  // measure 28
0100
0001
1100
0000
,  // measure 29
0010
0000
0101
0000
,  // measure 30
0100
0000
1000
0110
,  // measure 31
0000
0000
1001
0000
,  // measure 32
1000
0100
0110
0000
,  // measure 33
0001
0000
1010
0000
,  // measure 34
0100
0000
0010
0011
,  // measure 35
0001
0100
0001
0100
,  // measure 36
0010
0100
0010
1000
,  // measure 37
0100
0010
0100
0010
0002
0000
0000
0003
,  // measure 38
0010
0110
1100
0101
,  // measure 39
0020
0000
0030
0000
0020
0000
0030
0100
,  // measure 40
0001
0100
0002
0000
0003
0001
1000
0001
,  // measure 41
2000
0000
3000
0100
1000
0100
2000
0000
,  // measure 42
3000
0100
0010
0100
0020
0000
0000
0030
,  // measure 43
0022
0000
0033
0000
0002
0000
0003
0010
,  // measure 44
1000
0010
2000
0000
3000
0001
1000
0001
,  // measure 45
2000
0000
3000
0010
0100
0010
0200
0000
,  // measure 46
0300
0001
0010
0001
0020
0000
0000
0030
,  // measure 47
1000
0010
1000
0000
1010
0000
0010
0100
0010
0000
0110
0000
,  // measure 48
0100
0001
0100
0000
0101
0000
2000
0000
0000
3000
0010
0000
,  // measure 49
1000
0100
1000
0010
1000
0001
0100
0001
0010
0001
1000
0010
,  // measure 50
0100
0010
0100
0000
0010
0000
0202
0000
0000
0303
1001
0000
,  // measure 51
0100
1000
0100
0000
1100
0000
1000
0001
1000
0000
1001
0000
,  // measure 52
0001
0100
0001
0000
0101
0000
0020
0000
0000
0030
1000
0000
,  // measure 53
0001
0010
0100
1000
0010
0100
0010
1000
0001
0100
0001
0010
,  // measure 54
0100
1000
0100
0000
0010
0000
2002
0000
0000
3003
0100
0000
,  // measure 55
0010
1000
0010
0000
0100
0000
0001
1000
,  // measure 56
0001
0000
0010
0000
0100
1000
0100
2000
,  // measure 57
0200
0000
0000
3300
0010
0001
0010
0000
,  // measure 58
0001
0000
0100
0001
0100
0000
0010
0000
,  // measure 59
1000
0001
1000
0002
2000
0000
0000
3003
,  // measure 60
0010
1000
0100
0000
0010
0000
0001
0100
,  // measure 61
0010
0000
1000
0000
0001
0010
0100
1000
,  // measure 62
0001
0100
0001
0100
1000
0100
1000
0100
,  // measure 63
0001
0010
0100
1000
0001
0010
0100
1000
0001
0100
0010
0100
0001
1000
0100
0010
,  // measure 64
0100
0000
1000
0000
0100
0000
0010
0000
0001
0000
0100
0000
0010
0000
1000
0000
0001
0000
0100
0000
0010
0000
1000
0000
0100
1000
0100
1000
0010
0100
0010
0100
,  // measure 65
0001
0000
1010
0000
,  // measure 66
0100
0010
0011
0000
,  // measure 67
0010
0000
1100
0000
,  // measure 68
0010
0000
0001
0110
,  // measure 69
0000
0000
1010
0000
,  // measure 70
0001
0010
0110
0000
,  // measure 71
0010
0000
0101
0000
,  // measure 72
0010
0000
1000
1001
,  // measure 73
0000
0000
0101
0000
,  // measure 74
1000
0100
0011
0000
,  // measure 75
0100
0000
1100
0000
,  // measure 76
0010
0000
1000
1100
,  // measure 77
0000
0000
0110
0000
,  // measure 78
1000
0001
1001
0000
,  // measure 79
0010
0000
0101
0000
,  // measure 80
1000
0101
1010
1001
,  // measure 81
0000
0000
0011
0000
,  // measure 82
0010
0100
1100
0000
,  // measure 83
0010
0000
0101
0000
,  // measure 84
0001
0000
1000
1001
,  // measure 85
0000
0000
0101
0000
,  // measure 86
0010
1000
1010
0000
,  // measure 87
0001
0000
1100
0000
,  // measure 88
0010
0000
0001
0110
,  // measure 89
0000
0000
0101
0000
,  // measure 90
1000
0100
0110
0000
,  // measure 91
0010
0000
1001
0000
,  // measure 92
0100
0000
1000
1010
,  // measure 93
0010
1000
0001
0100
,  // measure 94
0010
1000
0001
1000
,  // measure 95
0010
0100
0010
0100
2000
0000
0000
3000
,  // measure 96
0100
0101
1001
1100
,  // measure 97
0220
0000
0330
0000
0020
0000
0030
0001
,  // measure 98
0010
0001
0020
0000
0030
0001
0100
0001
,  // measure 99
0200
0000
0300
0010
1000
0010
2000
0000
,  // measure 100
3000
0100
1000
0100
2000
0000
0000
3000
,  // measure 101
1000
0000
0001
0000
1000
0000
0000
0000
2002
0000
3003
0000
,  // measure 102
0001
0000
0100
0000
0001
0000
0000
0000
0202
0000
0303
0000
,  // measure 103
0100
0000
0010
0000
0100
0000
0000
0000
0220
0000
0330
0000
,  // measure 104
2020
0000
0000
0000
0000
0000
3030
0000
0002
0000
0000
0003
,  // measure 105
0010
0000
0001
0000
0100
0000
0010
0000
1000
0000
0001
0000
,  // measure 106
0010
0000
0100
0000
0010
0000
0001
0000
0100
0000
0001
0000
,  // measure 107
1000
0000
0100
0000
1000
0000
0000
0000
0220
0000
0330
0000
,  // measure 108
0202
0000
0000
0000
0000
0000
0303
0000
0010
0000
0000
0000
,  // measure 109
0100
0000
0010
0000
0100
0000
0000
0000
0220
0000
0330
0000
,  // measure 110
0010
0000
1000
0000
0010
0000
0000
0000
2020
0000
3030
0000
,  // measure 111
1000
0000
0001
0000
1000
0000
0000
0000
2002
0000
3003
0000
,  // measure 112
0202
0000
0000
0000
0000
0000
0303
0000
0020
0000
0030
0000
,  // measure 113
1000
0000
0100
0000
0010
0000
0001
0100
0000
0010
0000
0100
,  // measure 114
0001
0000
1000
0001
0000
0010
0000
0100
0000
0010
0000
0001
,  // measure 115
0100
0000
0010
0000
0100
0000
0000
0000
0220
0000
0330
0000
,  // measure 116
2200
0000
0000
0000
0000
0000
0000
3300
0002
0000
0003
0000
,  // measure 117
0100
0001
0100
0000
0110
0000
0010
1000
,  // measure 118
0010
0000
1010
0000
1000
0001
0100
0001
,  // measure 119
0200
0000
0000
0300
0010
1000
0010
0000
,  // measure 120
0110
0000
1000
0001
1000
0000
1001
0000
,  // measure 121
0100
1000
0100
1000
0020
0000
0000
0030
,  // measure 122
0100
0001
0100
0000
0101
0000
0001
1000
,  // measure 123
0001
0000
1001
0000
0010
0100
0010
0100
,  // measure 124
2000
0000
0000
3000
0100
0010
0100
0000
,  // measure 125
0110
0000
0010
0001
0010
0000
0011
0000
,  // measure 126
0100
0001
0100
0010
0200
0000
0000
0300
,  // measure 127
0010
1000
0100
0000
1000
0000
0100
0010
,  // measure 128
0001
0000
0100
0000
0010
1000
0001
1000
,  // measure 129
0100
0010
0100
0010
0100
1000
0001
0000
,  // measure 130
0100
0000
0010
1000
0001
0000
0010
0000
,  // measure 131
0100
1000
0001
1000
0001
0100
0001
0100
,  // measure 132
0010
1000
0100
0000
0010
0000
0100
1000
,  // measure 133
0001
0000
0100
0000
0001
0100
0010
1000
,  // measure 134
0100
0001
0100
0001
0100
1000
0100
1000
,  // measure 135
0010
0001
0100
0010
,  // measure 136
1000
0001
0010
0100
,  // measure 137
1000
0010
0100
0010
,  // measure 138
1000
0100
0010
0002
,  // measure 139
0200
0000
0000
0000
,  // measure 140
0000
0000
0000
0303
,  // measure 141
1010
0000
0000
0000
,  // measure 142
2200
0000
0000
0000
,  // measure 143
0000
0000
0000
0000
,  // measure 144
0000
0000
0000
0000
,  // measure 145
0000
0000
0000
0000
0000
0000
0000
3300
;
