#TITLE:[TECHNIKA 2] Cosmic Fantastic Lovesong [KuroNightStar];
#SUBTITLE:DJ Max Technika 2;
#ARTIST:DINY (vocals Chohee);
#TITLETRANSLIT:;
#SUBTITLETRANSLIT:;
#ARTISTTRANSLIT:;
#CREDIT:KuroNightStar;
#BANNER:;
#BACKGROUND:Cosmic Fantastic Lovesong-bg.png;
#LYRICSPATH:;
#CDTITLE:!lhl-cdtitle.png;
#MUSIC:05 - Cosmic Fantastic Lovesong.mp3;
#OFFSET:1.040;
#SAMPLESTART:58.498;
#SAMPLELENGTH:13.760;
#SELECTABLE:YES;
#BPMS:0.000=136.000;
#STOPS:;
#BGCHANGES:;

//---------------dance-single - Light----------------
#NOTES:
     dance-single:
     Light:
     Easy:
     3:
     0.179,0.246,0.147,0.156,0.000:
0000
0000
0000
0000
,
2000
0000
0000
3000
,
0200
0000
0000
0300
,
0002
0000
0000
0003
,
0010
0100
0010
0100
,
2000
0000
0000
3000
,
0002
0000
0000
0003
,
2000
0000
0000
3000
,
0002
0000
0000
0003
,
0001
0000
0010
0000
,
1000
0000
0100
0000
,
0010
0000
0100
0000
,
0010
0000
1000
0000
,
1001
0000
0010
0000
,
0001
0000
0100
0000
,
0110
0000
1100
0000
,
0101
0000
0110
0000
,
2000
0000
0000
3000
,
0200
0000
0000
0300
,
2000
0000
0000
3000
,
0002
0000
0000
0000
,
0013
0000
0100
0000
,
0010
0000
1000
0000
,
0010
0000
0001
0000
,
0100
0000
0110
0000
,
1001
0000
0000
0000
,
1010
0000
0000
0000
,
0011
0000
0000
0000
,
1001
0000
0000
0000
,
0100
0000
1000
0000
,
0100
0000
0001
0000
,
0010
0000
0100
0000
,
1000
0000
0001
0000
,
2000
0000
0000
0000
,
3001
0001
0001
0000
,
0100
0100
0100
0000
,
0010
0000
1000
0000
,
0010
0010
0100
0100
,
1000
0000
0001
0000
,
0010
0000
0100
0000
,
1000
0000
0010
0000
,
0001
0000
0100
0000
,
0010
0000
1001
0000
,
0100
0100
0100
0000
,
0010
0000
0011
0000
,
1000
0001
1000
0000
,
1000
0000
0100
0000
,
0010
0000
0001
0000
,
0100
0000
0010
0000
,
0200
0000
0000
0000
,
2300
0000
0000
0000
,
3001
0000
0000
0000
,
0002
0000
0000
0000
,
1003
0000
0000
0000
,
0100
0000
0010
0000
,
0001
0000
0100
0000
,
1010
0000
0101
0000
,
1001
0000
0110
0000
,
0200
0000
0000
0020
0000
0000
0000
0000
,
0000
0000
0000
0330
0000
0000
0000
0000
;

//---------------dance-single - Standard----------------
#NOTES:
     dance-single:
     Standard:
     Medium:
     5:
     0.289,0.382,0.202,0.257,0.000:
0000
0000
0000
0000
,
0002
0000
0000
0000
,
0203
0000
0000
0000
,
2300
0000
0000
0000
,
3001
0001
0001
0001
,
1000
0100
1000
0000
,
0010
0100
0010
0000
,
1001
0000
1010
0000
,
0101
0000
0011
0000
,
2000
0001
0001
0001
,
0001
0001
0001
3001
,
0020
0100
0100
0100
,
0100
0100
0100
0130
,
1000
0100
0100
0100
,
0001
0100
0100
0100
,
1001
0010
1001
0100
,
1001
0010
1001
0100
,
0002
0000
0010
0000
,
2003
0000
0100
0000
,
3020
0000
0100
0000
,
0032
0000
0100
0000
,
1003
1000
1000
0000
,
0100
1000
0100
0000
,
0010
0010
0010
0000
,
0001
0100
0001
1001
,
0200
0000
0001
0000
,
2300
0000
0010
0000
,
3020
0000
0000
0000
,
0230
0000
0000
0000
,
0302
0000
0100
0000
,
2003
0000
0001
0000
,
3020
0000
0230
0000
,
0302
0000
2003
0000
,
3200
0000
0000
0000
,
1300
0100
0010
0001
,
1000
0100
1000
0100
0000
0000
0000
0000
,
0010
0100
0001
1000
,
1001
0110
1001
1100
,
0001
0000
0100
0000
,
0010
0010
0001
0001
,
1000
0000
0100
0000
,
0010
0000
0100
1000
,
1001
1001
0010
0100
,
2000
0100
0100
0100
,
3010
0100
0001
0010
,
0002
0000
0010
0000
0010
0000
0010
0003
,
2000
0000
0000
0000
,
3020
0000
0001
1000
,
0230
0000
0000
0000
,
0302
0000
0000
0000
,
1003
0100
0010
0001
,
1000
0000
0100
0000
0010
0100
0010
0000
,
0001
0010
0100
1000
,
0100
0000
0001
0000
0001
1000
0001
0000
,
1001
0100
0010
1000
,
1100
0010
0100
0001
,
0101
0100
1100
0010
,
1010
0001
0011
1001
,
0020
0000
0000
2000
0000
0000
0000
0000
,
0000
0000
0000
0000
0000
0000
0000
0000
0000
0000
0000
0000
0000
0000
0000
0000
0000
0000
0000
0000
0000
0000
0000
0000
0000
0000
0000
0000
0000
0000
0000
0000
0000
0000
0000
0000
0000
0000
0000
0000
0000
0000
0000
0000
0000
0000
0000
0000
0000
0000
0000
0000
0000
0000
0000
0000
0000
0000
0000
0000
0000
0000
0000
0000
0000
0000
0000
0000
0000
0000
0000
0000
0000
3030
0000
0000
0000
0000
0000
0000
0000
0000
0000
0000
0000
0000
0000
0000
0000
0000
0000
0000
0000
0000
0000
0000
0000
0000
0000
0000
0000
0000
0000
0000
0000
0000
0000
0000
0000
0000
0000
0000
0000
0000
0000
0000
0000
0000
0000
0000
0000
0000
0000
0000
0000
0000
0000
0000
0000
0000
0000
0000
0000
0000
0000
0000
0000
0000
0000
0000
0000
0000
0000
0000
0000
0000
0000
0000
0000
0000
0000
0000
0000
0000
0000
0000
0000
0000
0000
0000
0000
0000
0000
0000
0000
0000
0000
0000
0000
0000
0000
0000
0000
0000
0000
0000
0000
0000
0000
0000
0000
0000
0000
0000
0000
0000
0000
0000
0000
0000
0000
0000
;

//---------------dance-single - Heavy----------------
#NOTES:
     dance-single:
     Heavy:
     Hard:
     7:
     0.424,0.410,0.313,0.285,0.000:
0000
0000
0000
0000
,
1100
0110
1000
0010
,
1000
0100
0010
0001
0000
0000
1000
0000
,
0010
1000
0100
0010
0000
1001
0000
0010
,
1000
1100
0101
0010
,
0200
0000
0001
0000
0001
0000
0301
0001
,
2000
0100
0100
0100
,
3020
0000
0230
0000
,
0301
1000
0100
1001
,
1000
0100
1000
0000
0010
0100
0010
0000
,
0001
0100
0001
1000
0010
0100
1000
0000
,
0010
0100
0010
0000
1000
0100
0010
0000
,
0001
1000
0100
0010
0001
1000
0100
0000
,
1001
0010
1100
0001
,
0101
0100
1000
0010
,
1010
0100
0110
0001
,
0110
0000
1000
0000
0110
0000
1000
0200
,
0000
0000
0000
0000
0301
0100
0001
0020
,
0000
0000
0001
0001
0000
0230
0000
0000
,
0000
0000
0000
0000
0301
1000
0100
0020
,
0000
0000
0100
0100
0000
1000
0000
0230
,
0000
1000
1000
1000
0000
0310
0100
0020
,
0000
0000
0100
0100
0000
0100
0000
0032
,
0000
0000
0000
0000
0000
1003
0100
0020
,
0000
0000
0000
0030
,
1001
0000
1000
0100
0010
0000
0100
1000
,
0000
0010
0100
1000
0000
0100
0000
2001
,
0000
0000
0000
0000
0000
0000
3100
2000
,
0000
0000
0000
0000
,
3010
0000
0100
0000
0010
0001
0000
1100
,
0000
0010
0100
0000
0000
0100
0010
0001
,
1001
0010
1100
0001
,
0110
1010
0011
0100
,
0002
0000
2000
0000
0000
3003
0010
1000
,
1100
0000
0010
0100
1000
0000
0100
0000
,
0010
0001
0010
0200
0000
0000
0001
0000
,
1300
0010
0100
0001
0000
1100
0000
0001
,
0101
0000
1100
0000
0110
0000
1000
0200
,
0000
0001
0001
0001
0000
0310
0010
0100
,
0001
0000
0100
0000
1010
0000
0100
0010
,
0000
0002
0000
0000
0000
1003
0100
0001
,
2000
0000
0000
0000
0000
3001
0100
0100
,
0001
2002
0103
0100
,
3010
0100
0001
2000
0000
0000
0100
0000
,
3001
0100
0010
0200
0000
0010
0000
0010
,
0001
0000
0010
0000
0001
0000
0001
0310
,
0000
1000
0100
0020
0000
0100
0100
0100
,
0032
0000
1000
0000
0100
0000
1003
0200
,
0000
0000
0000
0001
0000
0000
0000
0300
,
1010
0000
0101
0000
0100
1000
0000
0002
,
0100
0100
0100
0100
,
0100
0000
0100
0000
0100
0100
0100
0000
,
2003
0010
0010
0010
,
0010
0000
0010
0000
0010
0010
0010
3000
,
0100
0010
0001
0000
0001
0100
0010
0000
,
0010
1000
0100
0000
1000
0100
0010
0000
,
1100
0001
0101
0010
,
1010
0000
0100
0000
0011
0000
0100
1000
,
0002
0000
0000
2000
0000
0000
0000
0000
,
0000
0000
3003
0000
;

//---------------dance-single - Challenge----------------
#NOTES:
     dance-single:
     Challenge:
     Challenge:
     9:
     0.615,0.629,0.358,0.257,0.280: // measure 1
0000
0000
0000
0000
,  // measure 2
1001
0000
0010
2000
0000
0000
0100
0000
,  // measure 3
3010
1000
0100
0020
0000
0000
0001
0000
,  // measure 4
0031
1000
0010
1000
0000
1100
0000
0010
,  // measure 5
1000
0100
0001
0010
1000
0010
0001
0100
1000
0010
0001
0010
,  // measure 6
1000
0100
0010
0100
0001
1000
0010
0000
,  // measure 7
0100
0001
0010
0001
0100
1000
0100
0000
,  // measure 8
0100
1000
0100
0010
0100
1000
0100
0010
0001
0010
1000
0010
0001
0000
0001
0000
,  // measure 9
0001
1000
0100
0010
0100
0001
0010
0100
0010
1000
0100
0001
,  // measure 10
0010
0000
1000
0000
0100
0000
1000
0100
0000
0010
0100
0000
1000
0000
0100
0000
,  // measure 11
0100
0000
0010
0000
1000
0000
0100
0010
0000
0001
1000
0000
0100
0000
1000
0000
,  // measure 12
0010
0000
1000
0000
0100
0000
1000
0001
0000
1000
0100
0000
1000
0000
0010
0000
,  // measure 13
1000
0000
0100
0000
0010
0000
0001
1000
0000
0100
1000
0000
0010
0000
0100
0000
,  // measure 14
1001
0000
0100
0000
0010
0000
1000
0100
0000
1000
0001
0000
0100
0000
0010
0000
,  // measure 15
1000
0000
0100
0000
0010
0000
0100
0010
0000
0001
1000
0000
0100
0000
1000
0000
,  // measure 16
1100
0010
0100
0001
0101
0010
1000
0100
,  // measure 17
1100
0001
0010
0100
1000
0001
0101
2200
,  // measure 18
0000
0000
0000
3300
0010
1000
0100
0010
,  // measure 19
1001
0000
0000
1100
0000
0000
0110
0000
0000
0000
0100
0000
1000
0000
0100
0000
,  // measure 20
0010
0000
0000
0001
0000
0000
1000
0000
0010
0000
0100
0000
0001
0000
1000
0000
,  // measure 21
0100
0000
0000
1000
0000
0000
0100
0000
0010
0000
1000
0000
0100
0000
0010
0000
,  // measure 22
0001
1000
0100
2000
0000
0001
0001
0001
,  // measure 23
0000
0000
0010
0010
0000
0100
0000
3002
,  // measure 24
0000
0100
0100
0100
0000
1003
0010
2000
,  // measure 25
0100
0000
0000
0000
0001
0000
0000
0000
0010
3000
0000
0001
1000
0000
0100
0000
,  // measure 26
1000
0010
1000
0100
0010
0001
1000
0110
,  // measure 27
0000
0100
1000
0101
0000
0110
0000
2002
,  // measure 28
0000
0000
0000
0000
3003
0000
1000
2000
,  // measure 29
0000
0001
0100
0010
,  // measure 30
0100
3000
0000
0000
0001
0000
0010
0000
0100
0000
1000
0000
0000
0000
1100
0000
,  // measure 31
0000
0001
2000
0000
0000
0010
0010
0010
,  // measure 32
3100
1000
0011
0000
0100
0010
1100
0000
,  // measure 33
0010
0100
0001
1000
0100
0010
0001
1000
,  // measure 34
2001
0000
0001
0002
0000
3003
0001
1000
,  // measure 35
1001
0010
1000
1100
,  // measure 36
0010
0100
0001
0020
0000
0000
0032
0000
,  // measure 37
0103
0100
0010
0100
0000
0001
1000
0100
,  // measure 38
0010
1000
0100
0010
0001
0010
0100
1000
0100
0010
0001
0010
,  // measure 39
0100
0001
0100
2000
0000
0010
0100
3100
,  // measure 40
0120
0000
0001
0000
0100
0000
0001
0230
,  // measure 41
0000
0001
0001
0001
0000
1300
0010
1000
,  // measure 42
0100
0000
1000
0000
0100
0010
0100
0000
1000
0001
1000
0000
0100
0010
0100
0000
,  // measure 43
1001
1001
0010
0020
,  // measure 44
0001
0031
2000
0010
0000
0000
0001
0000
,  // measure 45
3100
0010
0001
1000
0000
0101
0000
1010
,  // measure 46
0200
0000
0001
0000
1000
0000
0010
1000
,  // measure 47
0300
0000
0001
0000
1000
0000
0200
0000
0000
0300
2000
0000
0010
0000
0100
0000
,  // measure 48
0100
0000
0010
0000
0100
0000
3002
0100
,  // measure 49
0000
0000
0000
0010
0000
1003
0100
0010
,  // measure 50
1001
0000
0110
0000
1100
1100
0000
0101
,  // measure 51
1000
0000
0100
0000
0010
0000
0001
0010
0000
1000
0100
0000
1000
0000
0001
0000
,  // measure 52
0100
0000
0010
0000
1000
0000
0100
0010
0000
0010
0100
0000
0100
0000
1000
0000
,  // measure 53
0010
0000
0100
0000
0001
0000
0010
0001
0000
1000
0010
0000
0100
0000
0001
0000
,  // measure 54
1000
0000
0100
0000
0010
0000
0001
0010
0000
1000
0010
0000
0100
0000
0001
0000
,  // measure 55
0110
0000
0100
0000
1000
0000
0001
0100
0000
0010
0001
0000
1000
0000
0100
0000
,  // measure 56
1000
0000
0010
0000
0100
0000
0001
1000
0000
0100
1000
0000
0010
0000
0100
0000
,  // measure 57
0101
0010
1000
0100
0110
0001
1000
0100
,  // measure 58
1100
0010
0100
0001
1000
0100
1010
0101
,  // measure 59
2002
0000
0000
0000
0000
3003
0220
0000
0000
0000
0000
0000
0000
0000
0000
0000
,  // measure 60
0000
0000
0000
0000
0000
0000
0000
0000
0000
0000
0000
0000
0000
0000
0000
0000
0000
0000
0000
0000
0000
0000
0000
0000
0000
0000
0000
0000
0000
0000
0000
0000
0000
0000
0000
0000
0000
0000
0000
0000
0000
0000
0000
0000
0000
0000
0000
0000
0000
0000
0000
0000
0000
0000
0000
0000
0000
0000
0000
0000
0000
0000
0000
0000
0000
0000
0000
0000
0000
0000
0000
0000
0000
0000
0000
0000
0000
0000
0000
0000
0000
0000
0000
0000
0000
0000
0000
0000
0000
0000
0000
0000
0000
0000
0000
0000
0000
0330
0000
0000
0000
0000
0000
0000
0000
0000
0000
0000
0000
0000
0000
0000
0000
0000
0000
0000
0000
0000
0000
0000
0000
0000
0000
0000
0000
0000
0000
0000
0000
0000
0000
0000
0000
0000
0000
0000
0000
0000
0000
0000
0000
0000
0000
0000
0000
0000
0000
0000
0000
0000
0000
0000
0000
0000
0000
0000
0000
0000
0000
0000
0000
0000
0000
0000
0000
0000
0000
0000
0000
0000
0000
0000
0000
0000
0000
0000
0000
0000
0000
0000
0000
0000
0000
0000
0000
0000
0000
0000
0000
0000
0000
0000
;
