#TITLE:SINister Evolution;
#SUBTITLE:;
#ARTIST:TAK;
#TITLETRANSLIT:;
#SUBTITLETRANSLIT:;
#ARTISTTRANSLIT:;
#GENRE:Dramatic Dubstep;
#CREDIT:KNS-17;
#BANNER:SINister Evolution.bn.png;
#BACKGROUND:Sinister Evolution.bg.png;
#LYRICSPATH:;
#CDTITLE:;
#MUSIC:SINister Evolution.mp3;
#OFFSET:1.500;
#SAMPLESTART:101.500;
#SAMPLELENGTH:12.000;
#LASTBEATHINT:1.242;
#SELECTABLE:YES;
#DISPLAYBPM:*;
#BPMS:0.000=149.050
,16.000=596.200
,20.000=149.050
,21.000=596.200
,29.000=149.050
,37.000=596.200
,53.000=74.525
,54.000=1192.400
,69.000=37.263
,77.000=149.050
,107.000=596.200
,116.000=74.525
,117.000=149.050
,124.000=596.200
,125.000=149.050
,133.000=1192.400
,135.000=298.100
,143.000=74.525
,144.000=149.050
,150.000=596.200
,152.000=1192.400
,169.000=149.050
,174.000=596.200
,176.000=298.100
,184.000=149.050
,192.000=74.525
,196.000=37.263
,200.000=149.050
,258.000=596.200
,262.000=74.525
,263.000=149.050
,270.000=596.200
,271.000=149.050
,279.000=1192.400
,281.000=149.050
,285.000=298.100
,286.000=149.050
,292.000=596.200
,294.000=1192.400
,310.000=149.050
,315.000=596.200
,317.000=298.100
,341.000=149.050
,349.000=74.525
;
#STOPS:124.000=0.060,
124.250=0.060,
124.500=0.060,
124.750=0.060,
133.000=0.090,
133.250=0.090,
133.500=0.090,
133.750=0.090,
134.000=0.090,
134.250=0.090,
134.500=0.090,
134.750=0.090,
150.000=0.180,
150.750=0.180,
151.500=0.180,
174.000=0.060,
174.250=0.060,
174.500=0.060,
174.750=0.060,
175.000=0.140,
175.333=0.140,
175.667=0.140,
176.000=0.360,
258.000=0.400,
270.000=0.080,
270.250=0.080,
270.500=0.080,
270.750=0.080,
279.000=0.090,
279.250=0.090,
279.500=0.090,
279.750=0.090,
280.000=0.090,
280.250=0.090,
280.500=0.090,
280.750=0.090,
285.000=0.080,
285.125=0.080,
285.250=0.080,
285.375=0.080,
285.500=0.080,
285.625=0.080,
285.750=0.080,
285.875=0.080,
292.000=0.180,
292.750=0.180,
293.500=0.180,
315.000=0.070,
315.250=0.070,
315.500=0.070,
315.750=0.070,
316.000=0.140,
316.333=0.140,
316.667=0.140,
317.000=0.360
;
#BGCHANGES:;
#KEYSOUNDS:;
#ATTACKS:;

//---------------dance-single - Blank----------------
#NOTES:
     dance-single:
     :
     Challenge:
     14:
     0.560,0.977,0.438,0.508,0.562,550.000,81.000,94.000,0.000,0.000,0.000,0.560,0.977,0.438,0.508,0.562,550.000,81.000,94.000,0.000,0.000,0.000:
0000
0000
0000
0000
,
1000
0010
1000
0010
0000
0000
1010
0000
0000
1010
0000
0000
1010
0000
0000
0000
,
1000
0001
1000
0001
0000
0000
1001
0000
0000
1001
0000
0000
1001
0000
0000
0000
,
0100
1000
0100
1000
0000
0000
1100
0000
0000
1100
0000
0000
1100
0000
0000
0000
,
0001
0100
0001
0100
0001
0100
0001
0000
,
0100
0000
0010
1000
0010
1000
0010
1000
,
0010
1000
0010
0000
0100
0000
0001
0000
,
1000
0000
0000
0000
0100
0010
0001
0010
0000
0000
0011
0000
0000
1001
0000
0000
,
1010
0000
0000
0000
1000
0010
0100
0010
0000
0000
0110
0000
0000
1010
0000
0000
,
1100
0000
1000
0100
1000
0100
1000
0100
,
1000
0100
0010
0000
0001
0000
1000
0000
,
0010
0100
0001
0010
,
1000
0010
0001
0100
,
0010
2000
0020
0000
,
0000
0000
0000
0000
,
0000
0000
0000
0000
,
0000
0000
0000
0000
,
0000
3030
1000
1100
0010
0110
0001
1001
,
0100
0101
0010
1010
0001
0011
0100
0110
,
1000
0100
0010
0001
0010
0100
1000
0010
0100
0000
0001
0100
0000
0001
0100
0000
0010
0000
0000
0000
0000
0000
0000
0000
1000
0000
0000
0000
0000
0000
0000
0000
0001
0000
0000
0000
0000
0000
0000
0000
1000
0000
0000
0000
0000
0000
0000
0000
0100
0000
0000
0000
0000
0000
0000
0000
0010
0000
0000
0000
0000
0000
0000
0000
,
0001
1000
0010
1000
0001
0010
1000
0010
,
0001
0100
0010
1000
0100
0010
0001
0100
,
1000
0100
0010
0001
1000
0001
0010
0100
,
0010
0000
0001
0000
0101
0000
0000
1010
0000
0000
0110
0000
0000
0101
0000
0000
,
0011
0000
0000
1001
0000
0000
1100
0000
0000
1010
0000
0000
0101
0000
0000
0110
,
0000
0000
0000
0000
1010
0000
0000
0000
0001
0000
0010
0000
0001
0000
0010
0000
0001
0000
0100
0000
0001
0000
0100
0000
0010
1000
0010
1000
0010
1000
0010
1000
,
0010
1000
0010
1000
0010
1000
0010
1000
0200
0000
0000
0000
0000
0000
0000
0000
0000
0000
0000
0000
0000
0000
0300
0000
0220
0000
0000
0000
0000
0000
0000
0000
,
0000
0000
0000
0000
,
0000
0000
0000
0000
0000
0000
0000
0030
,
2000
3300
2002
0000
0000
3000
2000
0000
,
0000
0003
0020
0000
0030
3100
0202
0303
,
1000
0000
0000
0010
0000
0000
0100
0000
0000
0001
0000
0000
0010
0000
0000
0001
0000
0000
0100
0000
0000
0010
0000
0000
2000
0000
0000
0000
0000
0000
0000
0000
0000
0000
0000
0000
3001
0000
0010
0000
0100
0000
0010
0000
0001
0000
0010
0000
,
0100
0010
0001
0010
0100
0010
0001
0100
0010
0100
0001
0100
0010
0100
0001
0100
0010
0100
0002
0000
0000
0000
0000
0000
,
0000
0000
0003
0000
1000
0100
0001
0100
1000
0010
0001
0010
2000
0000
0000
0000
,
0000
0000
0000
0000
0000
3000
0220
0000
,
0000
0000
0000
0000
0000
0000
0000
0000
0000
0000
0000
0000
0000
0000
0000
0000
0000
0000
0000
0000
0000
0000
0000
0000
0000
0000
0000
0000
0000
0000
0330
0000
0000
0000
0000
0000
1000
0100
0010
0100
1000
0100
0010
0100
1000
0010
0000
0010
,
0110
0000
1010
0000
1001
0000
0011
0000
0110
0000
1100
0000
,
1001
0000
0000
0000
0000
0000
0000
0000
0101
0000
0000
0000
0000
0000
0000
0000
0110
0000
0000
0000
0000
0000
0000
0000
2020
0000
0000
0000
0000
0000
0030
0000
0000
0020
0000
0000
0000
0000
0000
3000
0000
0000
2000
0000
0000
3030
0000
0000
,
0202
0000
0000
0000
,
0000
0000
0000
0000
,
0000
0000
0000
0000
,
0000
0000
0000
0000
,
0000
0003
0320
0000
0000
1030
2020
0000
,
0000
0000
0000
0000
0000
0000
3030
0000
0000
0000
0000
0000
2002
0000
0000
0000
0000
0000
3003
0000
0000
0000
0000
0000
0001
0000
0000
0100
0000
0000
1000
0000
0000
0100
0000
0000
0001
0000
0000
0000
0001
0000
0000
0000
0001
0000
0000
0000
,
0001
1000
0100
0010
0100
1000
0100
0010
0100
1000
0010
0100
,
0002
0000
0000
0000
2000
0000
0000
3003
,
0200
0000
0000
0310
0220
0000
0000
0330
,
1020
0000
0000
1030
2002
0000
0000
3000
,
0200
0000
0000
0003
0020
0300
2000
3030
,
2002
0000
0000
0000
0000
0000
3003
0000
0200
0000
0000
0300
0020
0030
0022
0033
,
1000
0010
0100
0001
2000
0000
3000
1000
,
0001
0010
0100
1000
0002
0000
0000
0000
,
0103
0000
0010
0000
1000
0000
0100
0000
0010
0000
0000
0001
0000
0000
1000
0000
,
0010
0000
0000
1000
0000
0000
0001
0000
0000
0010
0100
0010
0100
0000
0000
1000
0000
0000
2002
0000
0000
3003
0000
0000
,
0200
0310
0001
1000
0020
0130
0001
1000
,
0200
0301
0100
1000
0020
0031
0010
1000
,
0002
0013
0100
1000
0020
0130
0001
0010
,
0200
0310
0001
0100
2000
3100
0010
1000
,
0011
0000
0000
1001
0000
0000
1010
0000
0000
0110
0000
0000
0101
0000
0000
1100
,
0000
0000
0011
0000
0000
0110
0000
0000
1100
0000
0000
0101
0000
0000
0110
0000
,
1000
0000
0100
0000
0010
0000
0001
0000
1000
0000
0010
0000
0001
0000
0010
0000
1000
0100
1000
0100
1000
0100
1000
0100
1000
0100
1000
0100
1000
0100
1000
0100
,
0020
0031
0100
0001
1000
0010
0100
0001
1000
0100
0010
0100
1000
0001
1000
0010
,
1000
0100
0010
0001
1000
0001
0100
0001
1000
0010
0001
0010
0100
0010
1000
0100
,
0020
0031
0100
0001
1000
0010
0100
0001
0010
1000
0010
0001
0100
0010
1000
0001
,
0020
0000
0230
0000
,
0000
0000
0000
0000
2300
3000
2002
0000
,
0000
3003
0202
0000
0000
0303
0220
0000
,
0000
0000
0300
0000
0200
0000
0330
0000
0010
1000
0001
1000
0100
0010
0001
1000
,
0020
0000
0000
0030
0000
0000
1000
0100
0010
0100
1000
0100
0010
0100
1000
0100
0010
0100
1000
0010
0100
0010
1000
0010
,
0100
0000
0010
0000
1000
0000
0010
0000
0100
0000
0010
0000
2000
0000
0000
0000
0000
0000
0000
0000
0000
0000
0000
0000
0000
0000
0000
0000
0000
0000
3000
0000
0000
0000
0000
0000
0001
0000
0000
0010
0000
0000
1000
0000
0000
0010
0000
0000
,
0001
0100
1000
0100
0002
0000
0000
0000
0000
0000
1003
0000
2200
0000
0000
0000
,
0000
0000
0000
0000
0000
0000
0000
0000
0000
0000
0000
0000
0000
0000
0000
0000
0000
0000
0000
0000
0000
0000
0000
0000
3300
0000
0000
0000
0000
0000
0000
0000
0000
0000
0000
0000
0000
0000
0000
0000
0000
0000
0000
0000
0000
0000
0000
0000
1000
0000
0000
0010
0000
0000
0100
0000
0000
0001
0000
0000
1000
0000
0000
0010
0000
0000
0100
0000
0000
0001
0000
0000
1000
0000
0000
0000
0000
0000
0010
0000
0000
0000
0000
0000
0100
0000
0000
0000
0000
0000
0001
0000
0000
0000
0000
0000
1000
0000
0000
0000
0000
0000
0000
0000
0000
0000
0000
0000
0000
0000
0000
0000
0000
0000
0000
0000
0000
0000
0000
0000
0000
0000
0000
0000
0000
0000
0000
0000
0100
0000
0000
0000
0000
0000
0000
0000
0000
0000
0000
0000
0000
0000
0000
0000
0000
0000
0000
0000
0000
0000
0000
0000
0000
0000
0000
0000
0000
0000
0000
0000
0001
0000
0000
0000
0000
0000
0000
0000
0000
0000
0000
0000
0000
0000
0000
0000
0000
0000
0000
0000
0000
0000
0000
0000
0000
0000
0000
0000
0000
0000
0000
0000
,
0100
0000
1000
0000
0010
0000
0100
0000
0001
0000
1000
0000
,
0110
0000
0000
0110
0000
0000
0110
0000
0022
0000
0000
0000
0000
0000
0000
0000
,
0000
0000
0000
0000
,
0000
0000
0000
0000
,
0000
0000
0000
0000
,
0000
0000
0000
0030
2000
0000
3000
1003
,
2020
0000
0000
0000
0000
0000
3030
0000
0202
0000
0303
0000
1000
0100
0001
0100
,
1000
1000
1000
1000
0010
0100
0001
0100
0010
0100
0001
0100
,
0010
0100
0001
0100
0010
1000
0010
0100
0010
1000
0010
0100
,
0010
1000
0010
0200
0000
0000
0000
0000
0000
0000
0000
0000
,
0310
2020
0000
0000
,
0000
3030
2002
0000
0000
0000
0000
3003
,
0001
0022
0000
0000
,
0000
0033
0020
0000
0000
0000
2000
0000
,
0000
0030
0200
0000
0000
3000
0002
0000
,
0000
0303
2002
0000
0000
0000
0000
0000
,
0000
3003
0000
0000
;

//---------------dance-single - ----------------
#NOTES:
     dance-single:
     :
     Easy:
     7:
     0.167,0.286,0.103,0.276,0.000,147.000,19.000,51.000,0.000,0.000,0.000,0.167,0.286,0.103,0.276,0.000,147.000,19.000,51.000,0.000,0.000,0.000:
0000
0000
0000
0000
,
2000
0000
0000
0000
,
3020
0000
0000
0000
,
0230
0000
0000
0000
,
0302
0000
0000
0000
,
0000
0003
2000
0000
0000
0000
0000
0000
,
0000
0000
0000
0000
,
0000
3000
0200
0000
0000
0000
0000
0000
,
0000
0320
0000
0000
,
0000
0032
0000
0000
,
0000
0000
0000
0000
,
2003
0000
0000
0000
,
0000
0000
0000
0000
,
0000
3000
0010
0000
0110
0000
0000
0000
,
0000
0000
0000
0000
,
0000
0000
0000
0000
,
0000
0000
0000
0000
,
0000
1000
1000
0010
,
0010
0100
0100
0001
,
0001
1000
0100
1000
,
0000
0001
0100
0001
,
0000
0100
0010
0100
,
0000
0010
1000
0010
,
0000
1000
0000
0100
,
0000
0010
0000
0001
,
0000
1000
0010
1000
,
0010
0100
0001
0200
,
0000
0000
0000
0000
,
0000
0000
0000
0000
,
0300
0120
0000
2030
,
0000
3002
0000
0203
,
0320
0030
0100
0000
0001
0000
2000
0000
,
0000
0000
0200
0000
0000
3300
0110
0000
,
0000
0000
0002
0000
0000
0003
1000
0000
,
0000
0000
0000
1010
,
0000
0000
0000
0120
,
0130
0001
1000
0100
,
0010
0000
0001
0000
0200
0000
0000
0300
,
0200
0000
0000
0000
,
0000
0000
0000
0000
,
0000
0000
0000
0000
,
0000
0000
0000
0000
,
0000
0300
0000
1010
,
0000
1000
0002
0000
,
0003
0000
0000
0000
,
0110
0000
0000
0000
,
2000
0000
0100
0000
,
3002
0000
0100
0000
,
0203
0000
0000
0000
0020
0000
0000
0330
,
2002
0000
0000
0000
0000
0000
0000
3003
0200
0000
0000
0300
0020
0000
0000
0030
,
0001
0000
1000
0000
0200
0000
0000
0300
,
0010
0000
0001
0000
2000
0000
0000
3000
,
0010
0100
0002
0010
,
0023
0100
1030
0000
,
0001
0000
1000
0000
0020
0000
0000
0030
,
0100
0000
0010
0000
2000
0000
0000
3000
,
0100
0000
0010
0000
0002
0000
0000
0003
,
1000
0000
0010
0000
2000
0000
0000
3000
,
0100
0000
0010
0000
,
0001
0000
0100
0000
,
0010
1000
0001
1000
,
0200
0000
0000
0000
,
0000
0000
0000
0000
,
0320
0000
0000
0000
,
0032
0000
2003
0000
,
0000
0000
3000
0101
,
0000
0100
0000
0110
,
0000
1000
0200
0310
,
0000
0011
0000
0001
,
0000
1001
0000
2000
,
0000
3010
0000
0110
,
0000
1000
1001
1000
,
0010
1000
0010
0100
,
0020
0000
1030
0000
,
0000
0000
0000
0000
,
0000
0000
0000
0000
,
0000
0000
0000
0000
,
0000
0000
0000
0000
,
0101
0000
0000
0000
0100
0000
0020
0030
,
2000
3000
0000
0000
,
0000
1010
0000
0000
,
0000
1000
0000
0000
,
0000
1100
0000
0000
,
0000
0010
0000
0000
,
0000
0011
0000
0000
,
0000
2000
0000
0000
,
0000
0002
0000
0000
,
0000
3003
0220
0000
0000
0000
0000
0000
,
0000
0330
0000
0000
;

//---------------dance-single - ----------------
#NOTES:
     dance-single:
     :
     Hard:
     12:
     0.455,0.596,0.308,0.492,0.373,441.000,57.000,91.000,0.000,0.000,0.000,0.455,0.596,0.308,0.492,0.373,441.000,57.000,91.000,0.000,0.000,0.000:
0000
0000
0000
0000
,
0010
1000
0010
1000
0000
0000
0001
0000
0000
0001
0000
0000
0001
0000
0000
0000
,
0010
0001
0010
0001
0000
0000
1000
0000
0000
1000
0000
0000
1000
0000
0000
0000
,
0001
0100
0001
0100
0000
0000
0010
0000
0000
0010
0000
0000
0010
0000
0000
0000
,
2200
0000
0000
0000
0000
0000
0000
3300
,
0020
0030
0202
0000
0000
0000
0000
0000
,
0000
0300
2000
0000
0000
0000
0000
0000
,
0000
0000
3003
0000
0010
1000
0010
0100
0000
0000
0001
0000
0000
0001
0000
0000
,
0001
0000
0000
0000
0100
0001
0100
0010
0000
0000
1000
0000
0000
1000
0000
0000
,
1000
0200
0000
0000
,
0000
0300
0010
0000
0000
0000
0001
0000
,
0000
1000
0000
0010
,
0000
0100
0000
0001
,
0000
1000
2002
0000
,
0000
0000
0000
0000
,
0000
0000
0000
0000
,
0000
0000
0000
0000
,
0000
0000
3003
0110
0100
0101
0001
1001
,
1000
1100
0100
0011
0001
1010
1000
0110
,
0001
0000
0000
0000
0000
0000
0010
0000
0000
0000
0000
0000
0100
0000
0000
0000
0000
0000
0010
0000
0000
0000
0000
0000
0001
0000
0000
0000
0000
0000
0000
0000
0001
0000
0000
0000
0000
0000
0000
0000
0001
0000
0000
0000
0000
0000
0000
0000
1000
0000
0000
0000
0000
0000
0000
0000
0000
0000
0000
0000
0000
0000
0000
0000
0000
0000
0000
0000
0000
0000
0000
0000
0010
0000
0000
0000
0000
0000
0000
0000
0000
0000
0000
0000
0000
0000
0000
0000
0000
0000
0000
0000
0000
0000
0000
0000
0100
0000
0000
0000
0000
0000
0000
0000
0000
0000
0000
0000
0000
0000
0000
0000
0000
0000
0000
0000
0000
0000
0000
0000
0001
0000
0000
0000
0000
0000
0000
0000
0000
0000
0000
0000
0000
0000
0000
0000
0000
0000
0000
0000
0000
0000
0000
0000
1000
0000
0000
0000
0000
0000
0000
0000
0000
0000
0000
0000
0000
0000
0000
0000
0000
0000
0000
0000
0000
0000
0000
0000
0001
0000
0000
0000
0000
0000
0000
0000
0000
0000
0000
0000
0000
0000
0000
0000
0000
0000
0000
0000
0000
0000
0000
0000
,
0010
0100
0010
0001
1000
0010
0100
0001
,
1000
0100
0001
0100
1000
0010
0100
0010
,
1000
0001
0010
0100
1000
0001
0100
1000
,
0100
0000
0010
0000
0110
0000
0000
0100
0000
0000
0101
0000
0000
0001
0000
0000
,
0011
0000
0000
0010
0000
0000
0110
0000
0000
0100
0000
0000
1100
0000
0000
1000
,
0000
0000
1001
0000
0100
0000
0010
0000
1000
0000
0100
0000
0010
0001
0010
0001
,
0010
0001
0010
0001
2000
0000
0000
0000
0000
0000
3000
0000
0220
0000
0000
0000
,
0000
0000
0000
0000
,
0000
0000
0000
0000
0000
0000
0000
0030
,
0002
0303
2200
0000
0000
3300
0022
0000
,
0000
0033
2002
0000
0000
3003
0100
0000
,
0010
1000
0010
1000
0001
0010
0100
1000
0020
0000
0030
0000
0100
0010
0100
0001
,
0100
0010
0100
0001
0100
0010
1000
0010
0100
0010
1000
0010
0200
0000
0000
0000
,
0000
0000
0300
0000
1000
0010
1000
0001
1000
0100
0010
0001
2000
0000
0000
0000
,
0000
0000
3100
0220
,
0000
0000
0000
0000
0000
0000
0000
0000
0000
0000
0000
0000
0000
0000
0000
0000
0000
0000
0000
0000
0000
0000
0000
0000
0000
0000
0000
0000
0000
0000
0000
0000
0000
0000
0000
0000
0000
0000
0000
0000
0330
0000
0000
0000
0000
0000
0000
0000
1000
0000
0010
0000
0100
0000
0001
0000
1000
0000
0000
0100
0000
0010
0000
0001
,
1000
0000
1010
0000
0110
0000
0100
0000
0101
0000
0011
0000
,
0010
0000
0000
0000
0000
0000
0000
0000
0110
0000
0000
0000
0000
0000
0000
0000
1100
0000
0000
0000
0000
0000
0000
0000
1000
0000
0000
0000
0000
0000
0000
0000
0000
1000
0000
0000
0000
0000
0000
0000
0000
0000
1000
0000
0000
0000
0000
0000
,
0020
0000
0000
0000
,
0000
0000
0000
0000
,
0000
0000
0000
0000
,
0000
0000
0000
0000
,
0000
0000
0200
0000
0330
0100
0202
0000
,
0000
0000
0000
0000
0000
0000
0303
0000
0000
0000
0000
0000
1000
0000
0000
0000
0000
0000
0000
0000
0000
0000
0000
0000
0100
0000
0000
0010
0000
0000
0100
0000
0000
0010
0000
0000
0001
0000
0000
0000
0001
0000
0000
0000
0001
0000
0000
0000
,
1000
0100
0000
0000
0000
0001
0000
0000
0000
0100
0000
0000
0000
0010
0000
0000
0000
0100
0000
0000
0000
0001
0000
0000
0000
0100
0000
0000
0000
0010
0000
0000
,
0000
1000
0000
0000
0000
0010
0000
0000
0000
0100
0000
0000
0000
0010
0000
0000
0000
1000
0000
0000
0000
0010
0000
0000
0000
0100
0000
0000
0000
0010
0000
0000
,
2000
0000
0000
3001
0200
0000
0000
0000
,
0320
0000
0000
1030
0200
0000
0000
0300
,
0020
0000
0000
0000
0032
0000
2000
3003
,
0202
0000
0000
0000
0000
0000
0303
0000
2200
0000
0000
3300
2020
3030
0220
0330
,
0001
0010
0100
0010
0002
0000
0003
0001
,
1000
0010
0100
0010
2000
0000
0000
3000
,
0100
0000
0010
0000
0001
0000
1000
0000
0010
0000
0000
0100
0000
0000
0001
0000
,
1000
0000
0100
0000
0010
0000
0001
1000
0001
0000
0100
0000
0020
0000
0030
0000
,
2000
3100
0001
0100
2000
3010
0100
0001
,
0020
0130
0010
0001
2000
3001
0100
0010
,
0200
0301
1000
0100
0020
0031
1000
0010
,
0002
0013
1000
0100
0002
0103
0010
0001
,
0110
0000
0000
1010
0000
0000
1001
0000
0000
0011
0000
0000
0101
0000
0000
1010
,
0000
0000
1100
0000
0000
0011
0000
0000
0110
0000
0000
1001
0000
0000
0101
0000
,
0010
0000
1000
0000
0010
0000
0100
0000
0001
0010
0001
0010
0001
0010
0001
0010
,
0200
1300
0010
0100
0001
0010
0100
0010
,
0001
0100
1000
0100
0010
0100
0001
0100
,
0020
1030
0100
0010
0100
1000
0001
0010
,
0200
0310
0001
2000
0002
0000
0000
0000
,
0000
0000
0000
3000
0200
0303
0220
0000
,
0000
0330
2020
0000
0000
3030
2002
0000
,
0000
0000
3003
0000
0022
0000
0033
0000
1000
0100
0010
0100
1000
0010
0100
0001
,
0020
0000
0030
0000
0100
1000
0100
0010
0100
1000
0100
0010
0001
0010
0100
0010
,
0001
0010
0100
0010
0002
0000
0000
0000
0000
0000
0003
0000
0100
0010
1000
0001
,
0010
0001
0100
0010
2000
0000
0000
0000
0000
0000
3010
0000
0220
0000
0000
0000
,
0000
0000
0000
0000
0000
0000
0000
0000
0000
0000
0000
0000
0000
0000
0000
0000
0000
0000
0000
0000
0000
0000
0000
0000
0330
0000
0000
0000
0000
0000
0000
0000
0000
0000
0000
0000
0000
0000
0000
0000
0000
0000
0000
0000
0000
0000
0000
0000
0001
0000
0000
0000
0000
0000
0010
0000
0000
0000
0000
0000
0001
0000
0000
0000
0000
0000
0010
0000
0000
0000
0000
0000
0100
0000
0000
0000
0000
0000
0010
0000
0000
0000
0000
0000
0100
0000
0000
0000
0000
0000
1000
0000
0000
0000
0000
0000
0100
0000
0000
0000
0000
0000
0000
0000
0000
0000
0000
0000
0000
0000
0000
0000
0000
0000
0000
0000
0000
0000
0000
0000
0000
0000
0000
0000
0000
0000
0000
0000
0010
0000
0000
0000
0000
0000
0000
0000
0000
0000
0000
0000
0000
0000
0000
0000
0000
0000
0000
0000
0000
0000
0000
0000
0000
0000
0000
0000
0000
0000
0000
0000
0001
0000
0000
0000
0000
0000
0000
0000
0000
0000
0000
0000
0000
0000
0000
0000
0000
0000
0000
0000
0000
0000
0000
0000
0000
0000
0000
0000
0000
0000
0000
0000
,
0100
0000
0010
0000
1000
0000
0001
0000
0010
0000
0100
0000
,
0011
0000
0000
0011
0000
0000
0011
0000
2002
0000
0000
0000
0000
0000
0000
0000
,
0000
0000
0000
0000
,
0000
0000
0000
0000
,
0000
0000
0000
0000
,
0000
0000
0000
3000
0200
0000
0300
0103
,
0220
0000
0000
0000
0000
0000
0330
0000
2010
0000
0000
0000
3001
0010
0100
1000
,
0001
0000
0000
0000
0000
0000
0000
0000
0000
0000
0000
0000
0000
0000
0000
0000
0001
0000
0000
0000
0000
0000
0000
0000
0000
0000
0000
0000
0000
0000
0000
0000
0001
0000
0000
0000
0000
0000
0000
0000
0000
0000
0000
0000
0000
0000
0000
0000
0100
0000
0000
0000
0000
0000
0010
0000
0000
0000
0000
0000
0000
0000
0000
0000
0000
0000
0000
0000
0000
0000
0000
0000
0000
0000
0000
0000
0000
0000
1000
0000
0000
0000
0000
0000
0000
0000
0000
0000
0000
0000
0000
0000
0000
0000
0000
0000
0000
0000
0000
0000
0000
0000
0010
0000
0000
0000
0000
0000
0000
0000
0000
0000
0000
0000
0000
0000
0000
0000
0000
0000
0000
0000
0000
0000
0000
0000
0100
0000
0000
0000
0000
0000
0000
0000
0000
0000
0000
0000
0000
0000
0000
0000
0000
0000
0000
0000
0000
0000
0000
0000
0010
0000
0000
0000
0000
0000
0000
0000
0000
0000
0000
0000
0000
0000
0000
0000
0000
0000
0000
0000
0000
0000
0000
0000
1000
0000
0000
0000
0000
0000
0000
0000
0000
0000
0000
0000
0000
0000
0000
0000
0000
0000
,
0000
0010
0000
0000
0000
0100
0000
0000
0000
0001
0000
0000
0000
0100
0000
0000
0000
0010
0000
0000
0000
0100
0000
0000
0000
0001
0000
0000
0000
0100
0000
0000
,
0000
0010
0000
0000
0000
0100
0000
0000
0002
0000
0000
0000
0000
0000
0000
0000
0000
0000
0000
0000
0000
0000
0000
0000
0000
0000
0000
0000
0000
0000
0000
0000
,
1003
2020
0000
0000
,
0000
3030
2002
0000
0000
0000
3000
0000
,
0013
0022
0000
0000
,
0000
0033
0200
0000
0000
0000
0002
0000
,
0000
0300
0020
0000
0000
0003
2000
0000
,
0000
0030
0002
0000
0000
0000
0000
0000
,
0000
3003
0000
0000
;

//---------------dance-single - ----------------
#NOTES:
     dance-single:
     :
     Medium:
     10:
     0.335,0.524,0.124,0.443,0.230,329.000,23.000,82.000,0.000,0.000,0.000,0.335,0.524,0.124,0.443,0.230,329.000,23.000,82.000,0.000,0.000,0.000:
0000
0000
0000
0000
,
1000
0000
0000
1000
0000
0000
0100
0000
0000
0100
0000
0000
0100
0000
0000
0000
,
0010
0000
0000
0010
0000
0000
0001
0000
0000
0001
0000
0000
0001
0000
0000
0000
,
0100
0000
0000
0100
0000
0000
0010
0000
0000
0010
0000
0000
0010
0000
0000
0000
,
2000
0000
0000
0000
,
0000
0002
0000
0000
,
0000
0000
0000
0000
,
3003
0000
0000
0000
0100
0000
0000
0010
0000
0000
1000
0000
0000
1000
0000
0000
,
1000
0000
0000
0000
0100
0000
0000
0010
0000
0000
0001
0000
0000
0001
0000
0000
,
0001
2000
0000
0000
,
0000
0000
0000
0000
,
0000
3000
0020
0000
0000
0000
0000
0000
,
0000
0000
0000
0000
,
0000
0000
0200
0330
2002
0000
0000
0000
,
0000
0000
0000
0000
,
0000
0000
0000
0000
,
0000
0000
0000
0000
,
0000
0000
3003
0100
0010
0001
1000
0010
,
0001
0010
0100
0001
1000
0100
0010
0001
,
0100
0010
1000
0001
1000
0000
0100
0000
0010
0000
0000
0000
0001
0000
0100
0000
,
0010
0000
1000
0001
0010
0000
0100
1000
,
0001
0000
0100
0010
1000
0000
0001
0010
,
0100
0000
1000
0001
0100
0000
0010
1000
,
0001
0000
0000
0000
0010
0000
0000
0010
0000
0000
0100
0000
0000
0100
0000
0000
,
1000
0000
0000
1000
0000
0000
0001
0000
0000
0001
0000
0000
0100
0000
0000
0100
,
0000
0000
0010
0000
1000
0000
0001
0000
0010
0000
0100
0000
1000
0100
1000
0100
,
2000
0000
0020
0000
0000
3030
0220
0000
,
0000
0000
0000
0000
,
0000
0000
0000
0000
0000
0000
0000
0030
,
0000
0300
0202
0000
0303
0000
2200
0000
,
3300
0000
2020
0000
3030
0000
0220
0330
,
0010
1000
0010
0100
0001
0100
0001
0010
0002
0000
0000
0000
1000
0000
0013
0000
,
0100
0010
1000
0001
1000
0100
0020
0000
,
0000
0000
0030
0000
0001
0100
0001
0100
0010
0100
0010
0100
0020
0000
0000
0000
,
0000
0000
1030
2002
,
0000
0000
0000
0000
0000
0003
0200
3300
,
0110
0000
0001
0000
0100
0000
0010
0000
1000
0000
0100
0000
,
0010
0000
0000
0000
0000
0000
0000
0000
0001
0000
0000
0000
0000
0000
0000
0000
0010
0000
0000
0000
0000
0000
0000
0000
0100
0000
0000
0000
0000
0000
0000
0000
0000
0100
0000
0000
0000
0000
0000
0000
0000
0000
0100
0000
0000
0000
0000
0000
,
0020
0000
0000
0000
,
0000
0000
0000
0000
,
0000
0000
0000
0000
,
0000
0000
0000
0000
,
0000
0000
0032
0000
0000
0103
0220
0000
,
0000
0000
0000
0000
0000
0000
0330
0000
0000
0000
0000
0000
1020
0000
0000
0000
0000
0000
0030
0000
0000
0000
0000
0000
1000
0000
0000
0100
0000
0000
1000
0000
0000
0100
0000
0000
0010
0000
0000
0000
0001
0000
0000
0000
0010
0000
0000
0000
,
0001
1000
0000
0000
0000
0000
0000
0000
0000
0010
0000
0000
0000
0000
0000
0000
0000
0100
0000
0000
0000
0000
0000
0000
0000
0010
0000
0000
0000
0000
0000
0000
,
0000
1000
0000
0000
0000
0000
0000
0000
0000
0100
0000
0000
0000
0000
0000
0000
0000
0010
0000
0000
0000
0000
0000
0000
0000
0001
0000
0000
0000
0000
0000
0000
,
2000
0000
0000
3000
2002
0000
0000
3003
,
0002
0000
0000
0003
0202
0000
0000
0303
,
0020
0000
0000
0000
0200
0000
0000
0330
,
2002
0000
0000
0003
0200
3000
0020
0330
,
0001
0100
0010
1000
0002
0000
0000
0000
,
1003
0100
0010
0001
2000
0000
0000
0000
,
3010
0000
0100
0000
0001
0000
0010
0000
0100
0000
0000
1000
0000
0000
0001
0000
,
1000
0100
0001
0100
0010
0200
2000
3300
,
0010
0100
0001
0000
0010
0001
0100
0000
,
0010
1000
0001
0000
0010
0001
1000
0000
,
0100
1000
0010
0000
0100
0010
1000
0000
,
0100
1000
0001
0000
0100
0001
1000
0100
,
0010
0000
0000
0010
0000
0000
0001
0000
0000
0001
0000
0000
0100
0000
0000
0100
,
0000
0000
1000
0000
0000
1000
0000
0000
0010
0000
0000
0010
0000
0000
0001
0000
,
0001
0100
0010
1000
0100
0001
0100
1000
,
0002
0000
0000
0000
2000
0000
0000
0003
,
0020
0000
0000
3000
0002
0000
0000
0030
,
0200
0000
0000
0003
2000
0000
0000
0300
,
0002
0000
0000
3003
0202
0000
0000
0000
,
0000
0000
0000
0000
0000
0003
0020
0000
,
0000
0330
2020
0000
0000
3030
2002
0000
,
0000
0000
3003
0000
0012
0000
0000
0000
0013
0100
0010
0100
0010
0001
0010
0001
,
0200
0000
0310
1000
0001
1000
0100
1000
,
0001
0000
1000
0000
0020
0000
0000
0000
0000
0000
0030
0000
0100
0001
0100
0001
,
1000
0001
1000
0001
0020
0000
0000
0000
0000
0000
0130
0000
2200
0000
0000
0000
,
0000
0000
0000
0000
0000
0000
0000
0000
0000
0000
0000
0000
0000
0000
0000
0000
0000
0000
0000
0000
0000
0000
0000
0000
3300
0000
0000
0000
0000
0000
0000
0000
0000
0000
0000
0000
0000
0000
0000
0000
0000
0000
0000
0000
0000
0000
0000
0000
0010
0000
0000
0000
0000
0000
0001
0000
0000
0000
0000
0000
0010
0000
0000
0000
0000
0000
0001
0000
0000
0000
0000
0000
0010
0000
0000
0000
0000
0000
0001
0000
0000
0000
0000
0000
0010
0000
0000
0000
0000
0000
0001
0000
0000
0000
0000
0000
1000
0000
0000
0000
0000
0000
0000
0000
0000
0000
0000
0000
0000
0000
0000
0000
0000
0000
0000
0000
0000
0000
0000
0000
0000
0000
0000
0000
0000
0000
0000
0000
0010
0000
0000
0000
0000
0000
0000
0000
0000
0000
0000
0000
0000
0000
0000
0000
0000
0000
0000
0000
0000
0000
0000
0000
0000
0000
0000
0000
0000
0000
0000
0000
1000
0000
0000
0000
0000
0000
0000
0000
0000
0000
0000
0000
0000
0000
0000
0000
0000
0000
0000
0000
0000
0000
0000
0000
0000
0000
0000
0000
0000
0000
0000
0000
,
0001
0000
1000
0000
0100
0000
0010
0000
0001
0000
0100
0000
,
0010
0000
0000
0010
0000
0000
0010
0000
2000
0000
0000
0000
0000
0000
0000
0000
,
0000
0000
0000
0000
,
0000
0000
0000
0000
,
0000
0000
0000
0000
,
0000
0000
0000
0000
0200
0000
3300
0010
,
0022
0000
0000
0000
0000
0000
0033
0000
2002
0000
3003
0000
0010
1000
0010
1000
,
0010
0000
0000
0000
0000
0000
0000
0000
0000
0000
0000
0000
0000
0000
0000
0000
0100
0000
0000
0000
0000
0000
0000
0000
0000
0000
0000
0000
0000
0000
0000
0000
0010
0000
0000
0000
0000
0000
0000
0000
0000
0000
0000
0000
0000
0000
0000
0000
0100
0000
0000
0000
0000
0000
0001
0000
0000
0000
0000
0000
0000
0000
0000
0000
0000
0000
0000
0000
0000
0000
0000
0000
0000
0000
0000
0000
0000
0000
0000
0000
0000
0000
0000
0000
0000
0000
0000
0000
0000
0000
0000
0000
0000
0000
0000
0000
0000
0000
0000
0000
0000
0000
0100
0000
0000
0000
0000
0000
0000
0000
0000
0000
0000
0000
0000
0000
0000
0000
0000
0000
0000
0000
0000
0000
0000
0000
0000
0000
0000
0000
0000
0000
0000
0000
0000
0000
0000
0000
0000
0000
0000
0000
0000
0000
0000
0000
0000
0000
0000
0000
0010
0000
0000
0000
0000
0000
0000
0000
0000
0000
0000
0000
0000
0000
0000
0000
0000
0000
0000
0000
0000
0000
0000
0000
0000
0000
0000
0000
0000
0000
0000
0000
0000
0000
0000
0000
0000
0000
0000
0000
0000
0000
,
0000
0100
0000
0000
0000
0000
0000
0000
0000
0001
0000
0000
0000
0000
0000
0000
0000
0100
0000
0000
0000
0000
0000
0000
0000
0010
0000
0000
0000
0000
0000
0000
,
0000
0100
0000
0000
0000
0000
0000
0000
0002
0000
0000
0000
0000
0000
0000
0000
0000
0000
0000
0000
0000
0000
0000
0000
0000
0000
0000
0000
0000
0000
0000
0000
,
0103
0220
0000
0000
,
0000
0300
2000
0000
0000
0000
0000
0030
,
3001
0202
0000
0000
,
0000
0303
0020
0000
0000
0000
0000
0000
,
0000
2030
0000
0000
,
0000
3000
2002
0000
0000
0000
0000
0000
,
0000
3003
0000
0000
;

//---------------dance-single - xXMokou98Xx Hates You----------------
#NOTES:
     dance-single:
     :
     Edit:
     16:
     0.889,1.000,0.216,0.989,1.000,929.000,40.000,183.000,0.000,0.000,7.000,0.889,1.000,0.216,0.989,1.000,929.000,40.000,183.000,0.000,0.000,7.000: // measure 0
0000
0000
0000
0000
,  // measure 1
1000
1000
1000
1000
0000
0000
2010
0000
0000
3020
0000
0000
2030
0000
0000
3000
,  // measure 2
0001
0001
0001
0001
0000
0000
0102
0000
0000
0203
0000
0000
0302
0000
0000
0003
,  // measure 3
0100
0100
0100
0100
0000
0000
0210
0000
0000
0320
0000
0000
0230
0000
0000
0300
,  // measure 4
0004
0000
0100
0000
0000
0000
0100
0003
,  // measure 5
0010
0010
0010
0010
4000
0000
0000
0000
0100
0000
0000
0000
0000
0000
0000
0000
,  // measure 6
0100
3000
0010
0000
0001
0000
0100
0000
,  // measure 7
0010
0000
0000
0000
1000
1000
1000
1000
0000
0000
1020
0000
0000
0200
0030
0000
,  // measure 8
0002
0300
0000
0000
0013
0010
0010
0010
0000
0000
0210
0000
0000
2000
0300
0000
,  // measure 9
0002
3000
0000
0000
4003
0000
0010
0000
0000
0000
0010
0000
0000
0000
0010
0000
,  // measure 10
0000
3000
0001
0000
0100
0000
0001
0000
,  // measure 11
1000
0000
0100
0000
0010
0001
0100
0001
,  // measure 12
1000
0010
0100
0001
0010
1000
0010
0001
,  // measure 13
0100
0000
0000
0000
0010
0000
0000
0000
2000
3200
2300
3020
0230
0320
0230
0302
0203
0000
0000
0000
0000
0000
0000
0000
0000
0000
0000
0000
0000
0000
0000
0000
,  // measure 14
0000
0000
0000
0000
,  // measure 15
0000
0000
0000
0000
,  // measure 16
0000
0000
0000
0000
,  // measure 17
0000
0000
0000
0000
0000
0000
0000
0000
0000
0000
0000
0000
0000
0000
0000
0000
0320
0000
2030
0000
3002
0000
2003
3000
2200
3300
0020
0000
0032
0000
0203
0000
0320
0000
0230
0000
0302
0000
0023
0030
0220
0330
0200
0000
2300
0000
3020
0000
0230
0000
0320
0000
0230
0000
0302
0003
2002
3003
0020
0000
0032
0000
0203
0000
,  // measure 18
2300
0000
3200
0000
0320
0000
0230
0300
0202
0303
0020
0000
0032
0000
0203
0000
0320
0000
2030
0000
3200
0000
0320
0030
0022
0033
0200
0000
0302
0000
2003
0000
3200
0000
0320
0000
0230
0000
2300
3000
0220
0330
0002
0000
2003
0000
3002
0000
0023
0000
0230
0000
2300
0000
3002
0003
0202
0303
0020
0000
2030
0000
3002
0000
,  // measure 19
1003
0000
0100
0000
1000
0000
0100
0000
1000
0000
0100
0000
1000
0000
0100
0000
0010
0000
0100
0000
0010
0000
0100
0000
0010
0000
0100
0000
0010
0000
0100
0000
0010
0000
0001
0000
0010
0000
0100
0000
1000
0000
0100
0000
0010
0000
0001
0000
0100
0000
0000
0000
0000
0000
0000
0000
0000
0000
0000
0000
0010
0000
0000
0000
0000
0000
0000
0000
0000
0000
0000
0000
1000
0000
0000
0000
0000
0000
0000
0000
0000
0000
0000
0000
0100
0000
0000
0000
0000
0000
0000
0000
0000
0000
0000
0000
0010
0000
0000
0000
0000
0000
0000
0000
0000
0000
0000
0000
0001
0000
0000
0000
0000
0000
0000
0000
0000
0000
0000
0000
1000
0000
0000
0000
0000
0000
0000
0000
0000
0000
0000
0000
0001
0000
0000
0000
0000
0000
0000
0000
0000
0000
0000
0000
0100
0000
0000
0000
0000
0000
0000
0000
0000
0000
0000
0000
1000
0000
0000
0000
0000
0000
0000
0000
0000
0000
0000
0000
0100
0000
0000
0000
0000
0000
0000
0000
0000
0000
0000
0000
0010
0000
0000
0000
0000
0000
0000
0000
0000
0000
0000
0000
,  // measure 20
1000
0001
0010
0100
1000
0100
0010
0001
1000
0010
0100
0001
1000
0010
0001
0010
,  // measure 21
1000
0001
0100
0010
1000
0001
0010
0100
0010
0100
0010
0001
0100
0001
1000
0010
,  // measure 22
1000
0100
1000
0010
1000
0001
0100
0010
1000
0100
0010
0001
1000
0010
1000
0100
,  // measure 23
0010
0001
0100
0010
1000
1000
0200
1000
1300
0020
0100
0130
0002
0100
0103
0020
,  // measure 24
1000
1030
0200
0010
0310
0200
0010
0310
0002
0100
0103
0020
1000
1030
0200
0001
,  // measure 25
0301
0000
0200
0000
0010
0000
0310
0000
0100
0000
0010
0000
0001
0000
0010
0000
0100
0000
1000
0000
0100
0000
0010
0000
0001
0010
0001
0010
0001
0010
0001
0010
,  // measure 26
0001
0100
0001
0100
0001
0100
0001
0100
0040
0000
0000
0000
0000
0000
0000
0000
0000
0000
0000
0000
0000
0000
0030
0000
2200
0000
0000
0000
0000
0000
0000
0000
,  // measure 27
0000
0000
0000
0000
,  // measure 28
0000
0000
0000
0000
0000
0000
0000
3000
,  // measure 29
2000
0000
0000
3300
2002
0000
0000
0000
0000
0000
0003
3000
0001
0010
0100
1000
,  // measure 30
0100
0010
0001
0010
0100
1000
0100
0010
0001
0100
0010
1000
0202
0000
0000
0303
,  // measure 31
1000
0000
0000
0010
0000
0000
1000
0000
0000
0001
0000
0000
0100
0000
0000
0100
0000
0000
0010
0000
0000
0010
0000
0000
0220
0000
0000
0000
0000
0000
0000
0000
0000
0330
0000
0000
0001
0000
0010
0000
0001
0000
0010
0000
0100
0000
0010
0000
,  // measure 32
0100
0010
0100
1000
0100
1000
0100
0010
0100
0010
0001
0010
0001
0010
0100
0010
0100
0010
2200
0000
0000
0000
0000
0000
,  // measure 33
0000
0000
0000
3300
1000
1000
0010
0010
0100
0100
0001
0001
1000
0000
0010
0000
,  // measure 34
0100
0010
0100
0001
1000
0010
0100
0010
,  // measure 35
0100
0000
0000
0000
0000
0000
0000
0000
0001
0000
0000
0000
0000
0000
0000
0000
1000
0000
0000
0000
0000
0000
0000
0000
0100
0000
0000
0000
0000
0000
0000
0000
0010
0000
0000
0000
0000
0000
0000
0000
0100
0000
0000
0000
0000
0000
0000
0000
1000
0010
1000
0010
1000
0010
1000
0010
0100
0001
0100
0001
0100
0000
0100
0000
,  // measure 36
0120
0000
0230
0000
0302
0003
1002
0000
2003
0000
3020
0030
,  // measure 37
0210
0000
0000
0000
0000
0000
0000
0000
0320
0000
0000
0000
0000
0000
0000
0000
2030
0000
0000
0000
3000
0000
0000
0000
2200
0000
0000
0000
0000
0000
3300
0000
0000
0022
0000
0000
0000
0000
0000
0033
0000
0000
0220
0000
0000
0330
0000
0000
,  // measure 38
4004
0000
0000
0000
,  // measure 39
0000
0000
0000
0000
,  // measure 40
0000
0000
0000
0000
,  // measure 41
0000
0000
0000
0000
,  // measure 42
0000
0000
3003
0000
0001
0010
0100
0010
0100
1000
0001
0010
0100
0010
0100
1000
,  // measure 43
0001
0000
0000
0100
0000
0000
0010
0000
0000
1000
0000
0000
0202
0000
0000
0000
0000
0000
0000
0000
0000
0303
0000
0000
0010
0000
0000
0010
0000
0000
0100
0000
0000
0100
0000
0000
0201
0000
0000
0000
0302
0000
0000
0000
0203
0000
0300
0000
,  // measure 44
0101
0001
0000
0100
0000
0010
0000
0100
0000
0001
0000
0010
0000
0100
0000
0010
0000
0001
0000
0100
0000
0010
0000
0100
0000
0001
0000
0010
0000
0100
0000
0010
,  // measure 45
0000
0100
0000
1000
0000
0010
0000
0100
0000
0010
0000
1000
0000
0100
0000
0010
0000
0100
0000
1000
0000
0010
0000
0100
0000
0010
0000
1000
0000
0100
0000
0010
,  // measure 46
0100
1000
0100
0010
0100
1000
0010
0100
0001
0100
0010
0100
0001
0010
0100
0010
,  // measure 47
0001
0010
0100
0010
0001
0100
0010
1000
0010
0100
0010
0100
0001
1000
0100
0010
,  // measure 48
0200
0000
2000
0000
0000
0000
0000
0300
0020
3000
0200
0030
0002
0300
2000
3003
,  // measure 49
2002
0000
0000
0000
0000
0000
0000
0000
0000
0000
0000
0000
0000
0000
0000
3000
0200
0000
0000
0000
0000
0000
0000
0003
0020
0000
0000
0300
2000
0000
0000
3030
,  // measure 50
0001
0100
0001
0100
0010
0100
0010
0100
0010
1000
0010
1000
0010
0100
0010
0100
,  // measure 51
0001
0010
0001
0010
0100
0010
0100
0010
0100
1000
0100
1000
0010
0100
0010
0100
,  // measure 52
0001
0010
0100
1000
0100
0010
0001
0010
0100
1000
0100
0010
0001
0010
0100
1000
,  // measure 53
0001
0100
0010
1000
0010
0100
0001
0100
0010
1000
0010
0100
0001
0100
0010
1000
,  // measure 54
0001
0010
0100
1000
0001
0100
0010
1000
0001
0010
0100
0010
0001
0100
0010
0100
,  // measure 55
0001
1000
0100
0010
0001
0100
0010
1000
0001
0010
0100
1000
0001
0100
0010
0100
,  // measure 56
0001
0010
1000
0010
0001
0010
0100
0010
0001
0100
1000
0100
0010
0100
1000
0100
,  // measure 57
0001
1000
0010
0100
0001
1000
0100
0010
0001
1000
0010
0100
0010
1000
0100
0010
,  // measure 58
0002
0000
0000
0200
0003
0000
2000
0300
0000
0020
3000
0000
0002
0030
0000
0020
,  // measure 59
0003
0000
2000
0030
0000
0200
3000
0000
0002
0300
0000
2000
0003
0000
0002
3003
,  // measure 60
1000
0000
0100
0000
1000
0000
0100
0000
0010
0000
0100
0000
0010
0000
0100
0000
0010
0001
0010
0001
0010
0001
0010
0001
1000
0001
1000
0001
0100
0001
0100
0001
,  // measure 61
0200
0310
1000
0010
1000
0001
1000
0001
0010
0100
0010
0001
0100
0010
1000
0100
,  // measure 62
0010
0100
1000
0010
0100
0001
0010
0100
0010
0001
1000
0001
0010
0100
1000
0001
,  // measure 63
2000
3010
0100
0001
1000
0100
0010
0100
1000
0001
0010
0100
1000
0010
0100
0010
,  // measure 64
0400
0000
0000
0000
0000
0000
0000
0300
0220
0000
0000
0000
0000
0000
0000
0000
,  // measure 65
0000
0000
0000
0000
0000
0000
0030
0000
0002
0000
0000
0303
2002
0000
0000
0000
,  // measure 66
0000
0000
0000
3003
0010
0100
0010
0001
1000
0100
0010
0100
0010
0001
1000
0100
,  // measure 67
0010
0001
1000
0001
0200
0000
0000
0300
0010
0010
1000
1000
0001
0010
0100
0010
,  // measure 68
0200
0000
0000
0000
0000
0000
0000
0000
0000
0300
0000
0000
1000
0000
0100
0000
1000
0000
0100
0000
0010
0000
0100
0000
0010
0000
0100
0000
0010
0000
0001
0000
0010
0000
0001
0000
0010
0000
0100
0000
0010
0000
0100
0000
1000
0000
0100
0000
,  // measure 69
1000
0000
0100
0000
0010
0000
0100
0000
0010
0000
0100
0000
0020
0000
0000
0000
0000
0000
0000
0000
0000
0000
0000
0000
0000
0000
0000
0000
0000
0000
0000
0000
0000
0030
0000
0000
0001
0000
0000
0100
0000
0000
0010
0000
0000
1000
0000
0000
,  // measure 70
0001
0010
0100
1000
0001
0100
0010
0100
0010
1000
0001
0100
0010
0100
0010
1000
,  // measure 71
0001
0000
0000
0000
0000
0000
0000
0000
0000
0000
0000
0000
0010
0000
0000
0000
0000
0000
0000
0000
0000
0000
0000
0000
0100
0000
0000
0000
0000
0000
0000
0000
0000
0000
0000
0000
1000
0000
0000
0000
0000
0000
0000
0000
0000
0000
0000
0000
0001
0000
0000
0100
0000
0000
0001
0000
0000
0100
0000
0000
0001
0000
0000
0100
0000
0000
0001
0000
0000
0100
0000
0000
0010
0000
0000
0000
0000
0000
1000
0000
0000
0000
0000
0000
0010
0000
0000
0000
0000
0000
0100
0000
0000
0000
0000
0000
0102
0000
0000
0000
0000
0000
0000
0000
0000
0000
0000
0000
0000
0000
0000
0000
0000
0000
0000
0000
0000
0000
0000
0000
0000
0000
0000
0000
0000
0000
0000
0000
0023
0000
0000
0000
0000
0000
0000
0000
0000
0000
0000
0000
0000
0000
0000
0000
0000
0000
0000
0000
0000
0000
0000
0000
0000
0000
0000
0000
0000
0000
0000
0000
0230
0000
0000
0000
0000
0000
0000
0000
0000
0000
0000
0000
0000
0000
0000
0000
0300
0000
0000
0000
0000
0000
0000
0000
0000
0000
0000
0000
0000
0000
0000
0000
,  // measure 72
2100
0000
3020
0000
0230
0300
0120
0000
0230
0000
0302
0003
,  // measure 73
0011
0000
0000
0101
0000
0000
1010
0000
2002
0000
0000
0000
0000
0000
0000
0000
,  // measure 74
0000
0000
0000
0000
,  // measure 75
0000
0000
0000
0000
,  // measure 76
0000
0000
0000
0000
,  // measure 77
0000
0000
0000
0000
0000
0000
0000
0000
0000
0000
0000
0000
0000
0000
0000
0000
0000
0000
0000
0000
3003
0000
0000
0000
1000
0000
0000
0010
0000
0000
0100
0000
0000
0001
0000
0000
0100
0000
0000
0010
0000
0000
1000
0000
0000
0100
0000
0000
,  // measure 78
0010
0001
0010
0100
1000
0001
0010
0100
2000
0000
0000
3000
0010
0010
1000
1000
,  // measure 79
1020
0000
0000
0000
0000
0000
0000
0000
0000
0000
0000
0000
0000
0000
0000
0000
2030
0000
0000
0000
0000
0000
0000
0000
0000
0000
0000
0000
0000
0000
0000
0000
3020
0000
0000
0000
0000
0000
0000
0000
0030
0000
0000
0000
0000
0000
0000
0000
1010
0000
0000
0000
0000
0000
0100
0000
0000
0000
0000
0000
0000
0000
0000
0000
0000
0000
0010
0000
0000
0000
0000
0000
0000
0000
0000
0000
0000
0000
0100
0000
0000
0000
0000
0000
0000
0000
0000
0000
0000
0000
1000
0000
0000
0000
0000
0000
0000
0000
0000
0000
0000
0000
0010
0000
0000
0000
0000
0000
0000
0000
0000
0000
0000
0000
0100
0000
0000
0000
0000
0000
0000
0000
0000
0000
0000
0000
0010
0000
0000
0000
0000
0000
0000
0000
0000
0000
0000
0000
1000
0000
0000
0000
0000
0000
0000
0000
0000
0000
0000
0000
0100
0000
0000
0000
0000
0000
0000
0000
0000
0000
0000
0000
0010
0000
0000
0000
0000
0000
0000
0000
0000
0000
0000
0000
0100
0000
0000
0000
0000
0000
0000
0000
0000
0000
0000
0000
1000
0000
0000
0000
0000
0000
,  // measure 80
0000
0010
0000
0100
0000
0010
0000
0100
0000
0001
0000
0010
0000
0100
0000
0010
0000
0001
0000
0100
0000
0010
0000
0100
0000
0001
0000
0010
0000
0100
0000
0010
,  // measure 81
0000
0001
0000
0100
0000
0010
0000
0100
0000
0001
0000
0010
0000
0100
0000
0010
0000
0001
0000
0010
0000
0100
0000
0010
0000
0001
0000
0010
0000
0100
0000
0010
,  // measure 82
0000
0001
0000
0010
0000
0100
0000
0010
0000
0100
0000
1000
0000
0100
0000
0010
0000
0100
0000
1000
0000
0100
0000
0010
0000
0100
0000
1000
0000
0100
0000
0010
,  // measure 83
0000
0100
0000
1000
0000
0100
0000
0010
0000
0100
0000
1000
0000
0010
0000
1000
0000
0100
0000
1000
0000
0010
0000
1000
0000
0100
0000
1000
0000
0010
0000
1000
,  // measure 84
0000
0100
0000
1000
0000
0010
0000
1000
0000
0001
0000
0100
0000
0001
0000
0010
0000
0001
0000
0100
0000
0001
0000
0010
0000
0001
0000
0100
0000
0001
0000
0010
,  // measure 85
0000
0001
0000
0100
0000
0010
0000
1000
0002
0000
0000
0000
0000
0000
0000
0000
0020
0000
0000
0000
0000
0000
0000
0000
0000
0000
0000
0000
0000
0000
0000
0000
,  // measure 86
0000
0000
0000
0003
0200
0000
0000
0030
2000
0000
0000
0300
0002
0000
0000
3000
,  // measure 87
0200
0000
0000
0303
0220
0000
0000
0000
0000
0000
0000
0000
0000
0000
0000
0000
,  // measure 88
0000
0330
0000
0000
;
