#TITLE:Step!;
#SUBTITLE:;
#ARTIST:Mio Honda;
#TITLETRANSLIT:;
#SUBTITLETRANSLIT:;
#ARTISTTRANSLIT:;
#GENRE:;
#CREDIT:Ben Speirs;
#BANNER:Step!.png;
#BACKGROUND:Step!-bg.png;
#LYRICSPATH:;
#CDTITLE:;
#MUSIC:Step!.ogg;
#OFFSET:-0.009000;
#SAMPLESTART:57.698326;
#SAMPLELENGTH:14.840000;
#SELECTABLE:YES;
#BPMS:0.000000=212.000000
;
#STOPS:
;
#BGCHANGES:4.000=Step!.avi=1.000=0=0=1=====,
99999=-nosongbg-=1.000=0=0=0 // don't automatically add -songbackground-
;
#KEYSOUNDS:;
#ATTACKS:;

//---------------dance-single - ----------------
#NOTES:
     dance-single:
     :
     Hard:
     13:
     0.593330,0.811049,0.402745,0.553775,0.591532,495.000000,447.000000,48.000000,66.000000,0.000000,0.000000,0.593330,0.811049,0.402745,0.553775,0.591532,495.000000,447.000000,48.000000,66.000000,0.000000,0.000000:
// measure 0
0000
0000
0000
0000
,  // measure 1
0000
0000
0000
0000
,  // measure 2
0000
0000
0000
0000
,  // measure 3
0000
0000
0000
0000
,  // measure 4
0000
0000
0000
0000
,  // measure 5
0001
0000
0000
0000
,  // measure 6
0000
0000
0000
0000
,  // measure 7
1000
0000
0000
0000
,  // measure 8
0010
0000
0000
0000
,  // measure 9
0100
0001
0000
1000
,  // measure 10
0000
0100
0000
1000
,  // measure 11
1000
0001
0000
1000
,  // measure 12
0000
0010
0000
0100
,  // measure 13
0100
0001
0010
0100
,  // measure 14
1000
0000
0000
0010
0000
0000
0100
0000
0001
1000
0000
0000
,  // measure 15
0002
0000
0203
0000
,  // measure 16
0320
0000
1030
0000
,  // measure 17
1001
0000
0000
1000
0000
0000
0100
0000
0000
0010
0000
0001
,  // measure 18
0000
0000
0001
1000
0000
0000
0100
0000
0000
1000
0000
0000
,  // measure 19
0020
0130
0200
0301
,  // measure 20
0002
1003
2000
3100
,  // measure 21
1000
0000
0000
0001
0000
0000
0010
0000
0000
0100
0000
1000
,  // measure 22
0000
0000
1000
0001
0000
0000
0010
0000
0000
0001
0000
0000
,  // measure 23
0200
0000
0000
0310
0000
2000
0000
0000
0000
3001
0000
0000
,  // measure 24
1000
0000
0100
1000
0000
0000
0100
0000
0010
0001
0000
0000
,  // measure 25
1100
0000
0000
0000
,  // measure 26
0101
0000
0000
0000
0000
1010
0000
0000
0000
0001
0000
0000
,  // measure 27
1000
0000
0000
0001
0000
0000
0100
0000
0010
0100
0000
0001
,  // measure 28
2000
0000
0000
3100
0000
0100
0020
0000
0000
0031
0000
0000
,  // measure 29
1000
1010
0001
0011
,  // measure 30
1000
0000
0000
0001
0000
0100
0010
0000
0100
0001
0000
0000
,  // measure 31
2000
3200
0320
0031
,  // measure 32
1000
0000
0001
1000
0000
0000
0001
0000
0100
0010
0000
0010
,  // measure 33
1000
0000
0000
0001
0000
0100
0010
0000
0100
0001
0000
0001
,  // measure 34
2000
0000
0000
3100
0000
0010
0002
0000
0000
1003
0000
0000
,  // measure 35
0001
0000
0000
1000
0000
0010
0100
0000
0010
1000
0000
1000
,  // measure 36
0002
0000
0000
0013
0000
0100
2000
0000
0000
3001
0000
0000
,  // measure 37
1000
0000
0000
1010
0000
0000
0010
0000
1000
0001
0000
1000
,  // measure 38
0002
0013
0200
1300
,  // measure 39
0002
0000
0000
1003
0000
0020
0000
0000
0000
0130
0000
0000
,  // measure 40
0001
0000
1000
0010
0000
0000
1000
0000
1000
0100
0000
1000
,  // measure 41
0001
0000
0000
0101
0000
0000
1002
0000
0000
0000
0000
0103
,  // measure 42
0000
1001
1001
0000
,  // measure 43
1000
0000
0000
1010
0000
0000
2001
0000
0000
0000
0000
3010
,  // measure 44
0000
1001
1001
0000
,  // measure 45
0101
0000
0000
0100
0000
0020
0000
0000
0000
1030
0000
0000
,  // measure 46
1100
0000
0000
0100
0000
0020
0000
0000
0000
0031
0000
0000
,  // measure 47
0201
0000
0000
0001
0000
0000
0010
0000
,  // measure 48
0000
0010
0000
0000
0310
0000
1000
0000
,  // measure 49
1001
0000
0000
0000
0000
0000
0000
0000
0000
0000
0000
0001
,  // measure 50
0100
0000
0001
0000
0000
1000
0100
0000
1000
0000
0000
0000
,  // measure 51
1001
0000
0000
1000
0000
0100
1000
0000
0100
1000
0000
0001
,  // measure 52
0100
0000
0000
0110
0000
0000
0010
0000
1000
0001
0000
0000
,  // measure 53
2000
3020
2030
3200
,  // measure 54
0310
0000
0001
1000
0000
0000
0001
0000
0000
0101
0000
0000
,  // measure 55
0100
0000
0000
1001
0000
0000
0001
0000
0010
0100
0000
1000
,  // measure 56
0001
0000
0000
0110
0000
0000
1000
0000
0001
0100
0000
0000
,  // measure 57
0002
0203
0302
0023
,  // measure 58
0130
0000
1000
0001
0000
0000
1000
0000
0100
0010
0000
0001
,  // measure 59
1000
0000
0000
0010
0000
0100
0000
0000
0100
0000
0000
0001
,  // measure 60
0000
0000
1000
0100
0000
0000
1100
0000
0000
0100
0000
0010
,  // measure 61
0001
0000
0000
0100
0000
0010
0000
0000
0010
0000
0000
1000
,  // measure 62
0000
0000
0001
0010
0000
0001
2000
0000
0000
3001
0000
0000
,  // measure 63
0002
0000
0000
0000
0000
0100
0000
0000
0000
0010
0000
0000
,  // measure 64
2003
0000
0000
0000
0000
0100
0000
0000
0000
0010
0000
0000
,  // measure 65
3001
0000
0000
0101
0000
0100
0010
0000
0000
1010
0000
0010
,  // measure 66
0100
0000
0000
0001
0000
1000
0001
0000
0010
0100
0000
1000
,  // measure 67
0001
0001
1100
2200
,  // measure 68
3300
0000
0000
1001
0000
0000
0001
0000
1000
0010
0000
0010
,  // measure 69
0200
0000
0000
0301
0000
0000
2000
0000
0000
3010
0000
1000
,  // measure 70
0001
0000
0001
0100
0000
0010
0100
0000
0000
0110
0000
0000
,  // measure 71
0010
0000
0000
2001
0000
0000
3001
0000
0100
0010
0000
0100
,  // measure 72
0010
0000
1000
0002
0000
0000
1003
0000
0100
1000
0000
0001
,  // measure 73
1000
0101
0010
1001
,  // measure 74
1000
0000
0001
0100
0000
0001
0100
0000
0100
0010
0000
1000
,  // measure 75
0001
0000
0000
0100
0000
0010
0000
0000
0110
0000
0000
1010
,  // measure 76
0000
0000
0001
0010
0000
0000
0011
0000
0000
0010
0000
0100
,  // measure 77
1000
0000
0000
0010
0000
0100
0000
0000
0110
0000
0000
0101
,  // measure 78
0000
0000
1000
0100
0000
1000
0002
0000
0000
1003
0000
0000
,  // measure 79
0020
0000
0000
0000
0000
0130
0002
0000
0000
0000
0000
0000
,  // measure 80
1000
0000
0000
0100
0003
0000
2000
0000
0000
3100
0000
0000
,  // measure 81
0010
1001
0100
1001
,  // measure 82
0001
0000
0100
0010
0000
1000
0100
0000
0010
0001
0000
1000
,  // measure 83
0020
0000
0000
0130
0000
0020
0000
0000
0130
0002
0000
0000
,  // measure 84
1003
0000
0002
0000
0000
0000
1003
0100
1000
0100
0000
1000
,  // measure 85
0020
0000
0000
0130
0000
0001
1000
0000
1000
0001
0000
0200
,  // measure 86
0000
0320
2030
3001
,  // measure 87
0011
1000
1010
0001
,  // measure 88
0101
0000
0000
1000
0000
0000
0001
0000
2000
0000
0000
0000
,  // measure 89
3200
0000
0000
1300
0000
0001
0100
0001
0100
0010
0000
2000
,  // measure 90
0000
0000
3001
0100
0000
0001
1000
0000
0010
0100
0000
0100
,  // measure 91
0002
0000
0000
0100
0000
0000
0003
0000
0000
0100
0000
0010
,  // measure 92
2000
0000
0000
3001
0000
0200
0000
0000
0000
0301
0000
0000
,  // measure 93
1000
0100
1000
0100
0000
0100
0010
0000
0010
0001
0000
0001
,  // measure 94
1000
0010
1000
0010
0000
0010
0100
0000
0100
0001
0000
0001
,  // measure 95
1000
0000
0000
1010
0000
0000
0001
0100
0001
1000
0000
1000
,  // measure 96
0010
0000
0010
0100
0000
0100
0001
0000
1000
0001
0000
0000
,  // measure 97
2000
0000
0000
3010
0000
0000
0010
0000
1000
0001
0000
1000
,  // measure 98
0002
0000
0000
0103
0000
0000
0100
0000
0010
1000
0000
1000
,  // measure 99
0001
0000
0100
0000
0000
0010
0000
0000
1000
0000
0000
0100
,  // measure 100
0000
0000
0000
1100
0000
0000
0000
0000
0011
0000
0000
0000
,  // measure 101
2002
0000
0000
3003
;

//---------------dance-single - ----------------
#NOTES:
     dance-single:
     :
     Medium:
     8:
     0.363190,0.512242,0.192982,0.268497,0.096491,303.000000,280.000000,23.000000,32.000000,0.000000,0.000000,0.363190,0.512242,0.192982,0.268497,0.096491,303.000000,280.000000,23.000000,32.000000,0.000000,0.000000:
0000
0000
0000
0000
,
0000
0000
0000
0000
,
0000
0000
0000
0000
,
0000
0000
0000
0000
,
0000
0000
0000
0000
,
1000
0000
0000
0000
,
0000
0000
0000
0000
,
0001
0000
0000
0000
,
0100
0000
0000
0000
,
0010
1000
0000
1000
,
0000
0001
0000
0001
,
0000
0100
0000
0100
,
0000
0001
0000
0001
,
2000
0000
3200
0000
,
0320
0000
0031
1000
,
1001
0000
0000
0000
,
0002
0000
2003
0000
,
3010
0100
0001
0010
,
0100
1000
0010
0100
,
0002
0000
2003
0000
,
3200
0000
0320
0000
,
0031
1000
0010
0100
,
0001
1000
0100
0010
,
0001
0000
0000
0000
1000
0000
0000
0000
0000
0010
0000
0000
,
0200
0000
0302
0000
,
1003
0000
0000
0000
,
1010
0000
0000
0000
1010
0000
0000
0000
0000
0000
0000
0000
,
0001
1000
0100
0000
,
1100
0000
0000
0000
0000
1100
0000
0000
0000
0000
0000
0000
,
1000
0100
0010
0001
,
0100
0010
0100
0000
,
0001
0100
0010
1000
,
0002
0000
0000
0000
0000
2000
0000
0000
0000
3003
0000
0000
,
0001
1000
0010
0100
,
0101
0000
0000
0000
0000
0101
0000
0000
0000
0000
0000
0000
,
0001
0100
0010
1000
,
1100
0000
0000
0000
0000
1100
0000
0000
0000
0000
0000
0000
,
1000
0010
1000
0001
,
0010
0100
1000
0000
,
0010
0000
0000
0000
0000
0100
0000
0000
0000
0001
0000
0000
,
2000
0000
3001
0000
,
1001
1100
1001
0000
,
0000
0000
0000
0000
,
1001
0101
1001
0000
,
0000
0000
0000
0000
,
1000
0010
0100
0001
,
0010
0100
1000
0010
,
0200
0000
0010
0000
,
0010
0000
0301
1000
,
1001
0000
0000
0000
,
0001
0000
1000
0000
,
0001
0000
0000
0100
0000
0000
0010
0000
0000
1000
0000
0100
,
1000
0000
0100
1000
,
0010
0010
0100
0000
,
0010
1000
0001
0000
,
1000
0000
0000
0100
0000
0000
1000
0000
0000
0001
0000
0010
,
0001
0000
0010
0001
,
0100
0100
0010
0010
,
1000
0001
1000
0000
,
0001
0100
1000
0100
,
0001
1000
0010
0000
,
1000
0100
0001
0100
,
1000
0010
0100
0000
,
0002
0000
2003
0000
,
3020
0000
0230
0000
,
0301
1000
0001
1000
,
0100
0010
0001
0000
,
1100
0101
1100
0101
,
0000
0000
1000
1000
,
0001
1000
0010
0100
,
0001
1000
0001
0000
,
0001
0000
0000
0100
0000
0000
0010
0000
0000
1000
0000
0100
,
1000
0000
0100
1000
,
0010
0010
0100
0100
,
0001
1000
0010
0000
,
1000
0100
0001
0100
,
1000
0010
0100
0000
,
0001
0100
1000
0100
,
0001
0010
0100
0000
,
0020
0000
0032
0000
,
1003
0001
1000
0010
,
0200
0000
0320
0000
,
2030
0000
3002
0000
,
1003
0000
0000
0000
0000
0100
0000
0000
0000
0001
0000
0000
,
0000
0000
0100
0000
0000
0000
1000
0000
0000
0010
0000
0000
,
0100
0100
0001
1000
,
0010
0100
0001
1000
,
0200
0000
0000
0000
0000
0000
0000
0000
0000
0310
0000
0002
,
0000
0000
0000
0000
0000
0000
0000
0000
1003
0000
0000
0000
,
1000
0010
0100
0001
,
0010
0100
1000
0000
,
0001
0001
1000
1000
,
0010
0100
0001
0000
,
0100
0000
0100
0010
0000
0000
1000
0000
0000
0001
0000
0000
,
0010
0000
0010
0100
0000
0000
1000
0000
0000
0010
0000
0000
,
0200
0000
0000
0000
0000
0300
0001
0000
0000
1000
0000
0000
,
0010
0100
0001
1000
,
0200
0000
0000
0000
0000
0000
0310
0000
0001
1000
0000
0002
,
0000
0000
0000
0000
0000
0000
0000
0000
0000
0000
0000
0003
,
0100
0000
0100
0000
0000
0010
0000
0000
1000
0000
0000
0100
,
0000
0000
0000
1100
0000
0000
0000
0000
0011
0000
0000
0000
,
2002
0000
0000
3003
;

//---------------dance-single - ----------------
#NOTES:
     dance-single:
     :
     Easy:
     5:
     0.228942,0.341495,0.058734,0.083905,0.000000,191.000000,184.000000,7.000000,10.000000,0.000000,0.000000,0.228942,0.341495,0.058734,0.083905,0.000000,191.000000,184.000000,7.000000,10.000000,0.000000,0.000000:
0000
0000
0000
0000
,
0000
0000
0000
0000
,
0000
0000
0000
0000
,
0000
0000
0000
0000
,
0000
0000
0000
0000
,
1000
0000
0000
0000
,
0000
0000
0000
0000
,
0001
0000
0000
0000
,
1000
0000
0000
0000
,
0000
0010
0000
0010
,
0000
0010
0000
0000
,
0000
0100
0000
0100
,
0000
0100
0000
0000
,
0001
0000
0001
0000
,
1000
0000
1000
0000
,
1001
0000
0000
0000
,
0010
0000
0010
0000
,
1000
0100
1000
0000
,
0100
0000
1000
0000
,
0001
0000
0001
0000
,
0100
0000
0000
0000
,
0001
0100
0001
0000
,
0100
0000
0001
0000
,
1000
0000
1000
0000
,
0010
0000
0000
0000
,
1001
0000
0000
0000
,
0001
0000
0001
0000
,
1000
0010
1000
0000
,
0001
0000
0100
0000
,
0001
0000
1000
0000
,
0100
0000
0100
0000
,
1000
0001
1000
0000
,
2002
0000
0000
3003
,
0001
0000
1000
0000
,
0010
0100
0001
0000
,
0100
0000
0010
0000
,
1000
0000
1000
0000
,
0001
0000
1000
0000
,
0100
0010
0001
0000
,
1000
0000
1000
0000
,
2002
0000
0000
3003
,
0001
0100
0001
0000
,
0000
0000
0000
0000
,
1000
0100
1000
0000
,
0000
0000
0000
0000
,
0001
0000
0001
0000
,
1000
0000
1000
0000
,
0020
0000
0000
0000
,
0000
0000
0000
0030
,
0110
0000
0000
0000
,
1001
0000
0000
0000
,
0001
0100
0001
0100
,
0001
0000
0100
0000
,
0010
0000
0010
0000
,
1000
0000
0000
0000
,
1000
0100
1000
0100
,
1000
0000
1000
0000
,
0100
0000
0100
0000
,
0010
0000
0000
0000
,
0001
0001
0001
0000
,
0010
0000
0100
0000
,
1000
1000
1000
0000
,
0001
0000
0000
0000
,
1000
0000
1000
0000
,
0010
0000
0010
0000
,
0100
0000
0001
0000
,
1000
0000
0100
0000
,
1000
0001
1000
0001
,
0000
0000
1000
0000
,
0010
0000
0010
0100
,
0001
0000
0000
0000
,
0001
0100
0001
0100
,
0001
0000
0000
0000
,
0100
0100
0010
0000
,
0010
0000
1000
0000
,
0001
0010
0001
0000
,
1000
0000
1000
0000
,
1000
0100
1000
0000
,
0001
0000
0001
0000
,
0100
0000
0100
0000
,
0010
0000
0010
0000
,
1000
0000
1000
0000
,
0001
0000
0001
0000
,
0200
0000
0000
0000
,
0000
0000
0300
0000
,
0010
0010
0000
0000
,
1000
0000
0001
0000
,
0100
0000
0000
0001
,
1000
0000
0000
0000
,
1000
0000
0100
0010
,
0001
0000
1000
0000
,
0001
0000
0001
0000
,
1000
0000
1000
0000
,
0001
0100
0001
0100
,
0010
1000
0010
0000
,
1000
0000
1000
0000
,
0001
0000
0001
0000
,
0200
0000
0000
0000
,
0320
0000
0000
0000
,
1030
0000
0000
0000
,
0001
0000
1000
0000
,
2002
0000
0000
3003
;

//---------------dance-single - ----------------
#NOTES:
     dance-single:
     :
     Beginner:
     3:
     0.130653,0.211861,0.033562,0.000000,0.000000,109.000000,105.000000,4.000000,0.000000,0.000000,0.000000,0.130653,0.211861,0.033562,0.000000,0.000000,109.000000,105.000000,4.000000,0.000000,0.000000,0.000000:
0000
0000
0000
0000
,
0000
0000
0000
0000
,
0000
0000
0000
0000
,
0000
0000
0000
0000
,
0000
0000
0000
0000
,
0001
0000
0000
0000
,
0000
0000
0000
0000
,
1000
0000
0000
0000
,
0000
0000
0000
0000
,
0010
0000
0000
0000
,
0010
0000
0000
0000
,
0010
0000
0000
0000
,
0000
0000
0000
0000
,
0100
0000
0000
0000
,
0100
0000
0000
0000
,
0100
0000
0000
0000
,
0000
0000
0000
0000
,
1001
0000
0000
0000
,
0001
0000
0000
0000
,
1000
0000
0000
0000
,
1000
0000
0000
0000
,
0010
0000
0000
0000
,
0010
0000
0000
0000
,
1000
0000
1000
0000
,
1000
0000
0000
0000
,
1000
0000
0000
0000
,
0000
0000
0000
0000
,
0001
0000
0000
0000
,
0001
0000
0000
0000
,
0100
0000
0000
0000
,
0100
0000
0000
0000
,
0001
0000
0000
0000
,
1000
0000
0000
0000
,
0010
0000
0000
0000
,
1000
0000
0000
0000
,
0001
0000
0000
0000
,
1000
0000
0000
0000
,
0010
0000
0000
0000
,
1000
0000
0000
0000
,
0100
0000
0100
0000
,
0100
0000
0000
0000
,
1000
1000
0000
0000
,
1000
0000
0000
0000
,
0001
0001
0000
0000
,
0001
0000
0000
0000
,
0100
0000
0000
0000
,
0100
0000
0000
0000
,
0010
0000
0000
0000
,
0010
0000
0000
0000
,
1001
0000
0000
0000
,
0000
0000
0000
0000
,
0001
0000
0001
0000
,
0001
0000
0000
0000
,
0100
0000
0000
0000
,
0100
0000
0000
0000
,
0010
0000
0010
0000
,
0010
0000
0000
0000
,
1000
0000
0000
0000
,
1000
0000
0000
0000
,
0001
0000
0000
0000
,
1000
0000
0000
0000
,
0100
0000
0000
0000
,
1000
0000
0000
0000
,
0010
0000
0000
0000
,
0010
0000
0000
0000
,
1000
0000
1000
0000
,
1000
0000
0000
0000
,
0001
0001
0001
0001
,
0000
0000
0000
0000
,
0100
0000
0000
0000
,
0100
0000
0000
0000
,
0010
0000
0010
0000
,
0010
0000
0000
0000
,
1000
0000
0000
0000
,
0001
0000
0000
0000
,
1000
0000
1000
0000
,
1000
0000
0000
0000
,
0001
0000
0000
0000
,
1000
0000
0000
0000
,
0010
0000
0000
0000
,
0010
0000
0000
0000
,
0100
0000
0100
0000
,
0100
0000
0100
0000
,
0100
0000
0000
0000
,
0000
0000
0000
0000
,
0001
0000
0000
0000
,
1000
0000
0000
0000
,
0010
0000
0000
0000
,
0010
0000
0000
0000
,
1000
0000
1000
0000
,
1000
0000
0000
0000
,
0100
0000
0000
0000
,
0100
0000
0000
0000
,
1000
1000
0000
0000
,
0001
0001
0000
0000
,
0100
0000
0000
0000
,
0010
0000
0000
0000
,
1000
0000
0000
0000
,
0001
0000
0000
0000
,
1001
0000
0000
0000
,
0000
0000
0000
0000
,
1001
0000
0000
0000
;
