#VERSION:0.83;
#TITLE:MNK - Ben Speirs;
#SUBTITLE:;
#ARTIST:Nina Ichihara;
#TITLETRANSLIT:;
#SUBTITLETRANSLIT:;
#ARTISTTRANSLIT:;
#GENRE:;
#ORIGIN:;
#CREDIT:Ben Speirs;
#BANNER:Minna no Kimochi.png;
#BACKGROUND:Minna no Kimochi-bg.png;
#PREVIEWVID:;
#JACKET:jacket.png;
#CDIMAGE:;
#DISCIMAGE:;
#LYRICSPATH:;
#CDTITLE:;
#MUSIC:Minna no Kimochi.ogg;
#OFFSET:-0.417000;
#SAMPLESTART:12.359563;
#SAMPLELENGTH:14.840000;
#SELECTABLE:YES;
#BPMS:0.000=143.000;
#STOPS:;
#DELAYS:;
#WARPS:;
#TIMESIGNATURES:0.000=4=4;
#TICKCOUNTS:0.000=4;
#COMBOS:0.000=1;
#SPEEDS:0.000=1.000=0.000=0;
#SCROLLS:0.000=1.000;
#FAKES:;
#LABELS:0.000=Song Start;
#BGCHANGES:4.250=Minna no Kimochi.avi=1.000=0=0=1=====,
99999=-nosongbg-=1.000=0=0=0 // don't automatically add -songbackground-
;
#KEYSOUNDS:;
#ATTACKS:
;

//---------------dance-single - ----------------
#NOTEDATA:;
#CHARTNAME:;
#STEPSTYPE:dance-single;
#DESCRIPTION:;
#CHARTSTYLE:;
#DIFFICULTY:Hard;
#METER:11;
#RADARVALUES:0.507430,0.531223,0.395603,0.345100,0.008417,422.000000,375.000000,47.000000,41.000000,0.000000,0.000000,0.000000,0.000000,0.000000,0.507430,0.531223,0.395603,0.345100,0.008417,422.000000,375.000000,47.000000,41.000000,0.000000,0.000000,0.000000,0.000000,0.000000;
#CREDIT:Ben Speirs;
#NOTES:
0000
0000
0000
0000
,
0000
0000
0000
0000
,
0000
0000
0000
0000
,
0000
0000
0000
0000
,
1000
0010
2000
0000
3100
0000
1010
0000
,
0001
0010
0002
0000
0103
0000
0011
0000
,
1000
0100
0001
0010
,
2002
0000
0000
3003
,
0001
0100
0001
0100
0010
1000
0001
1000
,
0200
0010
0310
1001
,
1000
0100
1000
0100
0010
0001
1000
0001
,
0200
0010
0310
1001
,
0001
0100
0002
0000
1003
0010
1000
0010
,
0100
0001
0001
1000
1000
0100
0010
0001
,
1000
0000
1100
0000
0001
0000
0101
1000
,
0000
0000
0000
0000
,
1001
0110
1001
0110
,
0001
1000
0001
1000
0010
0100
0100
0000
,
1001
0110
1001
0110
,
1000
0001
1000
0001
0100
0010
0010
0000
,
0101
1100
1010
0011
,
1000
0100
0010
0001
0000
1000
0001
0000
,
1010
0011
0101
1100
,
0001
0010
0100
1000
0000
0001
1000
0000
,
0001
0000
0100
0100
,
0010
0000
0000
0000
1000
0001
1000
0000
,
0101
0000
0000
0100
0010
0000
1000
0000
0001
0000
0000
0000
1000
0000
0000
0000
,
0001
0100
0001
0000
1000
0100
1000
0000
,
1010
0000
0000
0010
0100
0000
0001
0000
1000
0000
0000
0000
0001
0000
0000
0000
,
1000
0010
1000
0000
0001
0010
0001
0000
,
1000
0100
0010
0001
0100
0100
0010
0100
,
0001
0001
0200
0000
0310
0010
2000
0000
,
3001
0100
0010
1000
0100
0010
0001
1000
,
0010
0110
2002
3003
,
0001
0100
1000
0100
0010
1000
0100
0010
,
0001
0001
0200
0000
0310
0010
2000
0000
,
3000
0001
0000
1000
0000
0010
0000
0100
,
0000
0001
0000
1000
0000
0100
0110
0000
,
0001
1000
0001
1000
0010
0010
0100
0100
,
0001
0100
0102
0000
1003
0100
2100
0000
,
3001
1000
0010
0100
0001
0010
0100
1000
,
0010
0110
2002
3003
,
0001
0100
0001
0100
1000
0100
1000
0100
,
0001
0010
0100
2000
0000
0001
3001
0000
,
1000
0100
0010
0001
0100
0010
1000
0001
,
2000
3020
0230
0301
,
1001
0000
0000
0110
,
1002
0000
0100
0000
0010
0000
1003
0001
,
1000
0001
0001
0100
0100
0010
1000
0001
,
2001
0000
0010
0000
0100
0000
3001
1000
,
0001
1000
1000
0010
0010
0100
0001
1000
,
0020
0000
0230
0000
0320
0000
0130
0001
,
1000
0001
0001
1000
1000
0100
0010
0001
,
0011
0000
0110
0000
1100
0000
0001
1000
,
0000
0001
0100
0001
1000
0100
0010
0001
,
1000
0010
1000
0010
0100
0001
1000
0001
,
0020
0100
0130
1001
,
0001
0010
0001
0010
0100
1000
0001
1000
,
0020
0100
0130
1001
,
1000
0010
2000
0000
3001
0100
0001
0100
,
0010
1000
1000
0001
0001
0010
0100
1000
,
0001
0000
0011
0000
1000
0000
1010
0001
,
0000
1000
0100
1000
0000
0001
0100
0001
,
2000
3020
2030
3020
,
0130
0001
1000
0001
1000
0100
0010
0001
,
0200
0302
0203
0302
,
0103
0010
0100
0001
0010
0100
0010
0001
,
2000
3020
0230
0302
,
1003
0100
0010
0001
0100
0010
0100
0001
,
0101
0000
0110
0000
1010
0000
0001
1000
,
0000
1001
0000
0000
0000
0000
0000
0000
;

//---------------dance-single - ----------------
#NOTEDATA:;
#CHARTNAME:;
#STEPSTYPE:dance-single;
#DESCRIPTION:;
#CHARTSTYLE:;
#DIFFICULTY:Challenge;
#METER:13;
#RADARVALUES:0.676974,0.649273,0.370352,0.092588,0.290389,563.000000,519.000000,44.000000,11.000000,0.000000,0.000000,0.000000,0.000000,0.000000,0.676974,0.649273,0.370352,0.092588,0.290389,563.000000,519.000000,44.000000,11.000000,0.000000,0.000000,0.000000,0.000000,0.000000;
#CREDIT:Ben Speirs;
#NOTES:
0000
0000
0000
0000
,
0000
0000
0000
0000
,
0000
0000
0000
0000
,
0000
0000
0000
0000
,
0001
0000
0100
0001
0000
1000
0001
0000
0100
0000
0010
0000
1000
0000
0001
0000
,
1000
0000
0100
1000
0000
0001
1000
0000
0010
0000
1000
0000
0100
0000
0010
0000
,
0011
0000
0110
0000
1100
0000
1001
0100
,
0100
0002
0000
1003
1000
0001
1001
0000
,
1100
0000
0100
0010
0001
0000
1000
0000
0001
0000
1000
0000
0010
0000
0100
0000
,
0001
0100
0100
0010
0010
1000
0001
1000
,
0001
0000
0010
0100
1000
0000
0001
0000
1000
0000
0001
0000
0100
0000
0010
0000
,
1000
0010
0010
0100
0100
0001
1000
0001
,
1000
0000
0010
0100
0001
0000
1000
0000
0010
0000
0100
0000
0010
0000
0100
0000
,
0001
1000
1000
0001
0001
0100
0010
1000
,
1100
0000
0011
0000
1001
0000
0110
1000
,
0000
0001
0100
0001
0000
1000
0100
1000
,
0001
0100
0101
0000
1000
0100
1100
0000
,
0001
0010
0100
1000
0010
0100
0100
0010
,
1000
0100
1100
0000
0010
0001
0011
0000
,
0001
0010
0100
1000
0001
0100
1001
0000
,
0001
0000
0100
0001
1000
0000
0000
0000
1000
0000
0100
1000
0001
0000
0000
0000
,
1000
0001
0010
0100
1000
0010
1001
0000
,
1000
0000
0010
1000
0001
0000
0000
0000
0001
0000
0010
0001
1000
0000
0000
0000
,
0001
1000
0100
0010
0001
0101
0101
0000
,
2000
3020
0230
0302
,
2003
0000
3200
0000
1300
0001
1000
0000
,
0001
0000
1000
0010
0100
0000
0001
0000
0010
0000
0100
0000
1000
0000
0001
0000
,
1000
0100
1000
0000
0001
0000
0000
0000
0001
0100
0001
0000
1000
0000
0000
0000
,
0001
0000
1000
0100
0010
0000
0001
0000
1000
0000
0010
0000
0100
0000
0001
0000
,
1000
0010
1000
0000
0001
0000
0000
0000
0001
0010
0001
0000
1000
0000
0010
0100
,
0010
0000
1000
0100
0010
0000
0001
0000
1000
0000
0010
0000
0100
0000
0001
0000
,
1000
0010
1000
0000
0001
0000
0000
0000
0001
0010
0001
0000
1000
0000
0001
0100
,
0001
0100
0010
1000
0100
0010
0001
1000
,
1010
0000
0000
0000
1100
0000
0000
0000
0101
0000
1000
0000
0001
0000
1000
0100
,
1000
0001
1000
0010
0100
0001
0010
0100
,
1000
0100
1000
0100
1000
0000
0001
0000
1000
0001
1000
0001
1000
0000
0001
0000
,
0000
0101
0000
1000
0000
1010
0000
0001
,
0000
0000
0011
0000
0000
0000
1000
0000
0000
0000
0001
0000
1000
0000
0010
0100
,
0010
1000
0100
0010
0001
1000
0010
0100
,
0001
1000
0001
1000
0001
0000
0100
0000
0010
1000
0010
1000
0010
0000
0100
0000
,
0001
1000
0100
0010
0001
1000
0010
0100
,
0110
0000
0000
0000
1001
0000
0000
0000
1010
0000
0001
0000
1000
0000
0001
0010
,
0001
0000
1000
0010
0100
0000
0001
0000
1000
0000
0100
0000
1000
0000
0100
0000
,
0010
0000
0001
1000
0010
0000
0200
0000
0000
0000
0001
0000
0301
0000
1000
0000
,
0010
0010
0100
0100
0001
0010
0100
1000
,
0001
1000
0001
1000
0001
1000
0001
1000
0001
1000
0001
1000
,
0010
0000
0000
0110
,
0101
0000
0001
0100
0010
0100
0001
0000
1000
0000
0100
0000
1000
0000
0100
0000
,
0010
0000
0001
1000
0001
0000
0100
0000
0010
0000
1000
0000
1000
0000
0001
0000
,
1000
0000
1000
0010
0100
0010
1000
0000
0001
0000
0010
0000
0001
0000
0010
0000
,
0100
0000
1000
0001
1000
0000
0010
0000
0100
0000
0001
0000
0001
0000
1000
0000
,
0010
0000
0100
0001
0100
0010
0100
0000
0010
0000
1000
0000
0001
0000
0001
0000
,
1000
0000
0100
0010
0001
0000
1000
0000
0010
0000
0010
0000
0100
0000
0001
0000
,
0101
0000
1001
0000
1010
0000
0110
1000
,
0000
0000
0001
0100
0001
1000
0100
1000
0001
0000
0010
0000
0100
0000
1000
0000
,
0001
0000
0100
0001
0100
0010
0100
0000
0001
0000
1000
0000
0100
0000
0010
0000
,
0001
0000
1000
0020
0000
0000
0130
0000
0100
0000
0001
0000
0100
0000
0010
0000
,
1000
0000
0001
0100
0001
1000
0001
0000
0100
0000
0010
0000
1000
0000
0001
0000
,
0010
0000
0100
2000
0000
0000
3010
0000
1000
0000
0100
0000
0010
0000
0001
0000
,
1000
0000
0010
1000
0010
0100
0010
0000
1000
0000
0001
0000
0010
0000
0100
0000
,
1000
0001
0001
1000
1000
0010
0100
0001
,
0101
0000
0110
0000
1010
0000
1001
0100
,
0000
0001
0100
0001
0000
1000
0100
1000
,
0001
0000
0010
0001
0100
0000
0000
0000
0001
0000
0010
0001
0100
0000
0000
0000
,
0001
0010
0100
1000
0001
0100
1001
0000
,
1000
0000
0100
1000
0010
0000
0000
0000
1000
0000
0100
1000
0010
0000
0000
0000
,
1000
0100
0010
0001
1000
0010
1001
0000
,
0001
0000
1000
0100
0010
0000
0000
0000
0001
0000
1000
0100
0010
0000
0000
0000
,
0001
1000
0010
0100
0001
0100
0100
0000
,
0101
0000
0110
0000
1010
0000
0110
1002
,
0000
0103
0000
0000
0000
0000
0000
0000
;

//---------------dance-single - ----------------
#NOTEDATA:;
#CHARTNAME:;
#STEPSTYPE:dance-single;
#DESCRIPTION:;
#CHARTSTYLE:;
#DIFFICULTY:Medium;
#METER:6;
#RADARVALUES:0.336683,0.383661,0.269347,0.244095,0.000000,280.000000,248.000000,32.000000,29.000000,0.000000,0.000000,0.000000,0.000000,0.000000,0.336683,0.383661,0.269347,0.244095,0.000000,280.000000,248.000000,32.000000,29.000000,0.000000,0.000000,0.000000,0.000000,0.000000;
#CREDIT:Ben Speirs;
#NOTES:
// measure 0
0000
0000
0000
0000
,  // measure 1
0000
0000
0000
0000
,  // measure 2
0000
0000
0000
0000
,  // measure 3
0000
0000
0000
0000
,  // measure 4
1000
0010
1000
1000
,  // measure 5
0001
0100
0001
0001
,  // measure 6
2000
3200
0320
0032
,  // measure 7
1003
0000
0000
0000
,  // measure 8
0102
0100
1000
1000
,  // measure 9
0103
0001
1000
0000
,  // measure 10
2100
0100
0001
0001
,  // measure 11
3100
1000
0001
0000
,  // measure 12
0012
0010
1000
1000
,  // measure 13
0013
0001
1000
0000
,  // measure 14
0001
0000
1000
0000
0010
0000
0100
0100
,  // measure 15
0000
0000
0000
0000
,  // measure 16
0010
1001
0100
1001
,  // measure 17
1000
0001
0200
0300
,  // measure 18
0001
1010
1000
0011
,  // measure 19
1000
0100
0020
0030
,  // measure 20
0100
1010
0100
0011
,  // measure 21
1000
0001
0200
0300
,  // measure 22
0010
0101
0010
1100
,  // measure 23
0001
1000
0001
1000
0000
0000
0000
0000
,  // measure 24
0001
0000
1000
0000
,  // measure 25
0010
0000
0100
0000
,  // measure 26
0001
0100
0010
1000
,  // measure 27
0001
0100
0001
0000
1000
0100
1000
0000
,  // measure 28
0000
0001
1000
0100
,  // measure 29
0010
0001
0010
0000
0001
1000
0001
0000
,  // measure 30
0000
1000
0001
0100
,  // measure 31
0010
1000
0010
0000
1000
0100
1000
0000
,  // measure 32
0001
1000
0010
0100
,  // measure 33
0001
1001
2002
3003
,  // measure 34
0001
1000
0010
0100
,  // measure 35
0010
1000
0100
0000
0010
1000
0100
0000
,  // measure 36
0000
1000
0000
0001
0000
1000
0000
0001
,  // measure 37
0000
0100
0000
0100
0000
0001
1000
0000
,  // measure 38
0001
0100
0010
1000
,  // measure 39
0001
0100
0010
0000
0001
0100
0010
0000
,  // measure 40
1000
0001
0010
0100
,  // measure 41
1000
0110
2002
3003
,  // measure 42
1000
0100
1000
0000
0001
0100
0001
0000
,  // measure 43
1000
0001
1000
0002
0000
0000
0003
0000
,  // measure 44
1000
0001
0100
0010
,  // measure 45
2002
0000
0000
3003
,  // measure 46
0001
0000
0000
0000
,  // measure 47
1010
1010
0100
0100
,  // measure 48
1000
0010
0100
0000
,  // measure 49
0101
0101
0010
0010
,  // measure 50
0100
0001
1000
0000
,  // measure 51
1001
1001
0010
0010
,  // measure 52
1000
0001
0100
0000
,  // measure 53
0101
0000
0101
0000
1000
0000
0010
0010
,  // measure 54
0000
0000
1000
0001
,  // measure 55
2200
0300
0100
3100
,  // measure 56
1000
0001
1000
0000
0001
0100
0001
0000
,  // measure 57
0202
0300
0100
0103
,  // measure 58
0001
0100
0001
0000
1000
0001
1000
0000
,  // measure 59
2200
0300
0100
3100
,  // measure 60
1000
0001
1000
0000
0001
0100
0001
0000
,  // measure 61
1010
0000
1010
0000
0001
0000
0100
0100
,  // measure 62
0000
0000
0000
0000
,  // measure 63
0002
0103
0002
0103
,  // measure 64
0001
1000
0001
1000
0000
0000
0000
0000
,  // measure 65
2000
3100
2000
3100
,  // measure 66
1000
0001
1000
0001
0000
0000
0000
0000
,  // measure 67
0002
0013
0002
0013
,  // measure 68
0001
1000
0001
1000
0000
0000
0000
0000
,  // measure 69
1010
0000
1010
0000
0001
0000
0100
0100
,  // measure 70
0000
1001
0000
0000
0000
0000
0000
0000
;

//---------------dance-single - ----------------
#NOTEDATA:;
#CHARTNAME:;
#STEPSTYPE:dance-single;
#DESCRIPTION:;
#CHARTSTYLE:;
#DIFFICULTY:Easy;
#METER:4;
#RADARVALUES:0.185176,0.235678,0.033668,0.151507,0.000000,154.000000,150.000000,4.000000,18.000000,0.000000,0.000000,0.000000,0.000000,0.000000,0.185176,0.235678,0.033668,0.151507,0.000000,154.000000,150.000000,4.000000,18.000000,0.000000,0.000000,0.000000,0.000000,0.000000;
#CREDIT:Ben Speirs;
#NOTES:
0000
0000
0000
0000
,
0000
0000
0000
0000
,
0000
0000
0000
0000
,
0000
0000
0000
0000
,
0001
0000
1000
0000
,
0010
0000
0010
0000
,
1000
0100
0010
0001
,
0000
0000
0000
0000
,
0002
0000
0000
0003
,
0001
0000
0100
0010
,
2000
0000
0000
3000
,
1000
0000
0010
1000
,
0200
0000
0000
0300
,
0100
0000
1000
0100
,
0010
0000
0010
0000
,
0010
0000
0000
0000
,
0001
0001
0100
0100
,
0001
0000
0000
0000
,
1000
1000
0100
0100
,
1000
0000
0000
0000
,
0001
0001
0010
0010
,
0001
0000
0000
0000
,
1000
1000
0010
0010
,
1000
0000
0000
0000
,
0001
0000
1000
0000
,
0010
0000
0000
0000
,
1000
0000
0000
0000
,
0001
0100
0010
0010
,
1000
0000
0000
0000
,
1000
0010
0100
0100
,
0001
0000
0000
0000
,
1000
0100
0010
0010
,
0001
0000
1000
0000
,
0010
0010
0200
0300
,
0001
0000
0001
0000
,
0100
0010
0100
0000
,
0000
0010
0000
0010
,
0000
0010
0000
0000
,
1001
0000
1000
0000
,
0010
0010
1000
1000
,
0001
0000
0001
0000
,
0100
0100
0200
0300
,
0001
0000
0001
0000
,
1000
0100
1000
0000
,
0002
0000
0000
0003
,
2000
0000
0000
3000
,
0010
0000
0000
0000
,
2002
0000
0000
3003
,
0001
0000
1000
1000
,
2002
0000
0000
3003
,
1000
0000
0001
0001
,
2002
0000
0000
3003
,
0001
0000
1000
1000
,
0010
0010
0100
0001
,
1000
0000
0000
0000
,
0002
0003
0001
0000
,
0001
0100
0010
0000
,
0020
0030
0020
0030
,
0010
1000
0100
0000
,
0200
0300
0200
0300
,
0100
1000
0001
0000
,
1000
1000
0001
0001
,
0100
0000
0000
0000
,
0001
1000
0001
1000
,
0010
0000
0000
0000
,
1000
0001
1000
0001
,
0100
0000
0000
0000
,
0001
1000
0001
1000
,
0010
0000
0000
0000
,
1000
0100
0010
0001
,
0100
0000
0000
0000
;

//---------------dance-single - ----------------
#NOTEDATA:;
#CHARTNAME:;
#STEPSTYPE:dance-single;
#DESCRIPTION:;
#CHARTSTYLE:;
#DIFFICULTY:Beginner;
#METER:2;
#RADARVALUES:0.129864,0.206219,0.101005,0.000000,0.000000,108.000000,96.000000,12.000000,0.000000,0.000000,0.000000,0.000000,0.000000,0.000000,0.129864,0.206219,0.101005,0.000000,0.000000,108.000000,96.000000,12.000000,0.000000,0.000000,0.000000,0.000000,0.000000,0.000000;
#CREDIT:Ben Speirs;
#NOTES:
0000
0000
0000
0000
,
0000
0000
0000
0000
,
0000
0000
0000
0000
,
0000
0000
0000
0000
,
0001
0000
0000
0000
,
1000
0000
0000
0000
,
0010
0000
0010
0000
,
0010
0000
0000
0000
,
1001
0000
0000
0000
,
1000
0000
0000
0000
,
1001
0000
0000
0000
,
0001
0000
0000
0000
,
1001
0000
0000
0000
,
1000
0000
0000
0000
,
0010
0000
0010
0000
,
0010
0000
0000
0000
,
1000
1000
0000
0000
,
1000
0000
0000
0000
,
0010
0010
0000
0000
,
0010
0000
0000
0000
,
0100
0100
0000
0000
,
0100
0000
0000
0000
,
0001
0001
0000
0000
,
0001
0000
0000
0000
,
1000
0000
0000
0000
,
0000
0000
0000
0000
,
0001
0000
0001
0000
,
0001
0001
0000
0000
,
0100
0000
0100
0000
,
0100
0100
0000
0000
,
0010
0000
0010
0000
,
0010
0010
0000
0000
,
1000
0000
1000
0000
,
1000
0000
0000
0000
,
0001
0000
0000
0000
,
0100
0100
0000
0000
,
0100
0000
0000
0000
,
0010
0010
0000
0000
,
1000
0000
0000
0000
,
1000
1000
0000
0000
,
0100
0000
0100
0000
,
0100
0100
0100
0000
,
0100
0000
0000
0000
,
0010
0000
0000
0000
,
0001
0000
0001
0000
,
0001
0000
0000
0000
,
1000
0000
0000
0000
,
1001
0000
0000
0000
,
0001
0000
0001
0000
,
1001
0000
0000
0000
,
1000
0000
1000
0000
,
1001
0000
0000
0000
,
0001
0000
0001
0000
,
0001
0000
0000
0000
,
0100
0000
0000
0000
,
1001
0000
0000
0000
,
0001
0000
0001
0000
,
1001
0000
0000
0000
,
1000
0000
1000
0000
,
1001
0000
0000
0000
,
0001
0000
0001
0000
,
0100
0000
0000
0000
,
0010
0000
0000
0000
,
1000
1000
0000
0000
,
1000
0000
0000
0000
,
0001
0001
0000
0000
,
0001
0000
0000
0000
,
0100
0100
0000
0000
,
0100
0000
0000
0000
,
1001
0000
1001
0000
,
1001
0000
0000
0000
;
