#TITLE:MNK - Shane;
#SUBTITLE:;
#ARTIST:Ichihara Nina;
#TITLETRANSLIT:;
#SUBTITLETRANSLIT:;
#ARTISTTRANSLIT:;
#GENRE:;
#CREDIT:;
#MUSIC:Minna no Kimochi.ogg;
#BANNER:;
#BACKGROUND:;
#CDTITLE:;
#SAMPLESTART:42.396;
#SAMPLELENGTH:12.000;
#SELECTABLE:YES;
#OFFSET:-0.422;
#BPMS:0.000=143.000;
#STOPS:;
#BGCHANGES:;
#FGCHANGES:;

//--------------- dance-single - S.Clough ----------------
#NOTES:
     dance-single:
     S.Clough:
     Challenge:
     14:
     0.672164,0.738303,0.227261,1.21206,0.366143,559,532,27,144,3,0,0.672164,0.738303,0.227261,1.21206,0.366143,559,532,27,144,3,0:
0000
0000
0000
0000
,
0000
0000
0000
0000
,
0000
0000
0000
0000
,
0000
0000
0000
0000
,
0000
0000
0000
0000
,
0000
0000
0000
0000
,
0000
0000
0000
0000
,
0000
0000
0000
0000
0000
0000
0000
0000
0000
0000
0000
0000
2002
0000
0000
3003
,
M100
0000
0010
1000
0010
0000
0100
0001
0100
0000
0010
1000
0010
0000
0100
0001
,
0100
0000
0020
0000
2030
0000
3200
0000
0302
0000
0203
0000
2300
3000
2000
0000
,
3010
0000
0100
0001
0100
0000
0010
0100
0010
0000
0100
0001
0100
0000
0010
0100
,
0010
4000
0000
3200
0320
0032
0023
0230
,
2300
0000
3010
0100
0001
0000
0010
0100
1000
0000
0010
0100
0001
0000
0010
0100
,
1000
0002
0023
2030
3020
0032
0203
0320
,
2030
0000
0000
3000
1010
0000
0000
0000
0002
0000
0000
0003
0011
0000
1100
0000
,
0000
0000
0000
0000
0000
0000
0000
0000
1000
0000
0000
0000
0000
0000
0000
0000
0001
0000
0000
0000
0000
0000
0000
0000
0100
0000
0000
0000
0000
0000
0000
0000
0000
0000
0000
0000
0000
0010
0000
0000
1000
0000
0000
0000
0000
0000
0000
0000
0010
0000
0000
0000
0000
0100
0000
0000
0001
0000
0000
0000
0000
1000
0000
0000
,
0002
0000
0000
0003
0101
0000
0020
0000
2030
0000
0000
3000
1100
0000
0020
0000
,
0032
0000
0203
0000
2300
0000
3200
0000
0301
0000
0010
0100
1000
0000
0020
0000
,
2030
0000
0000
3000
1010
0000
0200
0000
0302
0000
0000
0003
0011
0000
0200
0000
,
2300
0000
3020
0000
0032
0000
0023
0000
1030
0000
0100
0010
0001
0000
0200
0000
,
0302
0000
0000
0003
0101
0000
0020
0000
2030
0000
0000
3000
1100
0000
0020
0000
,
0032
0000
0203
0000
2300
0000
3200
0000
0301
0000
0010
0100
1000
0000
0020
0000
,
2030
0000
0000
3000
1010
0000
0200
0000
0302
0000
0000
0003
0011
0000
0200
0000
,
2300
0000
3020
0000
0032
0000
0023
0000
1030
0000
0100
0010
0001
0000
0200
0000
,
0300
0010
0000
1000
0010
0100
0001
0010
,
0100
1000
0000
0001
0100
0010
2000
0000
,
3001
0000
0100
0010
0100
0000
0001
0000
0010
0000
0100
1000
0100
0000
1000
0000
,
0010
0000
0010
0100
0001
0000
1000
0000
0010
0000
0010
0000
0010
0000
0002
0000
,
0103
0000
0010
1000
0010
0000
0100
0000
0001
0000
0010
0100
1000
0000
0001
0000
,
0100
0000
0100
0010
1000
0000
0100
0000
4000
0000
3004
0000
4003
0000
0000
3000
,
1000
0000
0010
0100
0010
0000
1000
0000
0100
0000
0010
0001
0010
0000
0001
0000
,
0100
0000
0100
0010
1000
0000
0001
0000
0100
0000
0100
0000
0100
0000
2000
0000
,
3010
0000
0100
0001
0100
0000
0010
0000
1000
0000
0100
0010
0001
0000
1000
0000
,
0010
0000
0000
0001
0010
0000
0002
0000
1003
0000
1000
0000
0001
0000
0010
0100
,
1000
0000
0010
0100
0010
0000
1000
0000
0100
0000
0010
0001
0010
0000
0001
0000
,
0100
0000
0100
0010
1000
0000
0001
0000
0100
0000
0100
0000
0100
0000
2000
0000
,
3000
0001
0100
0010
0100
0001
0010
0100
,
1000
0000
0010
0100
0010
0000
1000
0000
0004
0000
4003
0000
3004
0000
0000
0003
,
0001
0000
0100
0010
0100
0000
0001
0000
0010
0000
0100
1000
0100
0000
1000
0000
,
0010
0000
0010
0100
0001
0000
1000
0000
0010
0000
0010
0000
0010
0000
0002
0000
,
0103
0000
0010
1000
0010
0000
0100
0000
0001
0000
0010
0100
1000
0000
0001
0000
,
0100
0000
0000
1000
0010
0000
0200
0000
0301
0000
0001
0000
1000
0000
0100
0010
,
0001
0000
1000
0010
0100
0000
0010
1000
0100
0000
0010
0001
0100
0000
0010
1000
,
0100
0000
0010
0100
1000
0000
0010
0100
0001
0000
0010
0100
1000
0000
0010
0000
,
0100
0001
0100
0010
0100
0001
0100
0010
,
0100
0000
0000
0001
1000
0000
0100
0000
1000
0000
0001
0000
0400
0040
0000
0000
,
0000
0000
0330
0000
0000
0000
0000
0000
0000
0000
0000
0000
2002
0000
0000
3003
,
001M
0000
0100
0001
0100
0000
0010
1000
0010
0000
0100
0001
0100
0000
0010
1000
,
0010
0000
0200
0000
0302
0000
0023
0000
2030
0000
3020
0000
0032
0003
0002
0000
,
0103
0000
0010
1000
0010
0000
0100
0010
0100
0000
0010
1000
0010
0000
0100
0010
,
0100
0004
0000
0023
0230
2300
3200
0320
,
0032
0000
0103
0010
1000
0000
0100
0010
0001
0000
0100
0010
1000
0000
0100
0010
,
0001
2000
3200
0302
0203
2300
3020
0230
,
0302
0000
0000
0003
0101
0000
0000
0000
2000
0000
0000
3000
1100
0000
0011
0000
,
0000
0000
1000
0010
0100
0010
1000
0010
0100
0000
0001
0000
0010
0000
1000
0010
,
0100
0000
0010
1000
0010
0000
0100
0001
0100
0000
0010
1000
0010
0000
0100
0001
,
0100
0000
0020
0000
2030
0000
3200
0000
0302
0000
0203
0000
2300
3000
2000
0000
,
3010
0000
0100
0001
0100
0000
0010
0100
0010
0000
0100
0001
0100
0000
0010
0100
,
0010
4000
0000
3200
0320
0032
0023
0230
,
2300
0000
3010
0100
0001
0000
0010
0100
1000
0000
0010
0100
0001
0000
0010
0100
,
1000
0002
0023
2030
3020
0032
0203
0320
,
2030
0000
0000
3000
1010
0000
0000
0000
0002
0000
0000
0003
0011
0000
1100
0000
,
0000
0000
0000
0000
0000
0000
0000
0000
1000
0000
0000
0000
0000
0000
0000
0000
0001
0000
0000
0000
0000
0000
0000
0000
0100
0000
0000
0000
0000
0000
0000
0000
0000
0000
0000
0000
0000
0010
0000
0000
1000
0000
0000
0000
0000
0000
0000
0000
0010
0000
0000
0000
0000
0100
0000
0000
0001
0000
0000
0000
0000
1000
0000
0000
,
0002
0000
0000
0003
0101
0000
0020
0000
2030
0000
0000
3000
1100
0000
0020
0000
,
0032
0000
0203
0000
2300
0000
3200
0000
0301
0000
0010
0100
1000
0000
0020
0000
,
2030
0000
0000
3000
1010
0000
0200
0000
0302
0000
0000
0003
0011
0000
0200
0000
,
2300
0000
3020
0000
0032
0000
0023
0000
1030
0000
0100
0010
0001
0000
0200
0000
,
0302
0000
0000
0003
0101
0000
0020
0000
2030
0000
0000
3000
1100
0000
0020
0000
,
0032
0000
0203
0000
2300
0000
3200
0000
0301
0000
0010
0100
1000
0000
0020
0000
,
2030
0000
0000
3000
1010
0000
0200
0000
0302
0000
0000
0003
0011
0000
0200
0000
,
0000
0000
0000
0000
0000
0000
0000
0000
0300
0000
0000
M000
0000
0000
0000
0000
0000
0000
0000
0000
0000
0000
0000
0000
0000
0000
0000
0000
0000
0000
0000
0000
0000
0000
0000
0000
0000
0000
0000
0000
0000
0000
0000
0000
0000
0000
0000
0000
0000
0000
0000
0000
0000
0000
0000
0000
0000
0000
0000
0000
0000
0000
0000
0000
;
