#VERSION:0.83;
#TITLE:MNK - HellKiteChaoS;
#SUBTITLE:;
#ARTIST:市原仁奈;
#TITLETRANSLIT:;
#SUBTITLETRANSLIT:;
#ARTISTTRANSLIT:Nina Ichihara;
#GENRE:;
#CREDIT:;
#MUSIC:[Round 1] - Minna no Kimochi.ogg;
#BANNER:[Round 1] - Minna no Kimochi.png;
#BACKGROUND:[Round 1] - Minna no Kimochi-bg.png;
#CDTITLE:;
#SAMPLESTART:12.360;
#SAMPLELENGTH:14.840;
#SELECTABLE:YES;
#OFFSET:-0.420;
#BPMS:0.000=142.988;
#STOPS:;
#SCROLLS:0.000=1.000,
144.000=0.500,
152.000=1.000
;
#TICKCOUNTS:0.000=1;
#TIMESIGNATURES:0.000=4=4;
#COMBOS:0.000=1;
#MENUCOLOR:;
#METERTYPE:DDR;
#LISTSORT:;
#BGCHANGES:-0.500=[Round 1] - Minna no Kimochi.avi=1.000=1=0=0=StretchNoLoop==CrossFade==,
280.500=Minna no Kimochi-bg.png=1.000=0=0=1,
99999.000=-nosongbg-=1.000=0=0=0=StretchNoLoop====
;
#FGCHANGES:;

//--------------- dance-single - HellKiteChaos ----------------
#NOTEDATA:;
#STEPSTYPE:dance-single;
#DESCRIPTION:HellKiteChaos;
#DIFFICULTY:Challenge;
#METER:12;
#RADARVALUES:0,0,0,0,0;
#NOTES:
0000
0000
0000
0000
,
0000
0000
0000
0000
,
0000
0000
0000
0000
,
0000
0000
0000
0000
,
0002
0000
0000
0013
0000
0000
0100
0000
0010
0000
0100
0000
1000
0000
0001
0000
,
2000
0000
0000
3010
0000
0000
0100
0000
0010
0000
0100
0000
0010
0000
1000
0000
,
0002
0103
2000
3100
,
2002
0000
0000
3003
,
0001
0000
1000
0010
0100
0000
0001
0000
2000
0000
0000
0000
3010
0000
1000
0000
,
0001
0010
0100
0010
0100
1000
0010
0100
,
0001
0000
1000
0100
0010
0000
0001
0000
2000
0000
0000
0000
3100
0000
1000
0000
,
0001
0100
0010
0100
0010
1000
0100
0010
,
0001
0000
1000
0001
0100
0000
0010
0000
0200
0000
0000
0000
0301
0000
1000
0000
,
0100
0010
0001
0100
0010
1000
0100
0010
,
0011
0000
1100
0000
0011
0000
1100
1001
,
0000
0000
0040
0030
0400
0300
0040
0030
0000
0000
0040
0030
0400
0300
0040
0030
,
1000
0010
1010
0000
0010
1000
1010
0000
,
0100
0001
1000
0010
1000
1001
1001
0000
,
1000
0100
1100
0000
0100
1000
1100
0000
,
0001
0010
0100
1000
0010
0110
0110
0000
,
0100
0001
0101
0000
0001
0100
0101
0000
,
1000
0010
0100
0001
1000
1001
0110
0000
,
0010
0100
0110
0000
1000
0001
1001
0000
,
0002
0023
0230
2300
0000
0001
3001
0000
,
0002
0103
0002
1003
0002
0013
0002
0103
,
0002
1003
0002
0013
0110
0100
1001
0000
,
0002
0000
0000
1003
0000
0000
0100
0000
2000
0000
0000
3001
0000
0000
0100
0000
,
0202
0303
2200
3300
0202
0303
0000
0000
4400
3300
0404
0303
4400
3300
0000
0000
,
2000
0000
0000
3001
0000
0000
0100
0000
0002
0000
0000
1003
0000
0000
0010
0000
,
2020
3030
0022
0033
2020
3030
0000
0000
0044
0033
4040
3030
0044
0033
0000
0000
,
2000
0000
0000
3001
0000
0000
0010
0000
0002
0000
0000
1003
0000
0000
0010
0000
,
0220
0330
2002
3003
0220
0330
0000
0000
4004
3003
0440
0330
4004
3003
0000
0000
,
0002
0100
0103
0000
2000
0010
3010
0010
,
0110
0000
0000
0000
0101
0000
0000
0000
0110
0000
0100
0000
0010
0000
1000
0001
,
2000
0000
0000
3200
0000
0000
0310
0000
0002
0000
0000
2003
0000
0000
3010
0000
,
0100
0100
0110
0000
0010
0010
0110
0000
,
0000
M000
0M00
00M0
0M00
M000
000M
0M00
,
0M00
0000
M000
000M
M000
0000
0000
0000
00M0
0000
000M
M000
000M
0000
0000
0000
,
1010
0000
0000
0010
0000
0000
0100
0000
0101
0000
0000
0001
0000
0000
1000
0000
,
0100
0000
1000
0000
1100
0000
0000
0000
0001
0010
0001
0000
0020
0000
0000
0000
,
0130
0100
1100
0000
0010
0010
0011
0000
,
0110
0000
1100
0000
0110
0100
0100
0000
,
2000
3200
2300
3200
0320
0032
2003
3002
,
0203
0320
0230
0020
0000
0000
0330
0000
,
0010
1000
0001
0100
0010
1000
0001
1000
,
0004
4000
0000
0000
0000
0000
0000
0000
0000
0000
0000
0000
0000
0000
0000
0000
,
3003
0000
0000
0000
,
0001
0000
1000
0010
0100
0000
0001
0000
2000
0000
0000
0000
3010
0000
1000
0000
,
0001
0010
0100
0010
0100
1000
0010
0100
,
0001
0000
1000
0100
0010
0000
0001
0000
2000
0000
0000
0000
3100
0000
1000
0000
,
0001
0100
0010
0100
0010
1000
0100
0010
,
0001
0000
1000
0001
0100
0000
0010
0000
0200
0000
0000
0000
0301
0000
1000
0000
,
0100
0010
0001
0100
0010
1000
0100
0010
,
0011
0000
1100
0000
0011
0000
1100
0101
,
0000
0000
0001
0100
0001
0000
1000
0100
1000
0000
0001
1000
0001
0000
1001
0000
,
1000
0000
0001
0100
0010
0000
1000
0000
0002
0000
0000
0000
0103
0000
0001
0000
,
1000
0100
0010
0100
0010
0001
0100
0010
,
1000
0000
0001
0010
0100
0000
1000
0000
0002
0000
0000
0000
0013
0000
0001
0000
,
1000
0010
0100
0010
0100
0001
0010
0100
,
1000
0000
0001
1000
0010
0000
0100
0000
0020
0000
0000
0000
1030
0000
0001
0000
,
0010
0100
1000
0010
0100
0001
0010
0100
,
1100
0000
0011
0000
1100
0000
0110
1001
,
0000
0000
0004
0003
4000
3000
0004
0003
0000
0000
0004
0003
4000
3000
0004
0003
,
1000
0010
1010
0000
0010
1000
1010
0000
,
0100
0001
1000
0010
1000
1001
1001
0000
,
1000
0100
1100
0000
0100
1000
1100
0000
,
0001
0010
0100
1000
0010
0110
0110
0000
,
0100
0001
0101
0000
0001
0100
0101
0000
,
1000
0010
0100
0001
1000
1001
0110
0000
,
1001
0000
0110
0000
1001
0000
0110
1001
;
