#TITLE:zero;
#SUBTITLE:;
#ARTIST:-45;
#TITLETRANSLIT:;
#SUBTITLETRANSLIT:;
#ARTISTTRANSLIT:;
#CREDIT:;
#BANNER:zero.png;
#BACKGROUND:zero-bg.png;
#LYRICSPATH:;
#CDTITLE:cdtitle.png;
#MUSIC:zero.mp3;
#OFFSET:-2.000;
#SAMPLESTART:26.000;
#SAMPLELENGTH:12.000;
#SELECTABLE:YES;
#BPMS:0.000=120.000,254.000=180.000,254.500=200.000,255.000=220.000,255.500=230.000,256.000=240.000;
#STOPS:254.000=0.440
;
#BGCHANGES:-4.000=zero.avi=1.000=1=1=0,
320.000=zero-bg.png=1.000=1=0=1,
99999=-nosongbg-=1.000=0=0=0 // don't automatically add -songbackground-
;

//---------------dance-single - BASIC----------------
#NOTES:
     dance-single:
     BASIC:
     Easy:
     4:
     0.206,0.259,0.077,0.070,0.000:
0000
0000
0000
0000
,
0000
0000
0000
0000
,
0000
0000
0000
0000
,
0001
0000
0000
0000
,
0000
0000
0000
0000
,
0010
0000
0000
0000
,
0000
0000
0000
0000
,
1000
0000
0000
0000
,
0001
0010
0100
1000
,
0010
0100
0001
0100
,
1000
0100
0001
0010
,
0100
1000
0010
0100
,
0001
0010
1000
0010
,
0001
0100
0010
1000
,
0100
0010
0100
1000
,
0100
0001
0100
2000
,
3001
0001
1000
1000
,
0001
0001
1000
1000
,
0010
0010
0100
0100
,
0010
0010
0100
0100
,
0010
0010
1000
1000
,
0010
0010
1000
1000
,
0001
0001
0010
0010
,
0001
0001
0010
0010
,
0001
0100
0000
0000
,
0010
1000
0000
0000
,
0100
0001
0000
0000
,
0001
0010
0000
0000
,
1000
0010
1000
0100
,
0001
0010
0001
0100
,
0010
1000
0100
0001
,
0010
0100
0020
0000
,
1030
0100
0000
0000
,
0001
0010
0000
0000
,
1000
0100
0000
0000
,
0001
0010
0000
0000
,
1000
0001
0000
0000
,
0001
1000
0000
0000
,
0100
0010
0000
0000
,
0010
0100
0000
0000
,
1001
0100
0010
0000
,
0101
0100
0010
0000
,
1010
0100
0010
0000
,
1001
0010
0100
0000
,
1001
0010
0100
0000
,
0011
0010
0100
0000
,
1010
0010
0100
0000
,
1001
0010
0100
0000
,
0020
0000
0000
0000
,
0230
0000
0000
0000
,
0320
0000
1030
0001
,
0200
0000
0310
0000
,
0020
0000
1030
0001
,
0200
0000
0310
0000
,
0010
0000
0010
0010
,
0010
0000
1001
0000
,
1000
0010
0100
0000
,
0001
0010
0100
0000
,
1000
0010
0100
0010
,
1000
0000
1000
0000
,
0001
0100
0010
0100
,
0001
0000
0001
0000
,
1001
0000
0100
0020
,
0030
0000
1001
0000
,
1000
0000
0001
0000
,
0100
0000
0010
0000
,
1000
0000
0001
0000
,
0100
0000
0010
0000
,
0100
0000
0010
0000
,
1000
0000
0001
0000
,
0100
0000
0010
0000
,
1000
0000
0001
0000
,
0010
0000
0100
0000
,
0010
0000
0001
0000
,
0100
0000
1000
0000
,
0010
0000
0001
0000
,
0010
0000
1000
0000
,
0100
0000
0001
0000
,
0010
0000
1000
0000
,
0100
0000
0001
0000
,
2002
0000
0000
0000
,
3003
0000
0000
0000
;

//---------------dance-single - TRICK----------------
#NOTES:
     dance-single:
     TRICK:
     Medium:
     6:
     0.337,0.441,0.032,0.243,0.000:
0000
0000
0000
0000
,
0000
0000
0000
0000
,
0000
0000
0000
0000
,
1000
0000
0000
0000
,
0000
0000
0000
0000
,
0001
0000
0000
0000
,
0100
0000
0000
0000
,
1000
0000
0000
0000
,
0001
0001
0100
1000
,
1000
0010
0001
0001
,
0010
0100
1000
0100
,
0010
0100
0001
0000
0010
1000
0100
0000
,
0001
0010
0100
1000
,
0001
0010
0100
0010
,
1000
0010
0100
1000
,
0100
0010
0001
0000
0100
0010
1000
0000
,
2000
3001
0002
1003
,
2000
3001
0002
1003
,
2000
3010
0002
0013
,
2000
3010
0002
0013
,
2000
3100
0002
0103
,
2000
3100
0002
0103
,
0200
0310
0020
0130
,
0200
0310
0020
0130
,
0001
0100
0010
0100
,
1000
0100
0010
0001
,
0100
0001
0010
1000
,
0001
0010
1000
0100
,
1000
0100
0010
0000
1000
0000
0100
0000
,
0001
0010
0100
0000
0001
0000
0100
0000
,
0010
0100
1000
0000
0100
0000
0001
0000
,
0010
1000
0100
0000
0010
0001
0100
0000
,
1000
0100
0010
1000
,
0001
0010
0100
0010
,
1000
0100
0001
0100
,
0001
0010
1000
0010
,
1000
0100
0001
0000
1000
0000
0100
0000
,
0001
0100
1000
0000
0001
0000
0100
0000
,
1000
0100
0010
0000
0100
0000
0001
0000
,
0010
0100
1000
0000
0100
0000
0001
0000
,
1000
0010
1000
0010
1000
0010
1000
0010
,
1000
0001
1000
0001
1000
0001
1000
0001
,
1000
0100
1000
0100
1000
0100
1000
0100
,
1000
0010
1000
0010
1000
0010
1000
0010
,
0100
0001
0100
0001
0100
0001
0100
0001
,
0100
0010
0100
0010
0100
0010
0100
0010
,
0100
1000
0100
1000
0100
1000
0100
1000
,
0100
0010
0100
0001
0100
0010
0100
1000
,
0200
0320
0032
0203
,
2300
0100
0010
0001
,
3200
0320
2030
3002
,
0203
0000
0320
0000
,
0032
0000
0203
2300
,
3020
0030
1001
0000
,
0020
0030
1000
0200
,
0301
0000
1001
0000
,
1000
0010
0001
0100
,
1000
0010
0100
0001
,
0010
0001
0100
0010
,
1000
0100
1000
0010
,
0001
0010
1000
0100
,
0001
0000
1001
0000
,
0100
0000
0020
1030
,
0001
0000
2002
3003
,
1000
0010
1000
0001
,
1000
0010
1000
0001
,
1000
0010
1000
0001
,
1000
0010
1000
0001
,
1000
0100
1000
0001
,
1000
0100
1000
0001
,
1000
0100
1000
0001
,
1000
0100
1000
0001
,
1000
0001
0010
0001
,
1000
0001
0010
0001
,
1000
0001
0010
0001
,
1000
0001
0010
0001
,
1000
0001
0100
0001
,
1000
0001
0100
0001
,
1000
0001
0100
0001
,
1000
0001
0100
0010
,
2002
0000
0000
0000
,
3003
0000
0000
0000
;

//---------------dance-single - HEAVY----------------
#NOTES:
     dance-single:
     HEAVY:
     Hard:
     9:
     0.512,0.467,0.436,0.103,0.019:
0000
0000
0000
0000
,
0000
0000
0000
0000
,
0000
0000
0000
0000
,
1000
0010
1000
0010
1000
0001
1000
0001
,
1000
0010
1000
0100
1000
0010
1000
0000
,
0001
0010
0001
0010
0001
1000
0001
1000
,
0001
0010
0001
0100
0001
0010
0001
1000
,
0001
0010
1000
0010
0100
0001
1000
0100
,
0001
0101
1000
1100
,
0001
0101
1000
1100
,
0001
0011
1000
1010
,
0010
0000
0100
0000
0001
0000
0000
0100
0010
0000
0000
0000
1000
0000
0000
0000
,
0001
0011
1000
1010
,
0001
0011
1000
1010
,
0001
0101
1000
1100
,
0100
0000
0010
0000
0001
0000
0000
0010
0100
0000
0000
0000
1000
0000
0000
0000
,
1010
1001
0101
1001
,
1010
0110
0101
1010
,
0110
1010
1100
0101
,
1010
0110
0011
0110
,
1010
1100
0101
0011
,
1010
1100
0101
0110
,
1100
0110
0101
0011
,
1100
0110
0101
1010
,
0001
0010
0001
1000
0001
0010
0001
0100
,
0001
0010
0001
1000
0001
0010
0001
0100
,
0010
0001
0010
1000
0010
0100
0010
0001
,
0010
0100
0010
1000
0010
0001
0010
0100
,
0010
0000
1000
0000
0100
0000
0000
0001
1000
0000
0000
0000
0100
0000
0000
0000
,
0010
0000
0001
0000
0100
0000
0000
1000
0001
0000
0000
0000
0100
0000
0000
0000
,
1000
0000
0001
0000
0100
0000
0000
0010
0100
0000
0000
0000
0001
0000
0000
0000
,
0001
0000
1000
0000
0100
0000
0000
0010
0100
0000
0000
0000
1000
0000
0000
0000
,
1000
0010
1000
0001
1000
0010
1000
0001
,
1000
0100
1000
0001
1000
0100
1000
0001
,
1000
0100
0010
1000
0010
0001
0010
0100
,
0010
0001
0010
1000
0010
0100
0010
0001
,
0010
1000
0010
0100
0010
0100
0010
1000
,
0010
0001
0010
0100
0010
0100
0010
0001
,
0010
1000
0010
0100
0010
0001
0010
0100
,
0010
1000
0001
0100
0010
1000
0001
0000
,
0010
1000
0010
0001
1000
0100
1000
0010
,
1000
0001
0010
1000
0010
0100
0010
0001
,
0010
0100
0001
1000
0001
0010
0001
0100
,
0010
1000
0010
0001
0010
0100
1000
0100
,
1000
0010
1000
0001
0010
1000
0010
0100
,
0001
1000
0001
0100
0010
0100
0010
0001
,
1000
0010
1000
0001
0010
1000
0010
0100
,
0001
0010
0001
1000
0010
0001
0010
1000
,
0210
0310
0101
0110
,
1010
0002
0023
1030
,
0210
0310
1010
0110
,
0101
0100
0020
0031
,
0120
0130
0101
0110
,
1020
0130
0200
0310
,
0102
0103
1010
0011
,
1200
0310
2002
3000
,
1003
0010
0100
0010
0001
0010
1000
0100
,
1000
0010
0001
0010
1000
0100
1000
0100
,
0010
0001
0100
0010
0100
0001
0010
1000
,
0100
0010
0100
1000
0010
0100
0010
0001
,
0010
1000
0100
0010
0001
0100
0010
1000
,
0100
0001
0100
0010
0001
0100
0010
0001
,
1000
0100
0010
1000
0100
0001
1000
0010
,
0100
1000
0010
0100
2002
0000
3003
0000
,
1001
1000
0010
0000
1000
0000
1000
1000
,
0010
0000
1000
1000
0010
0000
1001
0000
,
0001
0001
0010
0000
0001
0000
0001
0001
,
0010
0000
0001
0001
0010
0000
1001
0000
,
1000
1000
0100
0000
1000
0000
1000
1000
,
0100
0000
1000
1000
0100
0000
1001
0000
,
0001
0001
0100
0000
0001
0000
0001
0001
,
0100
0000
0001
0001
0100
0000
1001
0000
,
1000
0010
0100
0010
0100
0000
0010
0010
,
0100
0000
0010
0010
1000
0000
1000
0000
,
0001
0010
0100
0010
0100
0000
0010
0010
,
0100
0000
0010
0010
0001
0000
0001
0000
,
1000
0010
0100
0010
1000
0000
1000
1000
,
0010
0000
1000
1000
0010
0000
0010
0000
,
0001
0100
0010
0100
0001
0000
0001
0001
,
0010
0000
0001
0001
0010
0000
0010
0000
,
2002
0000
0000
0000
,
3003
0000
0000
0000
;

//---------------dance-single - ONI----------------
#NOTES:
     dance-single:
     ONI:
     Challenge:
     11:
     0.892,0.882,0.634,0.929,0.605:
0000
0000
0000
0000
,
0000
0000
0000
0000
,
0000
0000
0000
0000
,
1000
0100
0010
0100
1000
0100
0010
0100
1000
0100
1000
0100
1000
0100
1000
0100
,
1000
0100
0010
0100
1000
0100
0001
0100
1000
0100
0001
0100
1000
0100
1000
0100
,
0001
0010
0100
0010
0001
0010
0100
0010
0001
0010
0001
0010
0001
0010
0001
0010
,
0001
0010
0100
0010
0001
0010
1000
0010
0001
0010
1000
0010
0001
0010
0001
0010
,
0001
0010
1000
0100
0010
0001
1000
0010
0100
0001
0100
0010
1000
0100
0010
0001
,
1000
0010
0101
0010
1010
1000
1100
0100
,
0101
0010
0101
0010
1100
0010
1001
0100
,
0101
0010
0011
1000
1100
0010
1010
0001
,
0110
0000
0100
0000
0001
0000
1000
0100
0010
1000
0010
0100
1000
0000
0001
0000
,
0101
0010
0011
1000
1010
0100
1100
0010
,
0011
0001
0101
0010
1010
1000
1001
0100
,
0011
1000
0101
0010
1010
1000
1100
0010
,
0101
0000
0010
0000
0001
0000
0100
0010
0100
0001
0010
0100
1000
0010
0100
0001
,
2002
3003
2020
3030
0202
0303
2020
3030
,
0220
0330
0202
0303
2020
3030
0220
0330
,
2200
3300
0202
0303
0220
0330
2020
3030
,
0202
0303
0220
0330
0022
0033
2020
3030
,
2200
3300
0220
0330
0202
0303
0022
0033
,
0220
0330
2002
3003
0220
0330
0022
0033
,
2200
3300
2020
3030
0202
0303
0022
0033
,
2200
3300
2020
3030
0202
0303
2002
3003
,
0001
0010
0001
1000
0001
0010
0001
0100
,
0001
0010
0001
1000
0001
0010
0001
0100
,
0010
0001
0010
1000
0010
0100
0010
0001
,
0010
0100
0010
1000
0010
0001
0010
0100
,
0010
0000
1000
0000
0100
0000
0010
0001
1000
0010
1000
0100
0010
0000
0100
0000
,
0010
0000
0001
0000
0100
0000
0010
1000
0001
0100
0010
1000
0100
0000
0010
0000
,
1000
0000
0001
0000
0100
0000
1000
0010
0100
0010
1000
0100
0010
0000
0001
0000
,
0100
0000
0010
0000
0100
0000
0001
0010
0100
1000
0010
0100
0001
0010
0100
1000
,
0001
0100
0010
1000
0001
0000
0001
0001
0010
0000
0001
0001
0010
0000
1001
0000
,
1000
0010
0100
0010
1000
0000
0001
0001
0100
0000
0001
0001
0100
0000
1001
0000
,
1000
0010
0100
0001
1000
0000
1000
1000
0100
0000
1000
1000
0100
0000
1001
0000
,
0001
0010
0100
1000
0100
0000
1000
1000
0100
0000
1000
1000
0100
0000
1001
0000
,
0001
0010
0100
0010
0100
0000
1000
0100
0010
0000
0010
0100
1000
0000
1001
0000
,
1000
0010
0100
0010
0100
0000
0001
0010
0100
0000
0100
0010
0001
0000
1001
0000
,
1000
0010
0001
0010
1000
0000
1000
0100
0001
0000
0001
0010
1000
0000
1001
0000
,
0001
0010
1000
0010
0001
0000
0001
0010
1000
0000
1000
0100
0001
0000
1001
0000
,
0100
0001
0100
0010
1000
0010
0100
0010
0001
0010
0100
1000
0100
0010
0100
0001
,
0010
0100
1000
0010
0100
0001
1000
0010
0100
0001
0100
0010
1000
0100
1000
0100
,
0010
0001
1000
0010
0100
0001
1000
0100
1000
0010
0100
0010
1000
0001
0100
0010
,
1000
0100
1000
0001
0010
0100
1000
0100
0010
0001
0100
0010
1000
0001
0100
0010
,
1000
0100
0010
0001
0100
0001
0010
0100
0010
1000
0001
0100
1000
0010
0100
1000
,
0100
0010
1000
0001
0010
1000
0001
0100
1000
0100
0010
1000
0010
0001
0100
0010
,
1000
0001
0100
1000
0100
0010
1000
0010
0100
0001
1000
0010
0100
1000
0100
0001
,
0010
0100
0010
1000
0001
0100
1000
0010
1000
0100
0001
0100
1000
0010
0001
0000
,
0220
0030
0320
0030
0202
0303
2020
3030
,
2020
0030
3002
0000
0023
0000
2030
3000
,
0220
0030
0320
0030
0220
0330
2020
3030
,
0202
0300
0203
0000
0320
0000
0032
0003
,
0220
0300
2030
3000
0202
0303
0220
0330
,
2020
3000
0230
0300
0200
0000
0320
0030
,
0202
0300
0203
0300
2020
3030
0022
0033
,
2200
3000
0320
0030
2002
0000
0000
3000
,
1003
0010
1000
0001
0100
0000
0001
0001
0010
0000
0001
0001
0010
0000
1001
0000
,
1000
0010
0100
0010
1000
0000
0001
0001
0100
0000
0001
0001
0100
0000
1001
0000
,
1000
0010
0100
0001
1000
0000
1000
1000
0100
0000
1000
1000
0100
0000
1001
0000
,
0001
0010
0100
1000
0100
0000
1000
1000
0100
0000
1000
1000
0100
0000
1001
0000
,
0001
0010
0100
0010
0100
0000
1000
0100
0010
0000
0010
0100
1000
0000
1001
0000
,
1000
0010
0100
0010
0100
0000
0001
0010
0100
0000
0100
0010
0001
0000
1001
0000
,
1000
0010
0001
0010
1000
0000
1000
0100
0001
0000
0001
0010
1000
0000
1001
0000
,
0001
0010
0100
1000
0010
0100
0001
1000
2002
0000
0000
0000
0000
0000
3003
0000
,
1001
1000
0100
0010
0001
0100
0010
1000
,
0100
0010
0100
0010
0100
1000
1001
0000
,
1000
0100
0010
0001
1000
0010
0100
0001
,
0100
0010
0100
0010
0100
0001
1001
0000
,
1000
0010
0100
0010
0001
1000
0010
0100
,
0001
0100
1000
0010
0100
0001
1001
0000
,
0001
0010
0100
0010
1000
0001
0010
0100
,
1000
0100
0001
0010
0100
1000
1002
0000
,
2003
0010
3200
0010
0302
0010
0103
1000
,
0200
0001
0320
0100
0032
0103
2001
0000
,
3002
0100
0023
0100
2030
0100
3020
1000
,
0230
0010
0302
0100
0013
0100
1002
0000
,
0203
1000
0302
1000
0203
0010
1300
0002
,
0100
2003
0100
3020
1000
0130
1002
0000
,
2003
0010
3100
0002
0200
0013
2300
0100
,
3020
0001
2030
0010
3200
0010
1300
0001
,
2002
0000
0000
0000
,
3003
0000
0000
0000
;

//---------------dance-double - ----------------
#NOTES:
     dance-double:
     :
     Hard:
     9:
     0.463,0.441,0.186,0.135,0.006: // measure 1
00000000
00000000
00000000
00000000
,  // measure 2
00000000
00000000
00000000
00000000
,  // measure 3
00000000
00000000
00000000
00000000
,  // measure 4
10000000
01000000
00010000
00100000
01000000
00100000
00001000
00010000
,  // measure 5
00000010
00010000
00000010
00000100
00000010
00001000
00000001
00000010
,  // measure 6
00000100
00000010
00000001
00000100
00001000
00010000
00000010
00000100
,  // measure 7
00001000
00010000
01001000
00000000
00100000
00010000
00001000
00010000
,  // measure 8
01000000
10000000
01000000
00010000
00001000
00000100
00000010
00001000
,  // measure 9
00000100
00000101
00001000
00001010
,  // measure 10
00010000
00000000
00000000
00000000
00011000
00000000
00000000
00000000
00100000
00000000
00010000
00000000
01000000
00000000
00000000
10000000
,  // measure 11
01000000
11000000
00010000
01010000
,  // measure 12
00001000
00000000
00010000
00000000
00000010
00000000
00000000
00000100
00000001
00000000
00001000
00000000
00000100
00000000
00000010
00000000
,  // measure 13
00000001
00000101
00001000
00011000
,  // measure 14
00100000
00000000
01100000
00000000
10000000
01000000
00010000
00001000
,  // measure 15
00000100
00000110
00000001
00000011
,  // measure 16
00001000
00000000
00011000
00000000
00010000
00001000
01000000
00100000
,  // measure 17
00020000
02030000
13000000
11000000
,  // measure 18
20000000
32000000
03010000
00011000
,  // measure 19
00002000
00003200
00000310
00001010
,  // measure 20
00000002
00000023
00000130
00010100
,  // measure 21
00020000
00032000
00103000
01100000
,  // measure 22
20000000
32000000
03100000
00101000
,  // measure 23
00200000
00302000
00013000
00011000
,  // measure 24
00000020
00000230
00000301
00001001
,  // measure 25
00000100
00001000
00010000
00001000
00010000
00100000
01000000
00100000
,  // measure 26
01000000
10000000
01000000
10000000
01000000
00100000
01000000
00100000
,  // measure 27
00001000
00100000
00001000
00100000
00010000
00001000
00010000
00001000
,  // measure 28
00000010
00000100
00000010
00000100
00000001
00001000
00000100
00000001
,  // measure 29
00000010
00001000
00000001
00000010
00000100
00010000
00001000
00000100
,  // measure 30
00000010
00000100
00001000
00010000
01000000
00100000
00001000
00100000
,  // measure 31
01000000
00010000
00001000
00100000
01000000
10000000
00100000
00010000
,  // measure 32
00001000
01000000
00001000
00010000
01000000
10000000
00100000
01000000
,  // measure 33
00001000
00010000
00000010
00000100
00000001
00001000
00000100
00010000
,  // measure 34
00000010
00010000
00001000
00000100
00000001
00000010
00000100
00010000
,  // measure 35
00000100
00000010
00001000
00010000
00001000
00100000
00010000
00001000
,  // measure 36
01000000
00100000
00010000
00100000
10000000
01000000
00001000
00100000
,  // measure 37
01000000
00100000
00001000
00010000
00000010
00000100
00001000
00010000
,  // measure 38
00000100
00000010
00000001
00000100
00000010
00010000
00001000
01000000
,  // measure 39
00100000
00001000
00010000
01000000
00100000
00010000
10000000
01000000
,  // measure 40
00100000
00001000
00100000
01000000
10000000
00100000
00010000
00001000
,  // measure 41
00000100
00000010
00001000
00000001
00000010
00001000
00010000
01000000
,  // measure 42
00001000
00010000
01000000
00100000
10000000
00100000
00010000
00001000
,  // measure 43
00100000
00010000
00001000
00010000
00001000
00000100
00000010
00000100
,  // measure 44
00001000
00010000
00000100
00000010
00000001
00000010
00001000
00010000
,  // measure 45
00001000
00000010
00001000
00010000
01000000
00100000
00001000
00010000
,  // measure 46
01000000
10000000
00100000
00001000
00010000
01000000
00010000
00001000
,  // measure 47
00000100
00000010
00010000
00000100
00000010
00000001
00000010
00000100
,  // measure 48
00010000
00000010
00001000
01000000
00100000
00001000
00010000
01000000
,  // measure 49
10000000
10100000
01000000
01010000
,  // measure 50
00001000
00000000
01001000
00000000
00010000
00000100
00000010
00000000
,  // measure 51
00000100
00001100
00010000
10010000
,  // measure 52
00100000
00000000
01100000
00000000
10000000
00100000
01000000
00000000
,  // measure 53
00010000
00011000
00000100
00000110
,  // measure 54
00000001
00000000
00001001
00000000
00000010
00000100
00000001
00000000
,  // measure 55
00002000
00000100
00003020
00010000
,  // measure 56
00002030
01000000
00203000
00010000
,  // measure 57
00301000
00000000
00100000
01000000
10000000
00100000
01000000
00010000
,  // measure 58
00001000
00000000
00000100
00000010
00000001
00001000
00000100
00000010
,  // measure 59
00010000
00000000
00001000
01000000
00100000
00001000
00010000
01000000
,  // measure 60
10000000
00000000
00100000
01000000
00001000
00010000
01000000
00001000
,  // measure 61
00000010
00000000
00000100
00000001
00000100
00010000
00001000
01000000
,  // measure 62
10000000
00100000
00001000
00100000
01000000
00010000
00001000
00000010
,  // measure 63
00010000
00001000
00010000
00001000
00000100
00000010
00000100
00000010
,  // measure 64
00000001
00000100
00000010
00010000
00001000
00000000
00000000
00000000
,  // measure 65
00010000
00000000
00001000
00000000
,  // measure 66
00100000
00000000
00001000
01000000
,  // measure 67
10000000
00100000
00010000
00000000
,  // measure 68
00001000
00000100
00000001
00000000
,  // measure 69
00000010
00000100
00010000
00000010
,  // measure 70
00000100
00001000
00010000
01000000
,  // measure 71
00100000
00001000
00100000
01000000
,  // measure 72
10000000
01000000
00100000
00001000
,  // measure 73
00010000
00000010
00000100
00000001
,  // measure 74
00000010
00000100
00010000
00000010
,  // measure 75
00010000
00000100
00010000
00001000
,  // measure 76
00100000
00001000
00010000
01000000
,  // measure 77
10000000
01000000
00100000
00001000
,  // measure 78
00010000
00000010
00000100
00000001
,  // measure 79
00000010
00000100
00010000
00000010
,  // measure 80
00010000
00001000
01000000
00100000
,  // measure 81
20000000
00000000
00000000
00000000
,  // measure 82
30000000
00000000
00000000
00000000
;

//---------------dance-double - ----------------
#NOTES:
     dance-double:
     :
     Medium:
     7:
     0.384,0.441,0.141,0.314,0.000:
00000000
00000000
00000000
00000000
,
00000000
00000000
00000000
00000000
,
00000000
00000000
00000000
00000000
,
01000000
00000000
00001000
00000000
00010000
00100000
10000000
00000000
,
01000000
00000000
00001000
00000000
00010000
00000010
00000001
00000000
,
00001000
00000000
00000100
00000000
00000001
00000010
00001000
00000000
,
00010000
00000000
01000000
00000000
00001000
00100000
10000000
00000000
,
01000000
00001000
00100000
00000000
10000000
00000000
01000000
00000000
,
00010000
00001000
00000100
00000000
00000010
00000000
00000110
00000000
,
00000001
00000100
00001000
00000000
00010000
00000000
01010000
00000000
,
10000000
00000000
01000000
00000000
00100000
00001000
00010000
00000000
,
00001000
00000000
00000100
00000000
00000010
00010000
00000100
00000000
,
00000010
00000000
00000110
00000000
00000001
00001000
00000001
00000000
,
00000100
00000000
00000110
00000000
00010000
00001000
01000000
00000000
,
00100000
00000000
01100000
00000000
00010000
01000000
00100000
00000000
,
10000000
00000000
11000000
00000000
00100000
00010000
00001000
00000000
,
00000200
00002300
00003002
00000023
,
00002030
00023000
02030000
23000000
,
30200000
00302000
00023000
02030000
,
23000000
32000000
03020000
00032000
,
00003200
00000320
00000032
00002003
,
00003020
00000230
00020300
00032000
,
00003200
00002300
00023000
02030000
,
23000000
30020000
00230000
00302000
,
00013000
01000000
10000000
00000000
00010000
01000000
00100000
00000000
,
00001000
00010000
00000100
00000000
00000010
00001000
00000100
00000000
,
00000010
00000001
00000100
00000000
00000010
00001000
00000001
00000000
,
00000010
00000100
00010000
00000000
00001000
00000100
00000010
00000000
,
00000100
00001000
00010000
00000000
00001000
01000000
00100000
00000000
,
00010000
00001000
01000000
00000000
00100000
10000000
01000000
00000000
,
00010000
00001000
00000010
00000000
00000100
00000001
00000010
00000000
,
00000100
00010000
00000010
00000000
00001000
00010000
00100000
00000000
,
00010000
00000000
00100000
00000000
01000000
10000000
00100000
00000000
,
00001000
00000000
00010000
00000000
00000010
00001000
00000100
00000000
,
00000001
00000010
00001000
00000000
00010000
01000000
10000000
00000000
,
00100000
00000000
01000000
00001000
00010000
00100000
10000000
00000000
,
00100000
00010000
00001000
00000000
00000100
00000010
00001000
00000000
,
00000001
00000010
00000100
00000000
00010000
00001000
00000100
00000000
,
00001000
00010000
01000000
00000000
00100000
00000000
10000000
01000000
,
00010000
00000000
00001000
00000000
00000100
00000010
00000001
00000000
,
00001000
00000100
00000010
00000001
00000010
00000100
00001000
00000000
,
00010000
00100000
01000000
10000000
01000000
00100000
00010000
00000000
,
00001000
00000010
00000100
00000001
00000100
00000010
00001000
00000000
,
00010000
01000000
00100000
10000000
00100000
01000000
00010000
00000000
,
00000010
00000001
00000100
00001000
,
00100000
10000000
01000000
00010000
,
00000010
00000001
00001000
00000100
,
00010000
00001000
01000000
00100000
,
20000000
30010000
00020000
00031000
,
00002000
00003001
00000002
00001003
,
00002000
00013000
00020000
10030000
,
20000000
30010000
00020000
00031000
,
00000002
00001003
00002000
00013000
,
00020000
10030000
20000000
30010000
,
00020000
00031000
00002000
00003001
,
00000002
00001003
00002000
00013000
,
10000000
11000000
00100000
00110000
,
00001000
00011000
00000100
00000110
,
00000001
00000101
00001000
00001010
,
00010000
00011000
01000000
01100000
,
10000000
10010000
00100000
00101000
,
00010000
00011000
00000100
00000110
,
00001001
00000100
00000110
00010000
,
00011000
00100000
01100000
00000000
,
10000000
00000000
00100000
00000000
,
00001000
00010000
00000010
00000100
,
00000001
00000010
00000100
00000000
,
00010000
00001000
00000100
00000000
,
00001000
00000000
00010000
00000000
,
00100000
01000000
10000000
00000000
,
00100000
00001000
00010000
00000000
,
00000010
00000010
00000001
00000000
,
00000100
00000010
00010000
00001000
,
01000000
00100000
10000000
00000000
,
01000000
00001000
00010000
00000100
,
00000010
00000001
00001000
00000000
,
00000100
00000010
00000100
00000000
,
00010000
00001000
00010000
00000000
,
00100000
01000000
10000000
00100000
,
00001000
00010000
00000010
00000000
,
00000200
00000000
00000000
00000000
,
00000300
00000000
00000000
00000000
;

//---------------dance-double - ----------------
#NOTES:
     dance-double:
     :
     Easy:
     4:
     0.275,0.311,0.064,0.135,0.000:
00000000
00000000
00000000
00000000
,
00000000
00000000
00000000
00000000
,
00000000
00000000
00000000
00000000
,
00010000
10000000
01000000
00010000
,
00001000
00010000
00001000
00000100
,
00000010
00000001
00001000
00000001
,
00000100
00001000
00010000
00100000
,
00010000
00001000
00000010
00000100
,
00000001
00000100
00001000
00010000
,
00100000
10000000
01000000
00010000
,
00001000
00000010
00000001
00000100
,
00010000
00001000
00000100
00000001
,
00000010
00001000
00010000
01000000
,
00010000
00100000
10000000
01000000
,
00001000
00010000
00000100
00001000
,
00000010
00000001
00000100
00010000
,
00001000
00001000
01000000
01000000
,
10000000
10000000
00100000
00100000
,
00001000
00001000
00000100
00000100
,
00000001
00000001
00000010
00000010
,
00001000
00001000
00010000
00010000
,
01000000
01000000
00100000
00100000
,
10000000
10000000
01000000
01000000
,
00100000
00100000
00010000
00010000
,
00001000
00001000
00000100
00000010
,
00000001
00000001
00000100
00000010
,
00001000
00010000
01000000
10000000
,
00010000
00100000
10000000
01000000
,
00100000
00010000
00011000
00001000
,
00000200
00000010
00000010
00000310
,
00000001
00002000
00000100
00003100
,
00000010
00010010
00001000
01001000
,
00010000
00200000
10000000
10300000
,
01000000
00020000
00001000
00031000
,
00000100
00000020
00000001
00000031
,
00001000
00000200
00000010
00000310
,
00020000
00000010
00000010
00031000
,
00200000
00001000
00001000
01300000
,
20000000
00010000
01000000
30100000
,
00020000
00100000
10000000
00031000
,
01000000
00001000
00011000
00000010
,
00000100
00000001
00000011
00000100
,
00010000
00000010
00000110
00001000
,
00010000
00110000
01000000
10000000
,
10010000
01000000
00100000
00001000
,
00011000
00000100
00000010
00000001
,
00001001
00000001
00000100
00001000
,
00010000
01000000
10000000
00100000
,
00020000
00000000
00001000
00000000
,
00030200
00000000
00000010
00000000
,
00000302
00000000
00000100
00000000
,
00000023
00000000
00001000
00000000
,
00020030
00000000
00001000
00000000
,
00230000
00000000
01000000
00000000
,
20300000
00000000
00010000
00000000
,
32000000
00000000
00001000
00000000
,
03010000
00001000
00000100
00000001
,
00010000
00000010
00001000
00000001
,
00000010
00000100
00001000
00010000
,
00001000
00010000
00100000
10000000
,
01000000
00001000
00010000
01000000
,
00100000
00010000
01000000
10000000
,
00200000
00000000
00301000
00010000
,
00000200
00000000
00000310
00000000
,
00000100
00000001
00000010
00000001
,
00000100
00000001
00000010
00000000
,
00000100
00001000
00000010
00001000
,
00000100
00001000
00000010
00000000
,
00010000
00000000
00001000
00000000
,
00100000
00000000
01000000
00000000
,
10000000
00000000
00010000
00000000
,
00100000
00000000
01000000
00000000
,
00001000
00010000
00001000
01000000
,
00001000
00010000
00001000
00000000
,
00010000
00001000
00010000
00000100
,
00010000
00001000
00010000
00000000
,
00000010
00000000
00000100
00000000
,
00001000
00000000
00010000
00000000
,
00100000
00000000
10000000
00000000
,
01000000
00000000
00001000
00000000
,
00020000
00000000
00000000
00000000
,
00030000
00000000
00000000
00000000
;

//---------------dance-double - ----------------
#NOTES:
     dance-double:
     :
     Challenge:
     11:
     0.803,0.856,0.103,0.711,0.679: // measure 1
00000000
00000000
00000000
00000000
,  // measure 2
00000000
00000000
00000000
00000000
,  // measure 3
00000000
00000000
00000000
00000000
,  // measure 4
10000000
01000000
00100000
01000000
00010000
01000000
00010000
00001000
00010000
00000010
00001000
00000010
00001000
00000001
00000010
00000100
,  // measure 5
00000010
00000001
00000100
00000010
00001000
00000100
00010000
00000100
00000010
00000100
00000010
00000001
00000010
00000100
00001000
00000010
,  // measure 6
00000100
00000010
00001000
00000010
00010000
00000010
00001000
00000010
00000100
00000010
00001000
00000010
00010000
00000010
00010000
00001000
,  // measure 7
00010000
00001000
00100000
00001000
00010000
00001000
00100000
01000000
00100000
00001000
00100000
01000000
00010000
00001000
00010000
01000000
,  // measure 8
10000000
01000000
00100000
00010000
00100000
01000000
10000000
01000000
00100000
01000000
00100000
00001000
00010000
00001000
00010000
00000010
,  // measure 9
00000100
00000010
00001000
00000001
00000010
00000100
00001000
00000001
00000100
00000010
00001000
00000001
00000010
00000100
00001000
00000001
,  // measure 10
00000100
00000010
00001000
00000100
00010000
00001000
00010000
00000010
00000100
00000010
00010000
00001000
00000100
00000010
00000100
00000010
,  // measure 11
00010000
00001000
00010000
00001000
00100000
01000000
00100000
00001000
00010000
01000000
00010000
00001000
00100000
01000000
00010000
00001000
,  // measure 12
00010000
01000000
00100000
00010000
10000000
01000000
00100000
00010000
10000000
01000000
10000000
00010000
01000000
00100000
01000000
10000000
,  // measure 13
00100000
00001000
00010000
01000000
00100000
00001000
00010000
00100000
01000000
00010000
00001000
00010000
00000010
00001000
00000001
00000100
,  // measure 14
00000010
00000001
00000010
00000100
00001000
00000010
00000100
00001000
00000100
00000010
00000001
00000100
00000010
00001000
00000100
00010000
,  // measure 15
00000010
00010000
00001000
00000010
00000100
00000010
00001000
00010000
00000010
00010000
00001000
00100000
00010000
10000000
01000000
00100000
,  // measure 16
00010000
00100000
00001000
00100000
01000000
00010000
00001000
00010000
00000010
00010000
00001000
00000100
00000010
00001000
00000001
00000010
,  // measure 17
00000200
00000000
00000000
00000000
00000000
00000000
00000000
00000300
00002100
00000000
00000000
00000000
00000000
00000000
00000000
00000000
00023000
00000000
00000000
00000000
00000000
00000000
00000000
00030000
00110000
00000000
00000000
00000000
00000000
00000000
00000000
00000000
,  // measure 18
20000000
00000000
00000000
00000000
00000000
00000000
00000000
30000000
12000000
00000000
00000000
00000000
00000000
00000000
00000000
00000000
03200000
00000000
00000000
00000000
00000000
00000000
00000000
00300000
00120000
00000000
00000000
00000000
00000000
00000000
00000000
00000000
,  // measure 19
00032000
00000000
00000000
00000000
00000000
00000000
00000000
00003000
00021000
00000000
00000000
00000000
00000000
00000000
00000000
00000000
00030020
00000000
00000000
00000000
00000000
00000000
00000000
00000030
00000210
00000000
00000000
00000000
00000000
00000000
00000000
00000000
,  // measure 20
00000302
00000000
00000000
00000000
00000000
00000000
00000000
00000003
00002001
00000000
00000000
00000000
00000000
00000000
00000000
00000000
00003200
00000000
00000000
00000000
00000000
00000000
00000000
00000300
00020100
00000000
00000000
00000000
00000000
00000000
00000000
00000000
,  // measure 21
00032000
00000000
00000000
00000000
00000000
00000000
00000000
00003000
02001000
00000000
00000000
00000000
00000000
00000000
00000000
00000000
03200000
00000000
00000000
00000000
00000000
00000000
00000000
00300000
00120000
00000000
00000000
00000000
00000000
00000000
00000000
00000000
,  // measure 22
02030000
00000000
00000000
00000000
00000000
00000000
00000000
03000000
01200000
00000000
00000000
00000000
00000000
00000000
00000000
00000000
20300000
00000000
00000000
00000000
00000000
00000000
00000000
30000000
12000000
00000000
00000000
00000000
00000000
00000000
00000000
00000000
,  // measure 23
03020000
00000000
00000000
00000000
00000000
00000000
00000000
00030000
00210000
00000000
00000000
00000000
00000000
00000000
00000000
00000000
00302000
00000000
00000000
00000000
00000000
00000000
00000000
00003000
00021000
00000000
00000000
00000000
00000000
00000000
00000000
00000000
,  // measure 24
00030200
00000000
00000000
00000000
00000000
00000000
00000000
00000300
00000120
00000000
00000000
00000000
00000000
00000000
00000000
00000000
00000032
00000000
00000000
00000000
00000000
00000000
00000000
00000003
00002001
00000000
00000000
00000000
00000000
00000000
00000000
00000000
,  // measure 25
00003020
00001000
00000032
00000100
00002003
00010000
02003000
00100000
,  // measure 26
03020000
10000000
02030000
00100000
03002000
00010000
00003020
00000100
,  // measure 27
00002030
00010000
00003200
00000010
00002300
00010000
00003020
00000001
,  // measure 28
00000230
00010000
00002300
00100000
02003000
10000000
03200000
00010000
,  // measure 29
00301000
00000000
00100000
01000000
00010000
00000000
00001000
00000100
00000000
00000010
00000001
00000000
00000100
00000010
00001000
00000000
,  // measure 30
00000100
00000000
00010000
00001000
00100000
00000000
00010000
10000000
00000000
01000000
00100000
00000000
00001000
00010000
01000000
00000000
,  // measure 31
10000000
00000000
01000000
00010000
00001000
00000000
00100000
01000000
00000000
00010000
00001000
00000000
00000100
00000010
00001000
00000000
,  // measure 32
00000001
00000000
00000010
00000100
00001000
00000000
00000010
00000100
00000000
00001000
00010000
00000000
01000000
00100000
00001000
00000000
,  // measure 33
00010000
00000000
01000000
10000000
01000000
00000000
00100000
00001000
00010000
00000000
00000010
00010000
00001000
00000000
00000100
00000000
,  // measure 34
00000010
00000000
00001000
00000001
00000010
00000000
00000100
00001000
00000010
00000000
00000100
00001000
00010000
00000000
00001000
00000000
,  // measure 35
00100000
00000000
01000000
00100000
00010000
00000000
10000000
01000000
00100000
00000000
00001000
00010000
00000010
00000000
00000100
00000000
,  // measure 36
00000001
00000000
00000010
00000100
00001000
00000000
00000010
00010000
00001000
00000000
00100000
00010000
10000000
00000000
01000000
00000000
,  // measure 37
00100000
00001000
00010000
00000000
00000010
00000100
00000001
00000000
00000010
00000100
00001000
00000000
00000010
00000000
00010000
00000000
,  // measure 38
00001000
00100000
00010000
00000000
10000000
01000000
00100000
00000000
00001000
00010000
00000010
00000000
00000100
00000000
00000001
00000000
,  // measure 39
00000010
00000100
00001000
00000000
00000100
00000010
00000001
00000000
00000100
00000010
00001000
00000000
00000100
00000000
00010000
00000000
,  // measure 40
00001000
00100000
00010000
00000000
10000000
01000000
00100000
00000000
00010000
10000000
01000000
00000000
00100000
00000000
00001000
00000000
,  // measure 41
00010000
00000010
00010000
00000010
00010000
00000000
00001000
00000100
00001000
00000100
00001000
00000000
00000100
00000000
00000000
00000000
,  // measure 42
00000001
00000010
00000001
00000010
00000001
00000000
00001000
00000100
00001000
00000100
00001000
00000000
00000010
00000000
00000000
00000000
,  // measure 43
00010000
00001000
01000000
00001000
00010000
00000000
00001000
00010000
00001000
00100000
00010000
00000000
00100000
00000000
00000000
00000000
,  // measure 44
01000000
10000000
00010000
00100000
01000000
00000000
00100000
00001000
00010000
01000000
00100000
00000000
00001000
00000000
00000000
00000000
,  // measure 45
00010000
00000010
00000100
00001000
00010000
00001000
00000100
00000010
00000001
00000010
00000100
00000000
00001000
00000000
00000000
00000000
,  // measure 46
00000100
00010000
00001000
00100000
01000000
00010000
00100000
10000000
00010000
01000000
00100000
00000000
00001000
00000000
00000000
00000000
,  // measure 47
00010000
00000010
00000100
00001000
00010000
00000100
00000010
00000001
00000010
00000100
00001000
00000000
00000100
00000000
00000000
00000000
,  // measure 48
00010000
00001000
00100000
01000000
10000000
00010000
00100000
01000000
00100000
00001000
00010000
00000000
00000010
00000000
00000000
00000000
,  // measure 49
00000200
00000000
00000000
00000001
00000320
00000000
00000000
00001000
00020030
00000000
00000000
01000000
20030000
00000000
00000000
00100000
,  // measure 50
30002000
00000000
00000000
00010000
00003200
00000000
00000000
00000010
00000302
00000000
00000000
00000100
00000023
00000000
00000000
00010000
,  // measure 51
00002030
00000000
00000000
00100000
02003000
00000000
00000000
10000000
03020000
00000000
00000000
00100000
02030000
00000000
00000000
00001000
,  // measure 52
03020000
00000000
00000000
00000010
00030200
00000000
00000000
00000001
00000320
00000000
00000000
00000100
00020030
00000000
00000000
00000010
,  // measure 53
00030200
00000000
00000000
00001000
00020300
00000000
00000000
01000000
20030000
00000000
00000000
00010000
30200000
00000000
00000000
01000000
,  // measure 54
00320000
00000000
00000000
00001000
00030200
00000000
00000000
00000010
00002300
00000000
00000000
00000001
00003020
00000000
00000000
00000100
,  // measure 55
00002030
00000000
00000000
00000010
00003200
00000000
00000000
00010000
00002300
00000000
00000000
00100000
02003000
00000000
00000000
10000000
,  // measure 56
03020000
00000000
00000000
10000000
02030000
00000000
00000000
00010000
03002000
00000000
00000000
00000010
00003002
00000000
00000000
00000100
,  // measure 57
00000023
00010000
00000230
00000001
00000320
00010000
00000230
00000001
,  // measure 58
00002300
01000000
00203000
10000000
00302000
01000000
00203000
10000000
,  // measure 59
02300000
00100000
03002000
00010000
02003000
00100000
03002000
00010000
,  // measure 60
02003000
10000000
03200000
00001000
02300000
10000000
03200000
00001000
,  // measure 61
00320000
00000010
00032000
00000100
00023000
00000010
00032000
00000100
,  // measure 62
00003020
00000100
00000032
00001000
00000023
00000100
00000032
00001000
,  // measure 63
00000203
00010000
00200300
00001000
00300200
00010000
00200300
00001000
,  // measure 64
00320000
00100000
02030000
10000000
03020000
00000000
00000000
00000000
,  // measure 65
00130000
10000000
01000000
00010000
00001000
00010000
00000010
00000100
,  // measure 66
00000010
00001000
00000001
00000010
00000100
00000010
00000001
00000100
,  // measure 67
00000010
00001000
00000100
00010000
00000010
00010000
00000100
00000010
,  // measure 68
00000100
00000010
00001000
00010000
00001000
00100000
01000000
00100000
,  // measure 69
00001000
00010000
01000000
10000000
01000000
00100000
00001000
00010000
,  // measure 70
00000010
00000100
00000010
00001000
00000001
00000010
00000100
00001000
,  // measure 71
00000010
00000100
00000001
00001000
00000100
00010000
00000010
00010000
,  // measure 72
00001000
00100000
00010000
00100000
01000000
10000000
00010000
00100000
,  // measure 73
01000000
00010000
00001000
00000100
00000010
00001000
00000001
00000010
,  // measure 74
00000100
00001000
00000001
00000100
00000010
00010000
00000100
00010000
,  // measure 75
00001000
00100000
00010000
10000000
01000000
00100000
00010000
00100000
,  // measure 76
00010000
00001000
00000010
00001000
00000100
00000010
00001000
00000001
,  // measure 77
00000010
00000100
00000001
00000100
00000010
00001000
00000001
00000010
,  // measure 78
00000100
00001000
00000010
00010000
00001000
00100000
00010000
10000000
,  // measure 79
01000000
00100000
00010000
00100000
00001000
00010000
00000010
00010000
,  // measure 80
00001000
00000100
00000010
00001000
00000001
00000010
00000100
00001000
,  // measure 81
00000020
00000000
00000000
00000000
,  // measure 82
00000030
00000000
00000000
00000000
;

//---------------dance-single - ----------------
#NOTES:
     dance-single:
     :
     Beginner:
     2:
     0.123,0.154,0.000,0.000,0.000:
0000
0000
0000
0000
,
0000
0000
0000
0000
,
0000
0000
0000
0000
,
0010
0000
0000
0000
,
1000
0000
0000
0000
,
0001
0000
0000
0000
,
0100
0000
0000
0000
,
0010
0000
0000
0000
,
1000
0000
0000
0000
,
0001
0000
0000
0000
,
1000
0000
0000
0000
,
0100
0000
0000
0000
,
0001
0000
0000
0000
,
0100
0000
0000
0000
,
0001
0000
0000
0000
,
1000
0000
0100
0000
,
0010
0000
0000
0000
,
0001
0000
0000
0000
,
0100
0000
0000
0000
,
1000
0000
0000
0000
,
0010
0000
0000
0000
,
1000
0000
0000
0000
,
0100
0000
0000
0000
,
0001
0000
0000
0000
,
0100
0000
0000
0000
,
0010
0000
0000
0000
,
1000
0000
0000
0000
,
0001
0000
0000
0000
,
0100
0000
0001
0000
,
1000
0000
0001
0000
,
0010
0000
1000
0000
,
0001
0000
1000
0000
,
0001
0000
0000
0100
,
0100
0000
0000
1000
,
1000
0000
0000
0010
,
0010
0000
0000
0001
,
0001
0000
1000
0000
,
0100
0000
0010
0000
,
1000
0000
0001
0000
,
0010
0000
0100
0000
,
1000
0000
0000
0001
,
0001
0000
0000
1000
,
1000
0000
0000
0100
,
0100
0000
0000
0010
,
0010
0000
0100
0000
,
0001
0000
1000
0000
,
0001
0000
0100
0000
,
1000
0000
0010
0000
,
0001
0000
0000
1000
,
1000
0000
0000
0100
,
0100
0000
0000
0010
,
0010
0000
0001
0000
,
1000
0000
0100
0100
,
0100
0000
1000
0000
,
0001
0000
0100
0100
,
0100
0000
0010
0000
,
0001
0000
0000
1000
,
1000
0000
0001
0000
,
0010
0000
0000
0100
,
0100
0000
1000
0000
,
0001
0000
0000
0100
,
0100
0000
0010
0000
,
1000
0000
0001
0001
,
0001
0000
1000
0000
,
0100
0000
0010
0000
,
0100
0000
0010
0000
,
0001
0000
1000
0000
,
0001
0000
1000
0000
,
0010
0000
0100
0000
,
1000
0000
0001
0000
,
0100
0000
0010
0000
,
0001
0000
1000
0000
,
0010
0000
0001
0000
,
1000
0000
0100
0000
,
0010
0000
1000
0000
,
0001
0000
0100
0000
,
0010
0000
1000
0000
,
0100
0000
0001
0000
,
0010
0000
0001
0000
,
0100
0000
1000
0000
,
0010
0000
0000
0000
;
