#TITLE:wiinter dream;
#SUBTITLE:;
#ARTIST:Yamajet;
#TITLETRANSLIT:;
#SUBTITLETRANSLIT:;
#ARTISTTRANSLIT:;
#CREDIT:;
#BANNER:Wiinter dream.png;
#BACKGROUND:Wiinter dream-bg.png;
#LYRICSPATH:;
#CDTITLE:cdtitle.png;
#MUSIC:wiinter dream.mp3;
#OFFSET:0.040;
#SAMPLESTART:34.560;
#SAMPLELENGTH:12.000;
#SELECTABLE:YES;
#BPMS:0.000=132.000,156.000=66.000,168.000=132.000;
#STOPS:;
#BGCHANGES:0.000=wiinter dream.avi=1.000=1=1=0,
233.000=Wiinter dream-bg.png=1.000=1=0=1,
99999=-nosongbg-=1.000=0=0=0 // don't automatically add -songbackground-
;

//---------------dance-single - BASIC----------------
#NOTES:
     dance-single:
     BASIC:
     Easy:
     3:
     0.185,0.225,0.198,0.034,0.000:
0000
0000
0000
0000
,
0000
0000
0000
0000
,
0000
0000
0000
0000
,
0000
0000
0000
0000
,
0001
0000
1000
0000
,
1001
0000
0010
0000
,
0100
0000
1000
0100
,
0001
0000
0010
0000
,
1000
0001
1000
1001
,
1000
0000
1000
0000
,
0100
0000
0100
0000
,
0001
0000
1000
0000
,
0010
0010
0010
1001
,
0100
0000
0100
0000
,
0020
0000
0000
0000
,
0000
0030
0000
0000
1000
0000
0010
0000
,
1000
0010
0100
0010
,
0100
0001
0100
0001
,
0010
0000
0100
0000
,
0001
1000
0001
1000
,
0010
0100
0010
0100
,
0000
0000
0000
0000
,
0100
0100
0010
1001
,
0000
0100
0000
0100
,
0000
0010
0000
1000
,
0000
1000
0000
0001
,
0000
0100
0000
0100
,
0000
0010
0000
1000
,
0000
1000
0000
0010
,
0000
0001
0000
0001
,
0000
0100
0000
0010
,
0000
0010
0000
0110
,
0000
1000
0000
0110
,
0000
0001
0000
0110
,
0000
1000
0000
0110
,
0000
0001
0000
1001
,
0000
1000
0000
1001
,
0000
0010
0000
1001
,
0000
0100
0010
0000
,
1001
0000
0001
0000
,
0001
0000
0100
0000
,
0100
0000
1000
0000
,
1001
0000
1001
0000
,
1001
0000
0010
0000
,
1001
0000
1001
0000
,
1001
0000
0100
0000
,
1001
0000
1001
0000
,
1001
0000
0010
0000
,
0020
0000
0000
0000
,
0030
0000
0010
0000
,
1001
0000
1000
0000
,
0001
0000
0100
0100
,
0010
0000
1000
0000
,
0001
0001
0001
0000
,
1000
0000
0100
0100
,
0001
0000
1000
0000
,
0001
0000
1000
0000
,
0001
1000
0010
0100
,
2002
3003
0000
0000
;

//---------------dance-single - TRICK----------------
#NOTES:
     dance-single:
     TRICK:
     Medium:
     5:
     0.309,0.350,0.163,0.017,0.000:
0000
0000
0000
0000
,
0000
0000
0000
0000
,
0000
0000
0000
0000
,
0000
0000
0000
0000
,
0001
1000
0010
0100
,
1001
1000
0001
0010
,
0010
0100
1000
0100
,
0001
0011
0000
0110
,
1000
0001
1000
1001
,
1000
1000
0100
0000
0100
0000
0001
0000
,
0001
0001
0010
0000
0010
0000
0100
0000
,
1000
0100
0001
0010
,
0010
0010
0010
1001
,
0100
0000
0100
0000
1000
1000
0100
0000
,
0001
0001
0001
0001
0001
0001
0001
0001
,
0000
0001
0100
0000
1000
0000
0100
0000
,
0001
0100
1000
0010
,
0001
0010
1000
0100
,
0100
0000
0001
0010
0000
0100
0000
0100
,
1000
1000
0100
0100
,
0001
0000
0010
0000
0100
0000
1000
0001
,
0000
0000
0000
0000
,
0100
0100
0100
0010
,
1000
0100
1000
1000
,
0001
0010
0001
0001
,
0100
0010
0100
0100
,
0010
1000
0010
0010
,
0100
0001
0100
0100
,
0001
0010
0001
0001
,
1000
0100
1000
1000
,
0001
1000
0001
0001
,
1000
0010
1000
1001
,
0001
0010
0001
1001
,
1000
0010
1000
1010
,
0010
0100
0010
0110
,
0100
0001
0100
0101
,
0001
1000
0001
1001
,
1000
0100
0001
1001
,
0001
0000
0010
1000
0100
0000
0001
0000
,
1001
0000
0000
0000
0100
0001
0001
0010
,
1000
0000
0000
0000
0100
1000
1000
0100
,
0001
0000
0000
0000
1000
0001
1000
0001
,
1000
0100
0001
0000
1000
0100
0001
0000
,
1000
0100
0001
0000
0010
0000
0010
0000
,
0001
0010
1000
0000
0001
0010
1000
0000
,
0001
0010
1000
0000
0100
0000
0100
0000
,
1000
0100
0001
0000
0001
0010
1000
0000
,
1000
0100
0001
0000
0010
0000
0100
0000
,
0010
0010
0010
0010
,
0000
0000
0010
0000
,
1001
0100
1000
0010
,
0001
0100
0100
1000
,
0010
0100
0001
0010
,
0010
0001
0100
0100
,
1000
0100
0001
0100
,
1000
0010
0010
0100
,
0001
0100
1000
0010
,
0011
1100
1010
0101
,
2002
3003
0000
0000
;

//---------------dance-single - HEAVY----------------
#NOTES:
     dance-single:
     HEAVY:
     Hard:
     7:
     0.468,0.551,0.395,0.009,0.129: // measure 1
0000
0000
0000
0000
,  // measure 2
0000
0000
0000
0000
,  // measure 3
0000
0000
0000
0000
,  // measure 4
0000
0000
0000
0000
,  // measure 5
0001
0000
1000
0000
0010
0001
0100
0000
,  // measure 6
1001
0000
1000
1000
0100
0000
0001
0000
,  // measure 7
0001
0000
0010
0010
1000
0000
0100
0000
,  // measure 8
0001
0011
0010
1010
,  // measure 9
1000
0100
0001
0000
1000
0000
1001
0000
,  // measure 10
1000
0010
0100
0010
0100
0001
0001
0001
,  // measure 11
0010
1000
0010
1000
0100
0000
0001
0010
,  // measure 12
0000
1000
0000
0100
0001
0000
0010
0000
,  // measure 13
0110
1001
0110
1001
,  // measure 14
1000
0100
1000
0100
0010
0001
0010
0001
,  // measure 15
0001
0001
0010
0010
0100
0100
1000
1000
,  // measure 16
0000
0001
0100
1000
1000
0010
0001
0100
,  // measure 17
0000
0100
1000
0000
1000
0000
1000
0000
,  // measure 18
0010
0000
0010
0100
0001
0000
1000
0000
,  // measure 19
0100
0000
0001
0010
0000
1010
0000
0100
,  // measure 20
0001
0100
1000
0010
0100
0010
0100
0100
,  // measure 21
1000
0000
0010
0000
0100
0000
1000
0001
,  // measure 22
0000
0000
0000
0000
,  // measure 23
1001
1001
0110
0110
,  // measure 24
1000
0010
0001
0110
,  // measure 25
1000
0100
0001
0110
,  // measure 26
1000
0100
0001
0110
,  // measure 27
0001
0010
1000
0110
,  // measure 28
0001
0001
0100
1001
,  // measure 29
1000
1000
0010
1001
,  // measure 30
0001
0001
0001
1001
,  // measure 31
1000
1000
1000
1001
,  // measure 32
1000
0010
0000
0000
0010
0100
0000
0000
0100
0001
0000
0000
0001
0010
0000
0000
,  // measure 33
0010
0100
0000
0000
0100
1000
0000
0000
1000
0001
0000
0000
0001
1000
0000
0000
,  // measure 34
1000
0010
0000
0000
0010
0100
0000
0000
0100
0001
0000
0000
0001
0100
0000
0000
,  // measure 35
0100
0001
0000
0000
0001
0010
0000
0000
0010
0100
0000
0000
0100
1000
0000
0000
,  // measure 36
1000
0010
0000
0000
0010
0100
0000
0000
0100
0001
0000
0000
0001
1000
0000
0000
,  // measure 37
1000
0001
0000
0000
0001
1000
0000
0000
1000
0001
0000
0000
0001
0010
0000
0000
,  // measure 38
0100
1000
0000
0000
1000
0100
0000
0000
0100
1000
0000
0000
1000
0010
0000
0000
,  // measure 39
0001
0100
0000
0000
1000
0000
0100
0000
0001
0000
0000
0000
0010
1000
0000
0000
,  // measure 40
1001
0000
0000
0000
0110
0100
0100
0100
,  // measure 41
0110
0000
0000
0000
0110
0010
0010
0010
,  // measure 42
0110
0000
0000
0000
1001
0110
1001
0110
,  // measure 43
1000
0010
0001
1100
1000
0010
0001
1100
,  // measure 44
1000
0010
0001
1100
1000
0011
1000
0011
,  // measure 45
0001
0010
1000
0101
0001
0010
1000
0101
,  // measure 46
0001
0010
1000
0101
0001
1010
0001
1010
,  // measure 47
1000
0100
0001
1010
1000
0100
0001
1010
,  // measure 48
1000
0100
0001
1010
1000
0011
0001
1010
,  // measure 49
0010
0010
0010
0010
,  // measure 50
0100
0100
0100
0100
1001
0000
0000
0000
,  // measure 51
0001
0010
0100
1000
0100
1000
0010
0100
,  // measure 52
0001
0100
1000
1000
0010
0010
0100
0100
,  // measure 53
0001
0010
1000
0010
0001
0010
0010
1000
,  // measure 54
0010
0001
0010
1000
1000
0100
0100
1000
,  // measure 55
0010
0100
0100
1000
0001
0010
0100
1000
,  // measure 56
1000
0010
0100
0001
0010
1000
1000
0010
,  // measure 57
0001
0010
0100
0100
1000
0100
0001
0001
,  // measure 58
1000
0100
0001
0010
1000
0100
0001
0010
,  // measure 59
2000
3001
0000
0000
;

//---------------dance-single - ONI----------------
#NOTES:
     dance-single:
     ONI:
     Challenge:
     7:
     0.501,0.576,0.713,0.069,0.112:
0000
0000
0000
0000
,
0000
0000
0000
0000
,
0000
0000
0000
0000
,
0000
0000
0000
0000
,
1000
0010
0100
0001
,
1001
0000
0000
0010
1000
0000
1000
0000
0100
0000
0000
0010
0001
0000
0001
0000
,
0100
0010
1000
0001
,
0001
0000
0000
0001
0010
0000
0000
0000
1000
0000
0000
1000
0010
0000
0000
0000
,
1001
0110
1001
0110
,
1000
1010
0010
0110
0100
0101
1000
0101
,
0001
0001
0010
1000
0100
0000
0001
0010
,
0000
0010
1000
0000
0000
1000
0100
0000
0001
0000
0000
0000
0010
0000
0000
0000
,
0110
1001
0110
1001
,
1000
0000
1000
0100
0001
1000
0100
0001
,
0011
1010
1100
0101
0011
1010
1100
0101
,
0000
0001
0100
0001
0100
0010
0001
0100
,
0000
0000
0100
0000
1000
0000
0000
0100
1000
0000
0000
1000
0010
0000
0000
0000
,
0010
0000
0000
0000
0010
0000
0100
0000
0100
0000
0000
0100
1000
0000
0000
1000
,
0100
0000
0001
0010
0000
1001
0000
0110
,
0000
0100
1000
1000
0100
0010
0001
0001
,
0100
0000
0010
0000
0100
0000
1000
0001
,
0000
0000
0010
0000
1000
0000
0100
0000
0010
0001
0000
0001
0100
0000
1000
0000
,
1001
1001
0110
0110
,
1000
0010
0100
0000
0001
0001
1001
0000
,
0001
0010
0001
1000
0100
1000
1001
0000
,
0001
0100
0010
0000
1000
1000
1001
0000
,
0001
0100
0000
0000
1000
0010
0000
0000
0001
0100
0000
0000
1001
0000
0000
0000
,
0001
0000
0100
0000
0001
0000
0010
0000
0100
1000
0000
0000
1001
0000
0000
0000
,
1000
0000
0010
0000
1000
0000
0100
0000
0010
0001
0000
0000
1001
0000
0000
0000
,
0001
0000
1000
0001
1000
0000
1001
0000
,
1000
0000
0001
1000
0001
0000
1001
0000
,
1000
0000
0100
0000
0010
0000
0000
0001
0100
0000
0000
0000
1001
0000
0000
0000
,
0001
0000
0100
0000
0010
0000
0000
1000
0100
0000
0000
0000
1001
0000
0100
0000
,
1000
1010
0001
1010
1000
0100
1001
0010
,
0100
0011
1000
0011
0100
0010
1001
0000
,
1000
0100
0010
0000
0100
0100
1001
0000
,
0001
0010
0100
0000
0100
0100
1001
0000
,
0100
0100
0010
0010
,
1001
0000
1000
0100
0001
0000
0110
0000
,
1001
0000
0000
0000
0110
1001
1001
1001
,
0210
0000
0000
0000
0310
0110
0110
0110
,
0110
0000
0000
0000
1001
1000
0110
0001
,
1001
0100
1001
0100
,
1001
0100
1001
1001
,
1001
0100
1001
0100
,
1001
0100
1001
1001
,
1001
0100
1001
0010
,
1001
0100
1001
1001
,
0010
0010
0010
0010
,
0100
0000
0100
0000
0100
0000
0100
0000
2002
0000
3000
0000
0000
0003
0000
0000
,
1000
0010
0100
0000
0001
0100
1000
0100
,
0001
0100
2000
0000
3200
0000
0302
0000
,
1003
0000
0100
0000
0001
0000
0000
1000
0100
0000
0010
0000
0010
0000
0001
0000
,
0000
0001
0010
1000
0100
0100
0110
1001
,
0010
0000
0100
1000
0001
0000
0100
0010
,
1001
0000
0000
0000
0110
0000
0000
0000
1001
0000
0000
0000
0110
0000
0000
0010
,
0002
0000
0100
0000
0103
0000
0000
0010
2000
0000
0100
0000
3100
0000
0000
0000
,
1000
0100
0000
0000
0001
0010
0000
0000
1000
0100
0000
0000
0001
0010
0000
0000
,
1001
1001
0000
0000
;
