#TITLE:waterlife;
#SUBTITLE:;
#ARTIST:syatten;
#TITLETRANSLIT:;
#SUBTITLETRANSLIT:;
#ARTISTTRANSLIT:;
#CREDIT:;
#BANNER:waterlife.png;
#BACKGROUND:waterlife-bg.png;
#LYRICSPATH:;
#CDTITLE:cdtitle.png;
#MUSIC:waterlife.mp3;
#OFFSET:0.450;
#SAMPLESTART:36.020;
#SAMPLELENGTH:12.000;
#SELECTABLE:YES;
#BPMS:0.000=112.000,132.000=56.000,148.000=112.000;
#STOPS:;
#BGCHANGES:0.750=waterlife.mpeg=1.000=1=0=1,
248.000=waterlife-bg.png=1.000=1=0=1,
99999=-nosongbg-=1.000=0=0=0 // don't automatically add -songbackground-
;

//---------------dance-single - BASIC----------------
#NOTES:
     dance-single:
     BASIC:
     Easy:
     1:
     0.111,0.127,0.028,0.000,0.000:
0000
0000
0000
0000
,
0000
0000
0000
0000
,
0000
0000
0000
0000
,
0000
0000
0000
0000
,
0000
0000
0000
0000
,
1000
0000
0000
0000
,
0010
0000
0000
0000
,
0001
0000
0000
0000
,
0010
0000
0000
0000
,
1000
0000
0001
0000
,
1000
0000
0010
0000
,
0100
0000
0100
0000
,
1000
0000
0001
0000
,
0010
0000
0100
0000
,
1000
0000
0001
0000
,
1000
0000
0010
0000
,
0100
0000
0100
0000
,
1001
0000
1000
0000
,
0001
0000
1000
0000
,
0001
0000
1000
0000
,
0010
0000
0100
0000
,
0001
0000
1000
0000
,
1000
0000
0001
0000
,
1000
0000
0100
0000
,
0100
0000
0010
0000
,
0001
0000
1000
0000
,
1000
0000
0001
0000
,
0001
0000
0010
0000
,
0100
0000
0100
0000
,
0010
0000
1000
0000
,
0001
0000
1000
0000
,
0100
0000
0100
0000
,
0010
0000
0000
0000
,
1001
0000
0010
0000
,
0100
0000
0100
0000
,
0010
0000
1000
0000
,
0001
0000
1000
0000
,
0100
0000
0100
0000
,
0010
0000
1000
0000
,
0001
0000
1000
0000
,
0001
0000
0010
0000
,
0100
0000
1000
0000
,
0001
0000
1000
0000
,
0100
0000
0010
0000
,
0100
0000
0001
0000
,
1001
0000
1000
0000
,
0001
0000
1000
0000
,
0001
0000
1000
0000
,
0001
0000
1000
0000
,
0010
0000
1000
0000
,
0100
0000
0010
0000
,
0001
0000
1000
0000
,
0010
0000
0100
0000
,
0001
0000
1000
0000
,
1000
0000
0001
0000
,
0100
0000
0010
0000
,
1000
0000
0100
0000
,
0010
0000
0001
0000
,
1000
0000
0001
0000
,
0100
0000
0010
0000
,
1001
0000
0000
0000
;

//---------------dance-single - TRICK----------------
#NOTES:
     dance-single:
     TRICK:
     Medium:
     4:
     0.232,0.234,0.056,0.049,0.000:
0000
0000
0000
0000
,
0000
0000
0000
0000
,
0000
0000
0000
0000
,
0000
0000
0000
0000
,
0000
0000
0000
0000
,
2000
0000
0000
0000
0000
0000
0000
3020
,
0000
0000
0000
0000
0000
0000
0000
0032
,
0000
0000
0000
0000
0000
0000
0000
0023
,
0000
0000
0000
2030
0000
0000
0000
0000
,
3001
0100
0001
0100
,
0100
0100
1000
1000
,
0100
0001
0100
0010
,
1000
1000
0100
0001
,
0010
0100
0100
0100
,
1000
0001
1000
0001
,
0010
0010
1000
0100
,
0001
0100
1000
0010
,
1001
0000
1000
0000
1000
0001
0000
0001
,
0000
1000
1000
0000
0000
0000
1000
0000
,
0100
0001
0001
0000
0100
0010
1000
0000
,
0100
0000
0100
0010
0000
0010
1000
0000
,
1001
0000
0001
0000
0001
1000
0000
0010
,
0000
0100
0100
0000
0000
0000
0001
0000
,
0100
1000
1000
0000
0010
0100
1000
0000
,
0001
0100
0000
0100
0000
0010
1000
0000
,
1001
0000
0001
0000
0100
0100
0000
1000
,
0000
0100
0001
0000
0001
0000
1000
0010
,
0100
0000
0001
0100
1000
0000
0010
0000
,
0100
0000
0000
0100
0010
0000
0100
0000
,
0110
0000
1000
0000
0010
0010
0000
0001
,
0000
0010
1000
0000
0100
0000
1000
0001
,
0100
0000
0010
1000
0100
0000
0001
0000
,
1000
0000
0000
0100
0010
0000
0100
0000
,
0110
0100
0000
0010
0000
1000
0000
0001
,
0000
0100
0000
0001
0000
1000
0000
0010
,
0000
1000
0000
0001
0000
1000
0000
0010
,
0000
0100
0000
0001
0000
1000
0000
0100
,
1000
0100
1000
0100
,
0010
0001
0010
0001
,
1000
0100
1000
0100
,
0010
0001
0010
0001
,
0010
1000
0010
1000
,
0001
0100
0001
0100
,
0010
1000
0010
1000
,
0001
0100
0001
0100
,
1001
1000
0000
0001
,
0000
1000
0000
0001
,
0000
1000
0000
0001
,
0000
1000
0000
0010
,
1001
0001
1000
0100
,
1000
0001
0010
0100
,
1000
0100
1000
0100
,
0010
1000
0100
0001
,
0010
0100
1000
0001
,
1000
0100
0001
0010
,
0100
1000
0100
1000
,
0100
0010
0001
0100
,
1000
0100
0100
0001
,
1000
0001
0001
1000
,
0100
0010
1000
0001
,
2002
0000
0000
3003
0000
0000
0000
0000
;

//---------------dance-single - HEAVY----------------
#NOTES:
     dance-single:
     HEAVY:
     Hard:
     6:
     0.329,0.363,0.246,0.014,0.000:
0000
0000
0000
0000
,
0000
0000
0000
0000
,
0000
0000
0000
0000
,
0000
0000
0000
0000
,
0000
0000
0000
0000
,
1000
1000
1000
1000
,
1000
1000
1000
1000
,
0001
0001
0001
0001
,
0001
0001
0001
0001
,
1001
0000
0100
1000
0001
0000
0100
0000
,
1100
0000
0100
1000
0010
0000
0001
0100
,
0100
0001
0100
0010
,
1000
0100
1000
0100
0010
0000
0001
0000
,
0011
0000
0100
0001
0100
0000
0100
0000
,
1000
0010
0001
0010
1000
0000
0101
0000
,
1010
0010
1000
0100
,
0101
0100
1010
0010
,
1001
0000
1000
0010
1000
0100
0000
0001
,
0000
0010
0010
0000
1010
0000
1000
0000
,
0100
0001
0100
1000
0100
0001
0010
1000
,
0100
0000
0100
0010
0000
0010
0010
0100
,
1000
0000
0001
0100
0100
1000
0000
1000
,
0000
0100
0001
0000
0001
0000
0010
0000
,
1000
0100
0010
0100
1000
0100
0001
0010
,
0010
0000
1000
1000
0000
0100
0100
0001
,
0010
0000
0001
0100
1000
1000
0000
0010
,
0000
0001
0100
0000
1100
0000
1000
0010
,
0100
0001
0100
0010
1000
0100
0010
0001
,
0100
0000
0100
0100
0000
0010
0010
0000
,
0110
0000
1000
0001
0100
0100
0000
0010
,
0000
0010
1000
0000
0100
0000
1000
0001
,
0100
0010
0100
0001
1000
0100
0100
0000
,
0011
0000
0000
1000
0100
0000
0010
0000
,
0100
0100
0100
0100
0001
0001
0001
0001
,
0010
0010
0010
0010
1000
1000
1000
1000
,
0100
0100
0100
0100
0001
0001
0001
0001
,
0100
0100
0100
0100
0010
0010
0010
0010
,
1100
0010
1100
0010
,
0011
0100
0011
0100
,
1001
0100
1001
0100
,
1001
0010
1001
0010
,
1010
0001
1010
0001
,
0101
1000
0101
1000
,
0110
0001
0110
0001
,
0110
1000
0110
1000
,
1001
0000
1000
1000
0000
0000
0001
0000
,
0000
0000
0001
0001
0000
0000
1000
0000
,
0000
0000
1000
1000
0000
0000
0001
0000
,
0000
0000
0001
0001
0000
0000
1000
0000
,
1001
0001
1000
0100
,
0001
0000
0100
0000
1000
0010
0100
0000
,
0001
0010
0100
1000
0001
1000
0100
0010
,
0001
0100
0011
1100
,
0010
0000
1000
0000
0100
0001
0000
0001
,
0000
0100
1000
0000
0001
0000
0011
0000
,
1000
0100
0001
0100
1000
0010
0100
0001
,
1000
0000
0010
0001
0000
0001
0100
0000
,
1100
0000
1000
0000
0010
0001
0000
0010
,
0000
1000
0100
0000
0001
0000
0010
0100
,
1000
0001
0100
0010
1000
0100
0001
1000
,
0010
0000
0000
2002
0000
0000
3003
0000
;

//---------------dance-single - ONI----------------
#NOTES:
     dance-single:
     ONI:
     Challenge:
     10:
     0.583,0.717,0.647,0.176,0.384:
0000
0000
0000
0000
,
0000
0000
0000
0000
,
0000
0000
0000
0000
,
0000
0000
0000
0000
,
0000
0000
0000
0000
,
1002
1000
1003
0000
0100
0100
0100
0000
,
0012
0010
0013
0000
0100
0100
0100
0000
,
2001
0001
3001
0000
0100
0100
0100
0000
,
2010
0000
0000
0010
0000
0000
3010
0000
0000
0000
0000
0000
0100
0000
0000
0100
0000
0000
0100
0000
0000
0010
0000
0100
,
0001
0000
0000
0000
0000
0000
0001
0000
0000
0100
0000
0000
0010
0000
0000
0100
0000
0001
0100
0000
0010
0100
0000
0100
,
0000
0000
1000
0100
0000
0000
0100
0000
0000
0010
0000
0000
0100
0000
0000
0001
0000
0000
0001
0000
0100
0000
0000
0010
,
0000
0000
0000
0000
0000
0000
0101
0000
0000
0000
0000
0000
0010
0000
0000
0000
0000
0000
1010
0000
0000
1000
0000
0010
,
0100
0000
0000
0100
0000
0000
0100
0000
0001
0000
0000
0100
0000
0000
0010
1000
0000
0000
0001
0000
0010
0000
0000
0100
,
1000
0000
0000
0000
0000
0000
1100
0000
0000
0000
0000
0000
0010
0000
0000
0100
0000
0001
0100
0000
1000
0100
0000
0010
,
0000
0000
0100
1000
0000
0000
0001
0000
0000
0010
0000
0000
0100
0000
0000
1000
0000
0000
0010
0000
0100
0000
0000
1001
,
0000
0000
0000
0000
0000
0000
0010
0000
0000
0000
0000
0000
1000
0000
0000
0000
0000
0000
1001
0000
0000
0100
0000
0010
,
0001
0000
0001
1000
0000
0000
0100
0000
1000
0100
0000
0010
0001
0000
0001
0000
0000
0000
0010
0000
0100
0010
0000
0010
,
0001
0000
1001
0000
1000
0100
0101
0001
,
0010
0000
0000
0110
0000
0000
1001
0000
0000
0000
0000
0000
1010
0000
0000
0000
0000
0000
1001
0000
0010
0000
0000
1000
,
0000
0000
0000
0001
0000
0000
0010
0000
0100
0000
0000
0100
0000
0000
0010
0001
0000
0000
0010
0000
0000
0001
0000
0000
,
1001
0000
0000
0000
0000
0000
0100
0000
0000
1001
0000
0000
0000
0000
0000
0010
0000
0000
0010
0000
0100
0000
0000
0100
,
0001
0000
0001
0100
1100
1000
0100
1100
,
0100
0000
0000
0110
0000
0000
1001
0000
0000
0000
0000
0000
0001
0000
0000
0000
0000
0000
0010
0000
0100
0000
0000
0100
,
0000
0000
0000
0100
0000
0000
0010
0000
0001
0000
0000
0001
0000
0000
1000
0100
0000
0000
0010
0000
0000
0010
0000
0000
,
0001
0000
0000
0000
0000
0000
1000
0000
0000
1001
0000
0000
0000
0000
0000
0100
0000
0000
0010
0000
0100
0000
0000
0001
,
1000
0000
0011
0000
0001
0100
1100
1000
,
0010
0000
0000
0110
0000
0000
1001
0000
0000
0000
0000
0000
0011
0000
0000
0000
0000
0000
1001
0000
0010
0000
0000
0001
,
0000
0000
0000
1000
0000
0000
0010
0000
0100
0000
0000
0100
0000
0000
0010
1000
0000
0000
0010
0000
0000
1000
0000
0000
,
1001
0000
0000
0000
0000
0000
0100
0000
0000
1001
0000
0000
0000
0000
0000
0010
0000
0000
0010
0000
0100
0000
0000
0100
,
1000
0000
1000
0100
0101
0001
0100
0101
,
0100
0000
0000
0110
0000
0000
1001
0000
0000
0000
0000
0000
1000
0000
0000
0000
0000
0000
0010
0000
0100
0000
0000
0100
,
0000
0000
0000
0100
0000
0000
0010
0000
1000
0000
0000
1000
0000
0000
0001
0100
0000
0000
0010
0000
0000
0010
0000
0000
,
1000
0000
0000
0000
0000
0000
0001
0000
0000
1001
0000
0000
0100
0000
0010
0100
0000
0100
0010
0000
0001
0100
0000
0000
,
0100
2100
3100
2100
3001
0021
0031
0012
,
0013
2010
3010
1020
1030
1200
1300
2100
,
3100
0102
0103
0201
0301
0201
0301
0102
,
0103
0120
0130
0210
0310
2010
3010
1010
,
1100
0100
0110
0010
1100
0001
0011
0100
,
1100
1000
1001
0001
0011
1000
1100
1000
,
1001
0001
1001
1000
1010
0100
0101
0001
,
1001
1000
1001
0010
1001
0100
1001
0001
,
1001
0000
0000
0100
0000
0000
0101
0000
0000
0100
0000
0000
1100
0000
0000
1000
0000
0000
1001
0000
0000
0010
0000
0100
,
0001
0000
0000
0001
0000
0000
1001
0000
0000
1000
0000
0000
1001
0000
0000
0001
0000
0000
1001
0000
0000
1000
0000
0010
,
0100
0000
0000
0100
0000
0000
0101
0000
0000
0001
0000
0000
0101
0000
0000
0001
0000
0000
1001
0000
0000
1000
0000
0100
,
0010
0000
0000
0001
0000
0000
1001
0000
0000
1000
0000
0000
0100
0000
0010
0001
0000
0001
1000
0000
1000
0001
0000
0002
,
2000
3003
0010
0000
1000
0100
0000
0101
,
0000
0000
0000
0110
0000
0000
2002
0000
0000
0000
0000
0000
3003
0000
0000
0000
0000
0000
0100
0000
0010
0000
0000
1000
,
0000
0000
0000
0001
0000
0000
0010
0000
0100
0000
0000
0100
0000
0000
0010
0001
0000
0000
0010
0000
0000
0001
0000
0000
,
0100
0000
0000
0000
0000
0000
0100
0000
0000
0010
0000
0000
0000
0000
0000
0010
0000
0000
0010
0000
0100
0000
0000
0100
,
0001
0000
1001
0100
0110
0101
1000
0101
,
0110
0000
0000
0100
0000
0000
1001
0000
0000
0000
0000
0000
0110
0000
0000
0000
0000
0000
1000
0000
0100
0000
0000
0100
,
0000
0000
0000
0010
0000
0000
0001
0000
1000
0000
0000
0100
0000
0000
0010
0100
0000
0000
1000
0000
0000
0100
0000
0000
,
0001
0000
0000
0000
0000
0000
0110
0000
0000
1001
0000
0000
0000
0000
0000
0100
0000
0000
0010
0000
0100
0000
0000
0001
,
1000
0000
0010
1000
0000
0000
1000
0000
0100
0010
0000
0000
0010
0000
0001
1000
0000
0000
1000
0000
0010
0100
0000
0000
,
0001
0000
0100
0010
0000
0000
1000
0000
0100
1000
0000
0000
0010
0000
0100
0001
0000
0000
0100
0000
0010
0100
0000
0000
,
0001
0000
1000
0001
0000
0000
0100
0000
0010
1000
0000
0000
0100
0000
0010
0001
0000
0000
0100
0000
0010
1000
0000
0000
,
0001
0000
1000
0100
0000
0000
0001
0000
1000
0010
0000
0000
0100
0000
0001
0100
0000
0000
0100
0000
0010
0100
0000
0000
,
0010
0000
1000
0010
0000
0000
0100
0000
0001
0100
0000
0000
0010
0000
1000
0001
0000
0000
1000
0000
0001
0100
0000
0000
,
0100
0000
0001
1000
0000
0000
0001
0000
1000
0010
0000
0000
0100
0000
0001
1000
0000
0000
0100
0000
0010
0001
0000
0000
,
0010
0000
0100
1000
0000
0000
1000
0000
0010
0100
0000
0000
0001
0000
0010
0100
0000
0000
1000
0000
0001
1000
0000
0000
,
1001
0000
0010
0000
0000
0100
0000
0000
0010
1000
0000
0100
0000
0000
0010
0100
0000
0000
2002
0000
0000
0000
0000
0000
,
0000
0000
0000
3003
;

//---------------dance-double - ----------------
#NOTES:
     dance-double:
     :
     Hard:
     7:
     0.333,0.363,0.204,0.021,0.000: // measure 1
00000000
00000000
00000000
00000000
,  // measure 2
00000000
00000000
00000000
00000000
,  // measure 3
00000000
00000000
00000000
00000000
,  // measure 4
00000000
00000000
00000000
00000000
,  // measure 5
00000000
00000000
00000000
00000000
,  // measure 6
01000000
01000000
01000000
00010000
,  // measure 7
00000100
00000100
00000100
00000010
,  // measure 8
00000001
00000100
00000100
00000100
,  // measure 9
00010000
01000000
00100000
00110000
,  // measure 10
00002000
00000000
00003100
00000000
00010000
00000010
00000100
00000000
,  // measure 11
00000010
00000000
00010010
00000000
00001000
00000000
00010000
00001000
,  // measure 12
00100000
00000000
01100000
00000000
10000000
01000000
00100000
00000000
,  // measure 13
00010000
00000000
00011000
00000000
00000010
00000000
00000100
00000001
,  // measure 14
00000010
00000000
00000110
00000000
00010000
00000000
00001000
01000000
,  // measure 15
00001000
00000000
00010000
00100000
10000000
00000000
10010000
00000000
,  // measure 16
00100000
00000000
01100000
00000000
00001000
01000000
00100000
00000000
,  // measure 17
00010000
00000000
00011000
00000000
00000010
00010000
00001000
00000100
,  // measure 18
00000000
00000010
00000000
00000110
00000000
00000001
00000000
00001001
,  // measure 19
00000000
00000100
00000010
00000100
00000000
00010000
00001000
00010000
,  // measure 20
00000000
00100000
01000000
10000000
00000000
00100000
01000000
00010000
,  // measure 21
00000000
00001000
01000000
00000000
00000000
00001000
00100000
00010000
,  // measure 22
00000000
00001000
00000000
00000110
00000000
00000001
00000000
00000110
,  // measure 23
00000000
00001000
00010000
01000000
00000000
00100000
10000000
01000000
,  // measure 24
00000000
00100000
00000000
00001000
00000000
00010000
00000010
00000110
,  // measure 25
00000000
00000001
00000010
00000100
00010000
00000010
00000100
00000000
,  // measure 26
00000010
00010000
00001000
00000000
00011000
00000000
01000000
00000000
,  // measure 27
00100000
00010000
10000000
00000000
01100000
00000000
10000000
00000000
,  // measure 28
00010000
00000000
00100000
01000000
00100000
00001000
00000000
00010000
,  // measure 29
00000010
00000100
00000000
00000010
00010000
00000100
00000010
00000001
,  // measure 30
00001000
00000000
00000101
00000000
00010000
00000010
00000100
00000000
,  // measure 31
00001000
00000000
01100000
00000000
00001000
01000000
00100000
00000000
,  // measure 32
10000000
00010000
00100000
00000000
01100000
00000000
00001000
00010000
,  // measure 33
00001000
00000000
00000010
00000100
00000000
00000001
00001000
00000100
,  // measure 34
00010000
00100000
01000000
10000000
01000000
00010000
00001000
00000100
,  // measure 35
00000010
00000001
00001000
00000010
00000100
00000010
00010000
00001000
,  // measure 36
01000000
00010000
10000000
00100000
00001000
01000000
00100000
00001000
,  // measure 37
00010000
00000100
00000001
00000010
00010000
00001000
01000000
00100000
,  // measure 38
00010000
00000000
00000000
00000000
10000000
10000000
00010000
00000000
,  // measure 39
01000000
00100000
00001000
00010000
00000000
00000010
00000100
00000000
,  // measure 40
00000001
00001100
00000010
00000100
,  // measure 41
00000010
00010000
00001000
00000000
00001000
00100000
01000000
00000000
,  // measure 42
01100000
00000000
10000000
00000000
00010000
00000000
00100000
01000000
,  // measure 43
00100000
00000000
00101000
00000000
00001000
00010000
00000010
00000000
,  // measure 44
00000100
00000000
00000110
00000000
00000001
00001000
00000100
00000000
,  // measure 45
00000010
00000000
00010000
00001000
00011000
00000000
00100000
00000000
,  // measure 46
01000000
10000000
00100000
00000000
01000000
00001000
00000000
00100000
,  // measure 47
00001000
00010000
00000100
00000000
00000010
00000000
00000100
00010000
,  // measure 48
00000010
00000000
00000001
00000010
00000100
00010000
00000010
00000000
,  // measure 49
00000010
00000000
00000000
00001000
00000000
00010000
00001000
01000000
,  // measure 50
00100000
00000000
01100000
00000000
10000000
00100000
00000000
00010000
,  // measure 51
00100000
10000000
01000000
00000000
00010000
01000000
00001000
00000000
,  // measure 52
00100000
00100000
00001000
00000000
00010000
00000010
00000100
00000000
,  // measure 53
00000001
00000000
00001001
00000000
00000000
00000100
00000010
00000100
,  // measure 54
00010000
00000000
00011000
00000000
00100000
00010000
00000000
00001000
,  // measure 55
01000000
00000000
10000000
00000000
01000000
00001000
00100000
00000000
,  // measure 56
00010000
00001000
00000100
00000010
00000000
00000001
00001000
00000000
,  // measure 57
00000100
00000010
00000000
00000001
00000000
00000100
00000010
00000000
,  // measure 58
00010000
00000000
00011000
00000000
01000000
00100000
00000000
01000000
,  // measure 59
00000000
01001000
00000000
00001000
00010000
00000000
00110000
00000000
,  // measure 60
00100000
00000000
10000000
00000000
00010000
01000000
10000000
00000000
,  // measure 61
00200000
00000000
00000000
00320000
00000000
00000000
00031000
00000000
;

//---------------dance-double - ----------------
#NOTES:
     dance-double:
     :
     Medium:
     4:
     0.199,0.192,0.000,0.014,0.000: // measure 1
00000000
00000000
00000000
00000000
,  // measure 2
00000000
00000000
00000000
00000000
,  // measure 3
00000000
00000000
00000000
00000000
,  // measure 4
00000000
00000000
00000000
00000000
,  // measure 5
00000000
00000000
00000000
00000000
,  // measure 6
01000000
10000000
10000000
01000000
,  // measure 7
00010000
00001000
00001000
00010000
,  // measure 8
00001000
00000100
00000100
00000010
,  // measure 9
00000001
00000010
00000010
00001000
,  // measure 10
00010000
00000100
00001000
00000010
,  // measure 11
00000001
00000100
00001000
00000010
,  // measure 12
00010000
00001000
00100000
01000000
,  // measure 13
00010000
01000000
10000000
00100000
,  // measure 14
01000000
00010000
10000000
00100000
,  // measure 15
00001000
00010000
00000010
00000100
,  // measure 16
00000001
00000010
00001000
00000100
,  // measure 17
00010000
00000010
00001000
00000100
,  // measure 18
00010000
00001000
01000000
00000000
,  // measure 19
00100000
00010000
01000000
00000000
,  // measure 20
10000000
10000000
01000000
01000000
,  // measure 21
00100000
00000000
00001000
00010000
,  // measure 22
00000100
00000010
00000100
00000000
,  // measure 23
00000001
00001000
00000001
00000000
,  // measure 24
00000100
00000010
00010000
00001000
,  // measure 25
01000000
00001000
00010000
00000000
,  // measure 26
00100000
00010000
10000000
01000000
,  // measure 27
00000000
00001000
00010000
00001000
,  // measure 28
00000000
00000100
00000010
00000100
,  // measure 29
00000001
00000000
00001000
00000100
,  // measure 30
00000010
00010000
00001000
00000000
,  // measure 31
00010000
01000000
10000000
00000000
,  // measure 32
00010000
00001000
00100000
01000000
,  // measure 33
00010000
00001000
01000000
00000000
,  // measure 34
00100000
00001000
00010000
00000100
,  // measure 35
00000001
00001000
00000100
00000010
,  // measure 36
00001000
00010000
00100000
00010000
,  // measure 37
10000000
00100000
01000000
00001000
,  // measure 38
00010000
00000010
00000001
00000100
,  // measure 39
00001000
00100000
10000000
00010000
,  // measure 40
01000000
00001000
00010000
00000010
,  // measure 41
00000100
00010000
00001000
00000100
,  // measure 42
00000010
00010000
00001000
00100000
,  // measure 43
01000000
10000000
00010000
01000000
,  // measure 44
00001000
00010000
00000100
00000010
,  // measure 45
00001000
00010000
00001000
00000010
,  // measure 46
00000001
00000100
00000000
00001000
,  // measure 47
00000000
00010000
01000000
00010000
,  // measure 48
00000000
10000000
00100000
00000000
,  // measure 49
00001000
00000000
00010000
00000000
,  // measure 50
00000010
00000100
00001000
00010000
,  // measure 51
01000000
00010000
00000000
10000000
,  // measure 52
00100000
00001000
00010000
00000100
,  // measure 53
00000010
00000000
00000001
00001000
,  // measure 54
00000100
00000010
00010000
00000000
,  // measure 55
00001000
01000000
00100000
00000000
,  // measure 56
10000000
01000000
00001000
00010000
,  // measure 57
00100000
00000000
01000000
00000000
,  // measure 58
00100000
00001000
00010000
00000100
,  // measure 59
00000000
00000001
00000000
00000010
,  // measure 60
00010000
00001000
00100000
01000000
,  // measure 61
00020000
00000000
00000000
00002000
00000000
00000000
00033000
00000000
;

//---------------dance-double - ----------------
#NOTES:
     dance-double:
     :
     Easy:
     1:
     0.108,0.107,0.000,0.007,0.000: // measure 1
00000000
00000000
00000000
00000000
,  // measure 2
00000000
00000000
00000000
00000000
,  // measure 3
00000000
00000000
00000000
00000000
,  // measure 4
00000000
00000000
00000000
00000000
,  // measure 5
00000000
00000000
00000000
00000000
,  // measure 6
01000000
00000000
00000000
00010000
,  // measure 7
00001000
00000000
00000000
00000100
,  // measure 8
00000010
00000000
00000000
00000001
,  // measure 9
00001000
00000000
00010000
00000000
,  // measure 10
01000000
00000000
00000000
10000000
,  // measure 11
00010000
00000000
01000000
00000000
,  // measure 12
00001000
00000000
00000000
00100000
,  // measure 13
00001000
00000000
00010000
00000000
,  // measure 14
00000100
00000000
00000000
00000001
,  // measure 15
00000010
00000000
00001000
00000000
,  // measure 16
00010000
00000000
00000000
00000000
,  // measure 17
00000100
00000000
00010000
00000000
,  // measure 18
01000000
00000000
00000000
00000000
,  // measure 19
00001000
00000000
00010000
00000000
,  // measure 20
00100000
00000000
00000000
00000000
,  // measure 21
10000000
00000000
00000000
00010000
,  // measure 22
00010000
00000000
01000000
00000000
,  // measure 23
00001000
00000000
00000000
00000010
,  // measure 24
00000010
00000000
00000001
00000000
,  // measure 25
00001000
00000000
00000000
00000100
,  // measure 26
00000100
00000000
00010000
00000000
,  // measure 27
00001000
00000000
00000000
00000000
,  // measure 28
00100000
00000000
01000000
00000000
,  // measure 29
10000000
00000000
00000000
00010000
,  // measure 30
00010000
00000000
01000000
00000000
,  // measure 31
00001000
00000000
00000000
00010000
,  // measure 32
00010000
00000000
00000010
00000000
,  // measure 33
00000100
00000000
00000000
00000000
,  // measure 34
00000001
00000000
00001000
00000000
,  // measure 35
00000100
00000000
00000010
00000000
,  // measure 36
00010000
00000000
00001000
00000000
,  // measure 37
01000000
00000000
00100000
00000000
,  // measure 38
10000000
00000000
01000000
00000000
,  // measure 39
00100000
00000000
00010000
00000000
,  // measure 40
00001000
00000000
00000100
00000000
,  // measure 41
00000010
00000000
00000001
00000000
,  // measure 42
00000100
00000000
00010000
00000000
,  // measure 43
00000010
00000000
00000100
00000000
,  // measure 44
00001000
00000000
00010000
00000000
,  // measure 45
01000000
00000000
00100000
00000000
,  // measure 46
01000000
10000000
00000000
00100000
,  // measure 47
00000000
00010000
00000000
00001000
,  // measure 48
00000000
00000001
00000000
00000100
,  // measure 49
00000000
00001000
00000000
00000010
,  // measure 50
00000000
00010000
00001000
00000000
,  // measure 51
01000000
00000000
00100000
00000000
,  // measure 52
10000000
00000000
00010000
00000000
,  // measure 53
01000000
00000000
00000000
00001000
,  // measure 54
00001000
00000000
00000010
00000000
,  // measure 55
00010000
00000000
00000000
00000000
,  // measure 56
01000000
00000000
00001000
00000000
,  // measure 57
00100000
00000000
01000000
00000000
,  // measure 58
00000000
10000000
00000000
00000000
,  // measure 59
01000000
00000000
00000000
00010000
,  // measure 60
00010000
00000000
00000100
00000000
,  // measure 61
00000020
00000000
00000000
00000130
;

//---------------dance-double - ----------------
#NOTES:
     dance-double:
     :
     Challenge:
     10:
     0.523,0.663,0.063,0.415,0.479: // measure 1
00000000
00000000
00000000
00000000
,  // measure 2
00000000
00000000
00000000
00000000
,  // measure 3
00000000
00000000
00000000
00000000
,  // measure 4
00000000
00000000
00000000
00000000
,  // measure 5
00000000
00000000
00000000
00000000
,  // measure 6
01000000
00000000
10000000
01000000
00000000
00010000
01000000
00000000
00001000
00010000
00000000
00000010
00000000
00000000
00010000
00001000
00000000
00000100
00000010
00000000
00001000
00000001
00000000
00000010
,  // measure 7
00000100
00000000
00001000
00000001
00000000
00000100
00000010
00000000
00001000
00000100
00000000
00010000
00000000
00000000
01000000
00001000
00000000
00010000
01000000
00000000
00100000
01000000
00000000
10000000
,  // measure 8
00010000
00000000
00100000
01000000
00000000
00100000
00001000
00000000
00010000
00000010
00000000
00000100
00000000
00000000
00000001
00001000
00000000
00000100
00000010
00000000
00000001
00000100
00000000
00000010
,  // measure 9
00001000
00000000
00000100
00010000
00000000
00001000
00100000
00000000
00010000
10000000
00000000
01000000
00000000
00000000
00100000
00001000
00000000
00010000
00000010
00000000
00010000
00001000
00000000
00000100
,  // measure 10
00000010
00000000
00000000
00000100
00000000
00000000
00001001
00000000
00000000
00000100
00000000
00000000
00000010
00000000
00000000
00000101
00000000
00001000
00000100
00000000
00010000
00001000
00000000
00100000
,  // measure 11
00000000
00000000
00010000
10000000
00000000
00000000
01100000
00000000
00000000
00200000
00000000
00000000
00010000
00000000
00000000
00301000
00000000
00000000
00000100
00000000
00000010
00000000
00000000
00000001
,  // measure 12
00000000
00000000
00000000
00001100
00000000
00000000
00010000
00000000
00000000
00000010
00000000
00000000
00000100
00000000
00000000
00101000
00000000
00000000
00010000
00000000
00000000
00001000
00000000
01000000
,  // measure 13
00100000
00000000
00000000
10000000
00000000
00000000
01000000
00000000
00010000
00000000
00000000
00001000
00000000
00000000
00010000
00000010
00000000
00000000
00000100
00000000
00001000
00000000
00000000
00010000
,  // measure 14
00100000
00000000
00000000
01000000
00000000
00000000
10010000
00000000
00000000
01000000
00000000
00000000
00100000
00000000
00000000
00001000
00000000
00010000
00000010
00000000
00000100
00000001
00000000
00001000
,  // measure 15
00000000
00000000
00000100
00000010
00000000
00000000
00001001
00000000
00000000
00000100
00000000
00000000
00000010
00000000
00000000
00001000
00000000
00000000
00000101
00000000
00001000
00000000
00000000
00010000
,  // measure 16
00000000
00000000
00100000
01000000
00000000
00000000
10010000
00000000
00000000
01000000
00000000
00000000
00100000
00000000
00000000
00010000
00000000
00000000
00001000
00000000
00000000
00010000
00000000
00000010
,  // measure 17
00000001
00000000
00000100
00001000
00000000
00000000
00000010
00000000
00000100
00010000
00000000
00001000
00000010
00000000
00000100
00000001
00000000
00000000
00000100
00000000
00001000
00000100
00000000
00010000
,  // measure 18
00200000
00000000
01000000
00000000
20300000
01000000
00000000
00020000
,  // measure 19
30000000
00000000
00000000
02030000
00000000
00000000
00020000
00000000
00000000
00000000
00000000
00000000
00030000
00000000
00000000
00000000
00000000
00000000
03001000
00000000
00000010
00000000
00000000
00000100
,  // measure 20
00000000
00000000
00000000
00000001
00000000
00000000
00000010
00000000
00000100
00000000
00000000
00001000
00000000
00000000
00000010
00010000
00000000
00000000
00001000
00000000
00000000
00200000
00000000
00000000
,  // measure 21
10000000
00000000
00000000
00000000
00000000
00000000
02300000
00000000
00000000
00010000
00000000
00000000
00000000
00000000
00000000
03001000
00000000
00000000
00000100
00000000
00000001
00000000
00000000
00000002
,  // measure 22
00000000
00000000
00000010
00000000
00002003
00000100
00000000
00010000
,  // measure 23
00000000
00000000
00000000
00003200
00000000
00000000
00002000
00000000
00000000
00000000
00000000
00000000
00000300
00000000
00000000
00000000
00000000
00000000
00013000
00000000
00100000
00000000
00000000
10000000
,  // measure 24
00000000
00000000
00000000
01000000
00000000
00000000
00100000
00000000
00001000
00000000
00000000
00010000
00000000
00000000
00000010
00000100
00000000
00000000
00000001
00000000
00000000
00000020
00000000
00000000
,  // measure 25
00000100
00000000
00000000
00000000
00000000
00000000
00002030
00000000
00000000
00010000
00000000
00000000
00000000
00000000
00000000
00103000
00000000
00000000
01000000
00000000
10000000
00000000
00000000
00020000
,  // measure 26
00000000
00000000
00100000
00000000
00032000
00010000
00000000
00000020
,  // measure 27
00003000
00000000
00000000
00000100
00000000
00000000
00000002
00000000
00000000
00000000
00000000
00000000
00000000
00000000
00000000
00000033
00000000
00000000
00000010
00000000
00000100
00000000
00000000
00001000
,  // measure 28
00000000
00000000
00000000
00000010
00000000
00000000
00010000
00000000
00001000
00000000
00000000
00100000
00000000
00000000
00010000
10000000
00000000
00000000
01000000
00000000
00000000
00020000
00000000
00000000
,  // measure 29
00001000
00000000
00000000
00000000
00000000
00000000
00030200
00000000
00000000
00000010
00000000
00000000
00000000
00000000
00000000
00000301
00000000
00000000
00000100
00000000
00001000
00000000
00000000
00020000
,  // measure 30
00000000
00000000
01000000
00000000
10000000
01000000
00030000
00020000
,  // measure 31
00000000
00000000
00000000
00001000
00000000
00000000
00000200
00000000
00000000
00000000
00000000
00000000
00000300
00000000
00000000
00000000
00000000
00000000
00031000
00000000
00000010
00000000
00000000
00000001
,  // measure 32
00000000
00000000
00000000
00001000
00000000
00000000
00010000
00000000
01000000
00000000
00000000
00100000
00000000
00000000
01000000
10000000
00000000
00000000
00010000
00000000
00000000
00200000
00000000
00000000
,  // measure 33
01000000
00000000
00000000
00000000
00000000
00000000
00320000
00000000
00000000
00001000
00000000
00000000
00000000
00000000
00000000
00030100
00000000
00000010
00000100
00000000
00001000
00000100
00000000
00000001
,  // measure 34
00002000
00000000
01000000
00003000
20000000
00000000
00100000
30000000
00002000
00000000
00000010
00003000
00000002
00000000
00000100
00000003
,  // measure 35
00020000
00000000
01000000
00030000
20000000
00000000
01000000
30000000
00002000
00000000
00000100
00003000
00000002
00000000
00001000
00000003
,  // measure 36
00000020
00000000
00000000
00000000
00000000
00000000
01000000
00000000
00000000
00000030
00000000
00000000
00020000
00000000
00000000
00000000
00000000
00000000
00000010
00000000
00000000
00030001
00000000
00000100
00002000
00000000
00000000
00000000
00000000
00000000
01000000
00000000
00000000
00003000
00000000
00000000
00200000
00000000
00000000
00000000
00000000
00000000
10000000
00000000
00000000
01300000
00000000
00010000
,  // measure 37
00002000
00000000
00000010
00003000
00000002
00000000
00000100
00000003
00010000
00000000
10000000
00000000
00010000
00000000
00001000
00000000
,  // measure 38
00000001
00000000
00000001
00000100
00000000
00000000
00000010
00000000
00000000
00001000
00000000
00000000
00010000
00000000
00010000
00001000
00000000
00000000
00100000
00000000
00000000
00010000
00000000
00000000
,  // measure 39
10000000
00000000
01000000
00100000
00000000
00000000
00001000
00000000
00000000
00010000
00000000
00000000
00000010
00000000
00000100
00001000
00000000
00000000
00000001
00000000
00000000
00000100
00000000
00000000
,  // measure 40
00001000
00000000
00010000
00000010
00000000
00000000
00000100
00000000
00000000
00001000
00000000
00000000
00010000
00000000
01000000
00100000
00000000
00000000
00001000
00000000
00000000
00010000
00000000
00000000
,  // measure 41
01000000
00000000
10000000
00010000
00000000
00000000
00100000
00000000
00000000
01000000
00000000
00000000
00001000
00000000
00010000
00000010
00000000
00000000
00000100
00000000
00000000
00000001
00000000
00000000
,  // measure 42
00000010
00000000
00000100
00001000
00000000
00000000
00000010
00000000
00000000
00000100
00000000
00000000
00001000
00000000
00010000
01000000
00000000
00000000
00100000
00000000
00000000
00010000
00000000
00000000
,  // measure 43
10000000
00000000
01000000
00100000
00000000
00000000
00001000
00000000
00000000
00010000
00000000
00000000
00000010
00000000
00000100
00000001
00000000
00000000
00000010
00000000
00000000
00000100
00000000
00000000
,  // measure 44
00001000
00000000
00000010
00000100
00000000
00000000
00001000
00000000
00000000
00010000
00000000
00000000
01000000
00000000
00100000
00010000
00000000
00000000
10000000
00000000
00000000
01000000
00000000
00000000
,  // measure 45
00100000
00000000
00001000
00010000
00000000
00000000
00000010
00000000
00000000
00000100
00000000
00000000
00000001
00000000
00000010
00000100
00000000
00001000
00000100
00000000
00000001
00000100
00000000
00010000
,  // measure 46
00000020
00000000
00001000
00000000
00020000
00000130
00000000
00001000
,  // measure 47
00000000
00000000
00000000
01030000
00000000
00000000
00020000
00000000
00000000
00000000
00000000
00000000
00000000
00000000
00000000
00000000
00000000
00000000
10030000
00000000
01000000
00000000
00000000
00100000
,  // measure 48
00000000
00000000
00000000
00001000
00000000
00000000
00010000
00000000
00000010
00000000
00000000
00000100
00000000
00000000
00000001
00000010
00000000
00000000
00000100
00000000
00000000
00002000
00000000
00000000
,  // measure 49
00000010
00000000
00000000
00000000
00000000
00000000
00023000
00000000
00000000
00001000
00000000
00000000
00000000
00000000
00000000
01030000
00000000
00000000
00100000
00000000
00010000
00000000
00000000
20000000
,  // measure 50
00000000
00000000
01000000
00000000
30020000
00001000
00000000
00000100
,  // measure 51
00000000
00000000
00000000
00030010
00000000
00000000
00020000
00000000
00000000
00000000
00000000
00000000
00000000
00000000
00000000
00000000
00000000
00000000
00030010
00000000
00001000
00000000
00000000
00000100
,  // measure 52
00000000
00000000
00000000
00000010
00000000
00000000
00010000
00000000
00001000
00000000
00000000
00100000
00000000
00000000
00010000
10000000
00000000
00000000
01000000
00000000
00000000
00200000
00000000
00000000
,  // measure 53
00001000
00000000
00000000
00000000
00000000
00000000
00320000
00000000
00000000
00000100
00000000
00000000
00000000
00000000
00000000
00030010
00000000
00000000
00000001
00000000
00000100
00000000
00000000
00002000
,  // measure 54
00000000
00000000
00010000
00000000
02003000
10000000
00000000
00100000
,  // measure 55
00000000
00000000
00000000
03001000
00000000
00000000
02000000
00000000
00000000
00000000
00000000
00000000
00000000
00000000
00000000
00000000
00000000
00000000
03010000
00000000
00000010
00000000
00000000
00000100
,  // measure 56
00000000
00000000
00000000
00000001
00000000
00000000
00000010
00000000
00000100
00000000
00000000
00001000
00000000
00000000
00000010
00010000
00000000
00000000
01000000
00000000
00000000
00200000
00000000
00000000
,  // measure 57
01000000
00000000
00000000
00000000
00000000
00000000
20300000
00000000
00000000
00010000
00000000
00000000
00000000
00000000
00000000
30100000
00000000
00000000
01000000
00000000
00001000
00000000
00000000
00020000
,  // measure 58
00000000
00000000
00000010
00000000
00030200
00000001
00000000
00000010
,  // measure 59
00000000
00000000
00000000
00010300
00000000
00000000
00000200
00000000
00000000
00000000
00000000
00000000
00000000
00000000
00000000
00000000
00000000
00000000
00001300
00000000
01000000
00000000
00000000
00100000
,  // measure 60
00000000
00000000
00000000
10000000
00000000
00000000
01000000
00000000
00010000
00000000
00000000
00001000
00000000
00000000
00000100
00000010
00000000
00000000
00000001
00000000
00000000
00002000
00000000
00000000
,  // measure 61
00000010
00000000
00000100
00000002
00000000
00000000
00003003
00000000
;

//---------------dance-single - ----------------
#NOTES:
     dance-single:
     :
     Beginner:
     1:
     0.034,0.062,0.000,0.000,0.000:
0000
0000
0000
0000
,
0000
0000
0000
0000
,
0000
0000
0000
0000
,
0000
0000
0000
0000
,
0000
0000
0000
0000
,
0000
1000
0000
0000
,
0000
0001
0000
0000
,
0000
1000
0000
0000
,
0000
0001
0000
0000
,
0010
0000
0000
0000
,
0010
0000
0000
0000
,
0010
0000
0000
0000
,
0010
0000
0000
0000
,
0100
0000
0000
0000
,
0100
0000
0000
0000
,
1000
0000
0000
0000
,
0001
0000
0000
0000
,
0010
0000
0000
0000
,
0000
0000
0000
0000
,
0100
0000
0000
0000
,
0000
0000
0000
0000
,
0010
0000
0000
0000
,
0000
0000
0000
0000
,
0100
0000
0000
0000
,
0000
0000
0000
0000
,
0001
0000
0000
0000
,
0000
0000
0000
0000
,
1000
0000
0000
0000
,
0000
0000
0000
0000
,
0001
0000
0000
0000
,
0000
0000
0000
0000
,
1000
0000
0000
0000
,
0000
0000
0000
0000
,
0010
0000
0000
0000
,
0010
0000
0000
0000
,
0010
0000
0000
0000
,
0010
0000
0000
0000
,
1000
0000
0000
0000
,
0000
0000
0000
0000
,
0001
0000
0000
0000
,
0000
0000
0000
0000
,
1000
0000
0000
0000
,
0000
0000
0000
0000
,
0001
0000
0000
0000
,
0000
0000
0000
0000
,
0010
0000
0000
0000
,
0000
0000
0000
0000
,
0000
0000
0000
0000
,
0000
0000
0000
0000
,
0100
0000
0000
0000
,
0000
0000
0000
0000
,
0000
0000
0000
0000
,
0000
0000
0000
0000
,
0010
0000
0000
0000
,
0000
0000
0000
0000
,
0100
0000
0000
0000
,
0000
0000
0000
0000
,
0010
0000
0000
0000
,
0000
0000
0000
0000
,
0100
0000
0000
0000
;
