#TITLE:追憶の森;
#SUBTITLE:;
#ARTIST:AKITO;
#TITLETRANSLIT:voices of the erath;
#SUBTITLETRANSLIT:;
#ARTISTTRANSLIT:;
#CREDIT:;
#BANNER:voices of the erath.png;
#BACKGROUND:voices of the erath-bg.png;
#LYRICSPATH:;
#CDTITLE:cdtitle.png;
#MUSIC:voices of the erath.mp3;
#OFFSET:-2.200;
#SAMPLESTART:20.000;
#SAMPLELENGTH:12.000;
#SELECTABLE:YES;
#BPMS:0.000=109.000;
#STOPS:;
#BGCHANGES:-4.000=voices of the erath.avi=1.000=1=1=0,
252.000=voices of the erath.avi=1.000=1=0=1,
99999=-nosongbg-=1.000=0=0=0 // don't automatically add -songbackground-
;

//---------------dance-single - Easy----------------
#NOTES:
     dance-single:
     Easy:
     Easy:
     2:
     0.158,0.241,0.170,0.113,0.007:
0000
0000
0000
0000
,
0000
0000
0000
0000
,
1000
0000
0001
0000
,
1000
0000
0001
0000
,
0100
0000
0010
0000
,
1000
0000
0001
0000
,
0100
0000
0010
0000
,
1000
0000
0010
0000
,
0001
0000
0100
0000
,
0010
0000
1000
0000
,
0100
0000
0001
0000
,
0010
0000
1000
0000
,
0001
0000
1000
0000
,
2002
0000
0000
3003
,
1000
0000
0001
0000
,
1000
0000
0001
1001
,
2002
0000
0000
0000
0000
0000
0000
0000
3003
0000
0000
0000
0000
1001
0000
0000
,
0000
0000
0000
2002
0000
0000
0000
0000
0000
0000
0000
0000
3003
0000
0000
0000
,
1000
0000
0001
0000
,
2000
0000
0000
3000
,
0001
0000
0010
0000
,
0100
0000
1000
0000
,
1001
0000
0000
0000
0000
0000
0000
1000
,
0001
0000
0001
0000
,
1000
0000
0001
0000
,
2002
0000
0000
3003
,
1001
0000
0100
0000
,
0001
0000
0100
0000
,
0010
0000
1000
0000
,
0001
0000
2002
3003
,
1000
0000
0010
0000
,
0100
0000
0001
0000
,
0100
0000
0010
0000
,
1000
0000
0001
0000
,
0100
0000
0010
0000
,
1000
0000
0001
0000
,
0100
0000
0001
0000
,
0010
0000
0100
0000
,
2002
3003
0010
0000
,
0001
0000
1000
0000
,
0001
0000
1000
0000
,
0200
0000
0000
0300
,
1001
0000
1001
0000
,
1001
0000
1001
0000
,
1001
0000
1001
0000
,
1001
0000
1001
0000
,
1000
0000
0010
0000
,
0100
0000
0001
0000
,
1000
0000
0010
0000
,
0100
0000
0001
0000
,
1000
0000
0010
0000
,
0100
0000
0001
0000
,
0010
0000
0100
0000
,
1000
0000
0001
0000
,
1001
0000
1000
0000
,
1001
0000
1001
0000
,
0001
0000
1000
0000
,
1001
0000
1001
0000
,
0001
0000
0100
0000
,
0010
0000
1000
0000
,
0100
0000
0001
0000
,
0010
0000
2002
0000
,
3003
0000
0000
0000
;

//---------------dance-single - TRICK----------------
#NOTES:
     dance-single:
     TRICK:
     Medium:
     6:
     0.372,0.395,0.283,0.248,0.039:
0000
0000
0000
0000
,
0000
0000
0000
0000
,
1001
0000
1000
0100
0001
0000
0001
0100
,
1000
0000
1000
0100
0001
1000
0000
0000
,
0100
0000
1000
0100
0010
0000
0001
0100
,
1000
0000
1000
0010
0001
0000
0000
1000
,
0100
0010
0001
0000
0010
0100
0000
0100
,
1000
0000
0000
0100
0010
0000
0000
0100
,
0001
0010
0000
0000
0100
0001
0010
0000
,
0010
0000
1000
0000
0000
0000
0000
0001
1000
0000
0000
0000
0000
0000
1000
0000
,
0100
0010
0001
0000
0001
1000
0000
0100
,
0010
0000
0000
0100
1000
0000
0000
0100
,
0001
0000
1000
0100
0001
0000
0001
0010
,
2002
0000
0000
3003
,
1000
0100
0001
0010
1000
0000
0000
0001
,
0001
0000
0000
1000
1000
0000
0001
0100
,
2002
0000
0000
0000
0000
0000
0000
0000
3003
0000
0000
0000
0000
1001
0000
0100
,
0000
0010
0000
2002
0000
0000
0000
0000
0000
0000
0000
0000
3003
0000
0000
0000
,
1000
1000
1000
0000
0001
0001
0001
0000
,
1000
2000
0000
0000
0000
0000
3000
0000
,
0001
0001
0001
0000
1000
1000
0100
0100
,
0001
0000
0000
0000
0000
0000
0000
0001
1000
0000
0000
0000
0000
0000
0000
0000
,
1000
0001
0000
0000
0000
0000
0000
0000
0000
0000
0000
0000
0000
1000
0000
0001
,
0000
0000
0000
0000
0000
0000
0000
0000
0000
0000
0000
0000
0000
0000
0000
0000
0001
0000
0000
0000
0000
0010
0000
0000
0000
0000
1000
0000
0000
0000
0000
0000
,
0001
0100
1000
0100
0001
1000
0010
0100
,
2002
0000
0000
3003
,
2002
3003
2020
3030
,
2200
3300
0202
0303
,
0022
0033
2002
3003
,
0220
0330
2002
3003
,
1000
0100
0010
0000
0010
0001
0100
0000
,
0100
1000
0010
0000
0001
0010
1000
0000
,
0100
0010
0001
0000
0010
1000
0001
0000
,
1000
0100
1000
0000
0001
0010
0001
0000
,
0100
1000
0010
0000
0010
0001
0100
0000
,
1000
0010
0001
0000
0001
0100
1000
0000
,
0100
0010
0100
0000
0001
0100
1000
0000
,
0010
0001
0100
0000
0100
1000
0010
0001
,
2002
3003
0020
0030
,
0002
0003
2000
3000
,
0002
0003
2000
3000
,
0210
0000
0000
0300
,
1001
1000
0001
0000
1001
0001
1000
0000
,
1010
0010
0100
0000
0011
0010
0100
0000
,
1100
1000
0001
0000
0101
0001
1000
0000
,
1001
0100
0010
0000
1001
0010
0100
0000
,
1000
0100
0010
0000
0010
0001
0100
0000
,
0100
1000
0010
0000
0001
0100
1000
0000
,
1000
0010
0001
0000
0010
0001
0100
0000
,
0100
1000
0010
0000
0001
0100
1000
0000
,
1000
0010
0001
0000
0010
0001
1000
0000
,
0100
1000
0010
0000
0001
0100
0010
0000
,
0010
0001
1000
0000
0100
1000
0001
0000
,
1000
0010
0001
0000
0001
0100
1000
0000
,
1001
0100
0010
0000
1001
0100
0010
0000
,
1001
1000
0001
0000
1001
0001
1000
0000
,
0011
0001
1000
0000
1010
1000
0001
0000
,
0101
0001
1000
0000
1100
1000
0001
0000
,
1001
0010
0100
0000
0110
1000
0001
0000
,
0110
0001
1000
0000
1010
0100
0001
0000
,
0011
0100
0010
0000
1001
0100
0010
1000
,
0110
0100
0001
0010
2002
0000
0000
0000
,
3003
0000
0000
0000
;

//---------------dance-single - HEAVY----------------
#NOTES:
     dance-single:
     HEAVY:
     Hard:
     9:
     0.534,0.614,0.552,0.198,0.792: // measure 1
0000
0000
0000
0000
,  // measure 2
0000
0000
0000
0000
,  // measure 3
1001
0000
0000
1000
0100
0010
0001
0000
0000
0001
0100
0000
,  // measure 4
1000
0000
0000
0000
0000
0000
1000
0000
0100
0000
0000
0000
0001
0000
0000
1000
0000
0000
0000
0000
0000
0000
0000
0000
,  // measure 5
0100
0000
0000
1000
0100
0010
0001
0000
0000
0001
0010
0100
,  // measure 6
1000
0000
0000
1000
0100
0010
0001
0000
0000
0000
1000
0010
,  // measure 7
0100
0000
0010
0000
1000
0000
0001
0000
1000
0000
0000
0000
0010
0000
0000
0100
0000
0000
0000
0000
0000
0100
0000
1000
,  // measure 8
0000
0000
0000
0001
0000
0000
0000
0000
0000
0000
0100
0000
0010
0000
0000
0000
0000
0000
0000
0000
0100
0000
1000
0000
,  // measure 9
0001
0100
0010
1000
0100
0000
0100
0010
1000
0010
0100
0000
,  // measure 10
0010
0000
0000
1000
0000
0000
0000
0000
0000
0000
0001
0000
1000
0000
0000
0000
0000
0000
0000
0000
1000
0000
0010
0000
,  // measure 11
0100
0000
0010
0000
1000
0000
0001
0000
1000
0000
0000
0000
0001
0000
0000
1000
0000
0000
0000
0000
0000
0000
0100
0000
,  // measure 12
0010
0000
0001
0000
0000
0100
1000
0000
0000
0000
0100
0010
,  // measure 13
0001
0000
0000
1000
0100
0010
0001
0000
0000
0001
0010
0100
,  // measure 14
2002
0000
0000
3003
,  // measure 15
1000
0100
0010
0001
0100
1000
0001
0000
0000
0000
0001
0001
,  // measure 16
0001
0000
0000
0000
1000
1000
1000
0000
0000
0001
0010
0100
,  // measure 17
2002
0000
0000
0000
0000
0000
0000
0000
0000
0000
0000
0000
0000
0000
0000
3003
0000
0000
0000
0000
1001
0000
0100
0000
,  // measure 18
0010
0000
0100
0000
2002
0000
0000
0000
0000
0000
0000
0000
0000
0000
0000
3003
0000
0000
0000
0000
0010
0000
1000
0000
,  // measure 19
0001
1000
0010
0001
1000
0000
0100
0010
0001
1000
0100
0010
,  // measure 20
0100
0000
1000
0000
0002
0000
0000
0000
0000
0000
0000
0000
0000
0000
0000
0003
0000
0000
0000
0000
0100
0000
1000
0000
,  // measure 21
0010
0100
0001
1000
0010
0000
1000
0010
1000
0010
1000
0100
,  // measure 22
0002
0000
0000
0000
0000
0000
0000
0003
0000
0000
0001
0000
2000
0000
0000
0000
0000
0000
0000
0000
0000
3000
0000
0000
,  // measure 23
1000
0000
0000
0000
0001
0000
0000
0000
0000
0000
0000
0000
1000
0000
0000
0000
0010
0000
0000
0000
0001
0000
0000
0000
1000
0000
0000
0100
0000
0000
0000
0000
0000
0000
0000
0000
0000
0000
0000
0000
1000
0000
0000
0000
0100
0000
0000
0000
,  // measure 24
0001
0000
0000
0000
0000
0000
0000
0000
0000
0000
0000
0000
0000
0000
0000
0000
0001
0000
0000
0000
0000
0010
0000
0000
0000
0000
1000
0000
0000
0000
0000
0000
,  // measure 25
0001
0000
1000
0010
0100
0001
0100
0010
1000
0100
0010
0001
,  // measure 26
2002
0000
0000
3003
,  // measure 27
1001
0000
0100
0010
0001
0000
1001
0000
0010
0100
1000
0000
,  // measure 28
2002
0000
0000
0000
0000
0000
0000
0000
0000
0000
0000
3003
0000
0000
1000
0000
0010
0000
0100
0000
0001
0000
0000
0000
,  // measure 29
1001
0000
0100
0010
0001
1000
1001
0001
0010
0100
1000
0100
,  // measure 30
1001
0000
0100
0000
1000
0000
0010
0000
0001
0000
1000
0000
2002
0000
0000
0000
0000
0000
0000
0000
0000
3003
0000
0000
,  // measure 31
1001
0000
0100
1000
1001
0000
1001
0000
0100
0001
1001
0000
,  // measure 32
1001
0000
0010
1000
1001
0000
1001
0000
0001
1000
1001
0000
,  // measure 33
1001
0000
0010
0001
1001
0000
1001
0000
0010
1000
1001
0000
,  // measure 34
1001
0000
1000
0010
1001
0000
1001
0000
0010
0001
1001
0000
,  // measure 35
0110
0000
1000
0010
0110
0000
0110
0000
0001
0010
0110
0000
,  // measure 36
0011
0000
0001
0100
1100
0000
1010
0000
0001
0100
0101
0000
,  // measure 37
1001
0000
1000
1000
1001
0000
1001
0000
0001
0001
1001
0000
,  // measure 38
0110
0000
0010
0010
0110
1001
0110
0000
1000
0100
0010
0001
,  // measure 39
2002
3003
0020
0030
,  // measure 40
0001
0010
0100
1000
0001
0100
2000
0000
0000
3000
0000
0000
,  // measure 41
0002
0003
2000
3000
,  // measure 42
0210
0000
0000
0000
0000
0000
0000
0000
0000
0300
0100
0010
,  // measure 43
1001
0000
0001
1000
1001
0000
1001
0000
1000
0001
1001
0000
,  // measure 44
1010
0000
0000
0000
0000
0000
0000
0000
0000
0000
0000
0000
0000
0000
0000
0000
0000
0000
0000
0000
0000
0000
0000
0000
0000
0000
0000
0000
0000
0000
0000
0000
0010
0000
0000
0000
0000
0000
0000
0000
0000
0000
0000
0000
0000
0000
0000
0000
0100
0000
0000
0000
0000
0000
0000
0000
0000
0000
0000
0000
0000
0000
0000
0000
0101
0000
0000
0000
0000
0000
0000
0000
0000
0000
0000
0000
0000
0000
0000
0000
0000
0000
0000
0000
0000
0000
0000
0000
0000
0000
0000
0000
0000
0000
0000
0000
0001
0000
0000
0000
0000
0000
0000
0000
0000
0000
0000
0000
0000
0000
0000
0000
0000
0000
0000
0000
0000
0000
0000
0000
0000
0000
0000
0000
0000
0000
0010
0000
0000
0000
0000
0000
0000
0000
0000
0000
0000
0000
0000
0000
0000
0000
0000
0000
0000
0000
0000
0000
0000
0000
0000
0000
0000
0000
0000
0000
0100
0000
0000
0000
0000
0000
0000
0000
0000
0000
0000
0000
0000
0000
0000
0000
0000
0000
0000
0000
0000
0000
0000
0000
0000
0000
0000
0000
0000
0000
0000
0000
0000
0000
0000
0000
,  // measure 45
1100
0000
1000
0001
0101
0000
0101
0000
0001
1000
1001
0000
,  // measure 46
2002
0000
0000
3003
2002
0000
3003
0000
,  // measure 47
0001
0000
1000
0010
1001
0000
0100
0000
0010
1000
1001
0000
,  // measure 48
0010
0000
0001
0001
0011
0000
0100
0000
1000
1000
1100
0000
,  // measure 49
0010
0000
1000
1000
1010
0000
0100
0000
0001
0001
0101
0000
,  // measure 50
0100
0000
1000
0001
0110
0000
0010
0000
0001
1000
0110
0000
,  // measure 51
0001
0000
1000
1000
0110
0000
1000
0000
0001
0001
1100
0000
,  // measure 52
0001
0000
1000
0010
0001
0000
1000
0000
0100
0001
0010
0000
,  // measure 53
1000
0000
0001
0100
1000
0000
0010
0000
0001
0010
1000
0000
,  // measure 54
0100
0000
0001
0010
1000
0000
0001
0000
0010
1000
0001
0000
,  // measure 55
1000
0000
0100
0001
1000
0000
0001
0000
0010
1000
0100
0000
,  // measure 56
0001
0000
0010
1000
0100
0000
0001
0000
0100
1000
0100
0000
,  // measure 57
0001
0000
0100
1000
0010
0000
0001
0000
0100
1000
0010
0000
,  // measure 58
0001
0000
0100
1000
0001
0000
0010
0000
1000
0100
0001
0000
,  // measure 59
1001
0000
0100
0001
0100
0000
1001
0000
0100
1000
0100
0000
,  // measure 60
1001
0000
0001
0010
1000
0000
1001
0000
1000
0100
0001
0000
,  // measure 61
1001
0000
0010
1000
0100
0000
0110
0000
0010
0001
0100
0000
,  // measure 62
0110
1000
0100
1001
0010
1000
2002
0000
0000
0000
0000
0000
,  // measure 63
3003
0000
0000
0000
;

//---------------dance-single - ONI----------------
#NOTES:
     dance-single:
     ONI:
     Challenge:
     10:
     0.667,0.746,0.806,0.778,0.884:
0000
0000
0000
0000
,
0000
0000
0000
0000
,
2002
0000
0000
3003
0000
0000
1000
0000
0100
0000
0010
0000
2002
0000
0000
3003
0000
0000
0001
0000
0100
0000
0000
0000
,
2002
0000
0000
3003
0000
0000
1000
0000
0100
0000
0000
0000
0001
0000
0000
2000
0000
0000
0000
0000
0000
3000
0000
0000
,
0200
0000
0000
0300
0000
0000
1000
0000
0100
0000
0010
0000
2002
0000
0000
3003
0000
0000
0001
0000
0010
0000
0100
0000
,
2002
0000
0000
3003
0000
0000
1000
0000
0100
0000
0010
0000
2002
0000
0000
0000
0000
3003
0000
0000
1000
0000
0010
0000
,
0100
0000
0010
0000
1000
0000
0001
0000
2000
0000
0000
0000
3010
0000
0000
0200
0000
0000
0300
0000
0000
0100
0000
2000
,
0000
3000
0000
0002
0000
0000
0000
0003
0000
0000
0100
0000
0020
0000
0000
0000
0000
0030
0000
0000
0100
0000
1000
0000
,
0001
0100
0010
1000
0102
0000
0103
0010
1000
0010
2100
0000
,
3010
0000
0000
2000
0000
0000
0000
3000
0000
0000
0001
0000
2000
0000
0000
0000
0000
3000
0000
0000
1000
0000
0010
0000
,
0100
0000
0010
0000
1000
0000
0001
0000
2000
0000
0000
0000
3001
0000
0000
2000
0000
0000
0000
0000
3000
0000
0100
0000
,
0020
0030
0002
0000
0003
0100
2000
0000
0000
3000
0100
0010
,
2002
0000
0000
3003
0000
0000
1000
0000
0100
0000
0010
0000
2002
0000
0000
3003
0000
0000
0001
0000
0010
0000
0100
0000
,
2002
0000
0000
0000
0000
0000
0000
3003
,
1000
0100
0010
0001
0100
1000
0002
0000
0000
0003
0110
1100
,
0202
0000
0000
0303
0110
0101
2200
0000
3300
1001
0010
0100
,
2002
0000
0000
0000
0000
0000
0000
0000
0000
0000
0000
0000
0000
0000
0000
0000
0000
3003
0000
0000
1001
0000
0100
0000
,
0010
0100
2002
0000
0000
0000
0000
0000
0000
3003
0010
1000
,
0001
1000
0010
0001
2000
3000
0100
0010
0001
1000
0100
0010
,
0100
1000
0002
0000
0000
0000
0000
0000
0000
0003
0100
1000
,
0010
0000
0100
0000
0001
0000
1000
0000
0020
0000
0000
0030
1000
0000
0010
0000
1000
0000
0010
0000
1000
0000
0100
0000
,
0002
0000
0000
0000
0000
0000
0000
0003
0000
0000
0001
0000
2000
0000
0000
0000
0000
0000
0000
0000
0000
3000
0000
0000
,
1000
0000
0000
0000
0000
0000
0000
0000
0000
0000
0000
0000
0000
0000
0000
0000
0001
0000
0000
0000
0000
0000
0000
0000
0000
0000
0000
0000
0000
0000
0000
0000
0000
0000
0000
0000
0000
0000
0000
0000
0000
0000
0000
0000
0000
0000
0000
0000
1000
0000
0000
0000
0000
0000
0000
0000
0100
0000
0000
0000
0000
0000
0000
0000
0010
0000
0000
0000
0000
0000
0000
0000
0001
0000
0000
0000
0000
0000
0000
0000
0010
0000
0000
0000
0000
0000
0000
0000
0100
0000
0000
0000
0000
0000
0000
0000
1000
0000
0000
0000
0000
0000
0100
0000
0000
0000
0000
0000
0000
0000
0000
0000
0000
0000
0000
0000
0000
0000
0000
0000
0000
0000
0000
0000
0000
0000
0000
0000
0000
0000
0000
0000
0000
0000
0000
0000
0000
0000
0000
0000
0000
0000
0000
0000
0000
0000
0000
0000
0000
0000
0000
0000
0000
0000
0000
0000
0000
0000
0000
0000
1010
0000
0000
0000
0000
0000
0000
0000
0000
0000
0000
0000
0000
0000
0000
0000
1000
0000
0000
0000
0000
0000
0000
0000
0000
0000
0000
0000
0000
0000
0000
0000
,
1001
0000
0000
0000
0000
0000
0000
0000
0000
0000
0000
0000
0000
0000
0000
0000
0000
0000
0000
0000
0000
0000
0000
0000
0000
0000
0000
0000
0000
0000
0000
0000
0000
0000
0000
0000
0000
0000
0000
0000
0000
0000
0000
0000
0000
0000
0000
0000
0000
0000
0000
0000
0000
0000
0000
0000
0000
0000
0000
0000
0000
0000
0000
0000
1000
0000
0000
0000
0000
0000
0000
0000
0000
0000
0000
0000
0000
0000
0000
0000
0010
0000
0000
0000
0000
0000
0000
0000
0000
0000
0000
0000
0000
0000
0000
0000
0001
0000
0000
0000
0000
0000
0000
0000
0000
0000
0000
0000
0000
0000
0000
0000
0000
0000
0000
0000
0000
0000
0000
0000
0000
0000
0000
0000
0000
0000
0010
0000
0000
0000
0000
0000
0000
0000
0000
0000
0000
0000
0000
0000
0000
0000
0000
0000
0000
0000
0000
0000
0000
0000
0000
0000
0000
0000
0000
0000
1000
0000
0000
0000
0000
0000
0000
0000
0000
0000
0000
0000
0000
0000
0000
0000
0000
0000
0000
0000
0000
0000
0000
0000
0000
0000
0000
0000
0000
0000
0000
0000
0000
0000
0000
0000
,
0001
0000
1000
0010
0100
0001
0100
0010
1000
0100
0010
0001
,
2002
0000
0000
0000
0000
0000
0000
3003
,
1001
1000
0100
0001
0010
1000
1001
0001
0100
1000
0010
0001
,
1001
1000
0100
0001
0010
1000
1001
1000
0010
0001
0100
1000
,
1001
1000
0100
0001
0010
1000
1001
0001
0100
1000
0010
0001
,
1001
0100
1000
0010
0001
1000
2002
0000
0000
3003
1000
0010
,
0100
0000
0010
0000
1000
0000
0001
0000
2000
0000
0000
0000
3010
0000
0000
0200
0000
0000
0300
0000
0000
0100
0000
2000
,
0000
3000
0000
0002
0000
0000
0000
0003
0000
0000
0100
0000
0020
0000
0000
0000
0000
0030
0000
0000
0100
0000
1000
0000
,
0001
0100
0010
1000
0102
0000
0103
0010
1000
0010
2100
0000
,
3010
0000
0000
2000
0000
0000
0000
3000
0000
0000
0001
0000
2000
0000
0000
0000
0000
3000
0000
0000
1000
0000
0010
0000
,
0100
0000
0010
0000
1000
0000
0001
0000
2000
0000
0000
0000
3001
0000
0000
2000
0000
0000
0000
0000
3000
0000
0100
0000
,
0020
0030
0002
0000
0003
0100
2000
0000
0000
3000
0100
0010
,
2002
0000
0000
3003
0000
0000
1000
0000
0100
0000
0010
0000
2002
0000
0000
3003
0000
0000
0001
0000
0010
0000
0100
0000
,
2002
0000
0000
0000
0000
0000
0000
3003
0000
0000
0001
0000
2000
0000
3000
0000
1000
0000
0100
0000
0010
0000
0001
0000
,
0200
0000
0000
0000
0000
0000
0000
0000
0000
0000
0000
0000
0000
0000
0000
0000
0000
0000
0000
0000
0000
0000
0000
0000
0000
0000
0000
0000
0000
0000
0000
0000
0000
0000
0000
0000
0000
0000
0000
0000
0000
0000
0000
0000
0000
0000
0000
0000
0000
0000
0000
0000
0000
0000
0000
0000
0000
0000
0000
0000
0000
0000
0000
0000
0000
0000
0000
0000
0000
0000
0000
0000
0000
0000
0000
0000
0000
0000
0000
0000
0300
0000
0000
0000
0000
0000
0000
0000
0000
0000
0000
0000
0000
0000
0000
0000
0002
0000
0000
0000
0000
0000
0000
0000
0000
0000
0000
0000
0000
0000
0000
0000
0000
0000
0000
0000
0000
0000
0000
0000
0000
0000
0000
0000
0000
0000
0000
0000
0000
0000
0000
0000
0003
0000
0000
0000
0000
0000
0000
0000
0000
0000
0000
0000
0001
0000
0000
0000
0000
0000
0100
0000
0000
0000
0000
0000
0001
0000
0000
0000
0000
0000
0000
0000
0000
0000
0000
0000
0000
0000
0000
0000
0000
0000
0000
0000
0000
0000
0000
0000
0000
0000
0000
0000
0000
0000
0000
0000
0000
0000
0000
0000
,
1000
0000
0000
0000
0000
0000
0000
0000
0000
0000
0000
0000
0000
0000
0000
0000
0100
0000
0000
0000
0000
0000
0000
0000
0000
0000
0000
0000
0000
0000
0000
0000
0000
0000
0000
0000
0010
0000
0000
0000
0000
0000
0100
0000
0000
0000
0000
0000
0010
0000
0000
0000
0000
0000
0000
0000
0000
0000
0000
0000
0000
0000
0000
0000
0100
0000
0000
0000
0000
0000
0000
0000
0000
0000
0000
0000
0000
0000
0000
0000
0001
0000
0000
0000
0000
0000
0000
0000
0000
0000
0000
0000
0000
0000
0000
0000
2000
0000
0000
0000
0000
0000
0000
0000
0000
0000
0000
0000
0000
0000
0000
0000
0000
0000
0000
0000
0000
0000
0000
0000
0000
0000
0000
0000
0000
0000
0000
0000
0000
0000
0000
0000
0000
0000
0000
0000
0000
0000
0000
0000
0000
0000
0000
0000
0000
0000
0000
0000
0000
0000
0000
0000
0000
0000
0000
0000
0000
0000
0000
0000
0000
0000
0000
0000
0000
0000
0000
0000
0000
0000
0000
0000
0000
0000
0000
0000
0000
0000
0000
0000
3000
0000
0000
0000
0000
0000
0000
0000
0000
0000
0000
0000
,
0002
0000
0000
0000
0000
0000
0000
0000
0000
0000
0000
0000
0000
0000
0003
0000
2000
0000
0000
0000
0000
0000
3000
0000
1000
0100
1000
0000
0000
0000
0000
0000
,
0210
0000
0000
0000
0000
0000
0000
0000
0000
0300
0100
0010
,
1001
0000
1001
1000
1001
0000
1001
0000
1001
0001
1001
0000
,
1010
0000
0000
0000
0000
0000
0000
0000
0000
0000
0000
0000
0000
0000
0000
0000
0000
0000
0000
0000
0000
0000
0000
0000
0000
0000
0000
0000
0000
0000
0000
0000
1010
0000
0000
0000
0000
0000
0000
0000
0000
0000
0000
0000
0000
0000
0000
0000
0100
0000
0000
0000
0000
0000
0000
0000
0000
0000
0000
0000
0000
0000
0000
0000
0101
0000
0000
0000
0000
0000
0000
0000
0000
0000
0000
0000
0000
0000
0000
0000
0000
0000
0000
0000
0000
0000
0000
0000
0000
0000
0000
0000
0000
0000
0000
0000
0110
0000
0000
0000
0000
0000
0000
0000
0000
0000
0000
0000
0000
0000
0000
0000
0000
0000
0000
0000
0000
0000
0000
0000
0000
0000
0000
0000
0000
0000
1001
0000
0000
0000
0000
0000
0000
0000
0000
0000
0000
0000
0000
0000
0000
0000
0000
0000
0000
0000
0000
0000
0000
0000
0000
0000
0000
0000
0000
0000
0110
0000
0000
0000
0000
0000
0000
0000
0000
0000
0000
0000
0000
0000
0000
0000
0000
0000
0000
0000
0000
0000
0000
0000
0000
0000
0000
0000
0000
0000
0000
0000
0000
0000
0000
0000
,
1100
0000
1010
0001
0101
0000
0101
0000
0011
1000
1001
0000
,
2002
0000
0000
0000
0000
0000
0000
0000
0000
3003
0000
0000
2002
0000
0000
0000
0000
3003
0000
0000
1000
0000
0010
0000
,
0100
0000
0010
0000
1000
0000
0001
0000
2000
0000
0000
0000
3010
0000
0000
0200
0000
0000
0300
0000
0000
0000
2000
0000
,
3100
0000
0002
0000
0100
0000
0003
0000
0010
0000
0100
0000
0020
0000
0000
0000
0100
0030
0000
0000
0100
0000
1000
0000
,
0001
0100
0010
1000
0102
0000
0103
0010
1000
0010
2100
3000
,
0110
0000
2001
3000
0110
0000
2001
0000
3100
0010
1000
0010
,
0100
0000
0010
0000
1000
0000
0001
0000
2000
0000
0000
0000
3001
0000
0000
2000
0000
0000
0000
0000
3000
0000
0010
0000
,
0110
0001
1002
0000
0003
1000
0110
0010
1001
0000
0100
0010
,
2002
0000
0000
3003
0000
0000
1000
0000
0100
0000
0010
0000
2002
0000
0000
3003
0000
0000
0001
0000
0010
0000
0100
0000
,
2002
0000
0000
0000
0000
0000
0000
0000
0000
0000
0000
0000
0000
0000
0000
0000
0000
0000
0000
0000
0000
0000
0000
0000
0000
0000
0000
0000
0000
0000
0000
0000
0000
0000
0000
0000
0000
0000
0000
0000
0000
0000
0000
0000
0000
0000
0000
0000
0000
0000
0000
0000
0000
0000
0000
0000
0000
0000
0000
0000
3003
0000
0000
0000
0000
0000
0000
0000
0000
0000
0000
0000
0000
0000
0000
0000
0000
0000
0000
0000
0000
0000
0000
0000
1000
0000
0000
0000
0000
0000
0001
0000
0000
0000
0000
0000
2000
0000
0000
0000
0000
0000
0000
0000
0000
0000
0000
0000
0000
0000
0000
0000
0000
0000
0000
0000
0000
0000
0000
0000
0000
0000
0000
0000
0000
0000
0000
0000
0000
0000
0000
0000
0000
0000
0000
0000
0000
0000
0000
0000
0000
0000
0000
0000
0000
0000
0000
0000
0000
0000
0000
0000
0000
0000
0000
0000
3000
0000
0000
0000
0000
0000
0000
0000
0000
0000
0000
0000
0000
0000
0000
0000
0000
0000
0000
0000
0001
0000
0000
0000
0000
0000
0000
0000
0000
0000
0000
0000
0000
0000
0000
0000
,
2002
0000
0000
0000
0000
3003
0000
0000
0001
0000
1000
0000
2002
0000
0000
0000
0000
0000
0000
0000
0000
3003
0000
0000
,
0110
0000
0000
0000
2002
0000
0000
0000
0000
3003
0000
0000
1001
0000
0000
0000
0110
0000
1000
0000
0100
0000
0000
0000
,
1001
0000
1000
0010
0001
0000
1001
0000
0001
0100
1000
0000
,
1001
0000
0110
0000
1001
0000
0110
0000
1001
0000
0110
0000
,
1001
0000
1100
1001
1100
0000
1001
0000
0101
1001
0101
0000
,
1100
0000
0011
1010
0011
0000
0101
0000
1100
0101
1100
0000
,
1001
0000
0110
1001
0110
0000
0110
0000
0110
1001
0110
0000
,
0110
1000
0100
1001
0110
1001
2002
0000
0000
0000
0000
0000
,
3003
0000
0000
0000
;
