#TITLE:underwater sunset;
#SUBTITLE:;
#ARTIST:xarva;
#TITLETRANSLIT:;
#SUBTITLETRANSLIT:;
#ARTISTTRANSLIT:;
#CREDIT:;
#BANNER:underwater sunset.png;
#BACKGROUND:underwater sunset-bg.png;
#LYRICSPATH:;
#CDTITLE:Sunset Cafe Del Mar.png;
#MUSIC:underwater sunset.mp3;
#OFFSET:-16.750;
#SAMPLESTART:104.300;
#SAMPLELENGTH:13.000;
#SELECTABLE:YES;
#BPMS:0.000=129.000;
#STOPS:;
#BGCHANGES:-36.070=underwater sunset.avi=1.000=1=1=0,
308.000=underwater sunset-bg.png=1.000=1=0=1,
99999=-nosongbg-=1.000=0=0=0 // don't automatically add -songbackground-
;

//---------------dance-single - HEAVY----------------
#NOTES:
     dance-single:
     HEAVY:
     Hard:
     7:
     0.373,0.491,0.419,0.108,0.075:
0000
0000
0000
0000
,
0000
0000
0000
0000
,
0000
0000
0000
0000
,
0000
0000
0000
0000
,
0000
0000
0000
0000
,
2002
0000
0000
0000
,
0000
0000
0000
3003
,
1000
0010
0100
0001
,
0100
0010
1000
0100
,
0100
0010
0100
1000
,
1001
1000
0001
0100
,
0010
0000
0100
0010
1000
0000
0000
0000
0010
0000
1000
0000
0100
0000
0100
0000
,
0001
0000
0100
0010
1000
0000
0000
0000
1000
0000
0100
0000
0010
0000
0001
0000
,
1000
0000
0010
0100
0001
0000
0000
0000
0100
0000
0010
0000
1000
0000
0100
0000
,
0010
0000
0001
0100
1000
0000
0000
0000
0100
0000
0001
0000
0010
0000
0100
0000
,
1000
0000
0010
0100
0001
0000
0000
0000
0001
0000
0100
0000
0010
0000
0100
0000
,
0101
0000
0001
0010
0100
0000
0000
0000
1000
0000
0100
0000
0001
0000
0100
0000
,
1100
0000
1000
0010
0100
0000
0000
0000
0001
0000
0010
0000
0100
0000
0010
0000
,
0101
0000
0001
1000
0100
0000
0000
0000
1000
0000
0010
0000
0100
0000
0010
0000
,
1100
0000
1000
0010
0100
0000
0000
0000
0110
0000
0010
0000
1000
0000
0100
0000
,
0011
0000
0001
1000
0100
0000
0000
0000
1100
0000
1000
0000
0010
0000
0100
0000
,
0101
0000
0001
1000
0100
0000
0000
0000
1100
0000
0100
0000
0010
0000
0001
0000
,
1001
0000
1000
0010
0100
0000
0000
0000
0101
0000
0100
0000
1000
0000
0100
0000
,
0101
0000
0000
0000
,
0000
0020
0000
0000
,
0000
0000
0000
0230
0000
0000
0000
0000
,
0000
0000
0300
0000
,
1000
0000
0000
0010
0000
0000
0100
0000
0000
0000
0011
0000
0000
1100
0000
0000
0000
0000
1001
0000
0000
0000
0000
0000
,
0010
0000
0000
0100
0000
0000
1000
0000
0000
0000
1010
0000
0000
0101
0000
0000
0000
0000
1001
0000
0000
0000
0000
0000
,
0100
0000
0000
0001
0000
0000
0010
0000
0000
0000
1100
0000
0000
0011
0000
0000
0000
0000
1001
0000
0000
0000
0000
0000
,
1000
0000
0000
0010
0000
0000
0100
0000
0000
0000
0110
0000
0000
1001
0000
0000
0000
0000
1100
0000
0000
0000
0000
0000
,
1000
0000
0000
0001
0000
0000
0100
0000
0000
0000
0110
0000
0000
1001
0000
0000
0000
0000
0101
0000
0000
0000
0000
0000
,
0100
0000
0000
0001
0000
0000
0010
0000
0000
0000
0110
0000
0000
1001
0000
0000
0000
0000
0110
0000
0000
0000
0000
0000
,
0010
0000
0000
0001
0000
0000
1000
0000
0000
0000
1100
0000
0000
0011
0000
0000
0000
0000
1010
0000
0000
0000
0000
0000
,
0100
0000
0000
0010
0000
0000
1000
0000
0000
0000
0011
0000
0000
1100
0000
0000
0000
0000
1001
0000
0000
0000
0000
0000
,
1000
0001
0100
1010
,
1000
1100
1000
0011
,
0010
0010
0100
0100
,
1010
0101
0011
1100
,
1000
1000
0010
0001
,
0010
1000
0100
0101
,
0010
1010
0001
0010
,
0100
1100
0010
0100
,
0010
1000
0100
0010
0001
0100
0010
0100
,
1000
0100
0001
0010
0001
0100
1000
0100
,
0001
0010
1000
0100
0001
0100
1000
0010
,
0001
0100
1000
0100
0001
0010
1000
0010
,
0001
0100
1000
0001
0010
1000
0100
0010
,
0001
0100
0010
1000
0100
0010
0001
0100
,
1000
0001
1000
0100
0010
0001
0010
0100
,
2002
0000
0000
0000
0000
0000
0000
3003
,
1001
1000
0010
0100
0001
0100
0010
0010
,
1100
0010
0100
0100
0101
0000
1001
0000
,
1000
0010
0100
0001
0010
0001
0010
0010
,
1100
0010
0100
0010
0101
0000
1001
0000
,
1000
0010
0100
0001
0010
1000
0100
0100
,
0010
0010
0001
0010
1100
0000
0011
0000
,
1000
0010
0001
1000
0010
0001
1000
0100
,
0001
1000
0100
0001
0011
0000
1001
0000
,
1100
0100
0010
0100
0101
0001
0200
0000
,
0310
0100
1100
1000
0100
1000
1100
0100
,
0100
0000
0001
0100
0010
1000
0100
0010
,
0011
0001
0001
0100
0120
0000
1000
0000
,
0031
0100
0010
1000
0100
0010
0011
0000
,
1100
1001
0110
0110
,
0001
0100
0010
1000
0100
0010
0001
0010
,
1100
1000
1100
0100
0110
0010
0011
0001
,
0002
0100
0000
0000
,
1003
0010
0000
0100
,
2000
0010
0000
0000
,
3001
0010
0000
0100
,
0002
0100
0000
0000
,
1003
0100
0000
0010
,
2000
0100
0000
0000
,
3001
0010
0200
0000
,
0020
0000
0000
0330
,
0000
0000
0000
0000
,
2002
0000
0000
0000
,
0000
0000
0000
0000
0000
0000
0000
3003
,
0220
0000
0000
0000
,
0000
0000
0000
0000
0000
0000
0000
0330
,
2002
0000
0000
0000
,
0000
0000
0000
0000
,
3003
0000
0000
0000
;

//---------------dance-single - BASIC----------------
#NOTES:
     dance-single:
     BASIC:
     Easy:
     3:
     0.116,0.201,0.000,0.054,0.000:
0000
0000
0000
0000
,
0000
0000
0000
0000
,
0000
0000
0000
0000
,
0000
0000
0000
0000
,
0000
0000
0000
0000
,
0020
0000
0000
0000
,
0000
0000
0000
0000
,
1030
0000
0001
0000
,
0010
0000
0001
0000
,
1000
0000
0100
0000
,
1000
0000
0001
0000
,
0010
0000
0000
0000
,
0100
0000
0000
0000
,
0010
0000
0000
0000
,
0100
0000
0000
0000
,
0001
0000
0000
0000
,
1000
0000
0000
0000
,
0001
0000
0000
0000
,
1000
0000
0000
0000
,
0001
0000
0000
0000
,
1000
0000
0000
0000
,
0001
0000
0000
0000
,
1000
0000
0000
0000
,
0001
0000
0000
0000
,
0000
0000
0000
0000
,
0000
0000
0000
0000
,
0000
0000
0000
0000
,
1000
0000
0001
0000
,
0010
0000
0100
0000
,
1000
0000
0001
0000
,
1000
0000
0010
0000
,
0100
0000
0001
0000
,
1000
0000
0001
0000
,
0010
0000
0100
0000
,
1000
0000
0001
0000
,
1000
0000
0010
0000
,
0100
0000
0001
0000
,
1000
0000
0001
0000
,
0010
0000
0100
0000
,
1000
0000
0001
0000
,
1000
0000
0001
0000
,
0010
0000
0100
0000
,
0010
0000
0100
0000
,
0001
0000
1000
0000
,
0001
0000
1000
0000
,
0010
0000
0100
0000
,
0010
0000
0100
0000
,
0001
0000
1000
0000
,
0001
0000
1000
0000
,
0010
0000
0100
0000
,
0020
0000
0000
0000
,
1030
0100
0010
0001
,
0010
0100
1000
0001
,
1000
0001
0010
0100
,
0010
0100
1000
0001
,
1000
0001
1000
0100
,
0010
0001
1000
0100
,
0010
0001
0010
0100
,
1000
0001
0010
0100
,
1000
0001
1000
0001
,
1000
0100
0010
0100
,
0010
0001
1000
0001
,
1000
0100
0010
0100
,
0010
0001
1000
0001
,
1000
0100
0010
0001
,
0010
0100
1000
0001
,
0010
0100
1000
0001
,
0020
0000
0000
0000
,
0000
0000
0000
0000
,
0230
0000
0000
0000
,
0000
0000
0000
0000
,
0320
0000
0000
0000
,
0000
0000
0000
0000
,
0230
0000
0000
0000
,
0000
0000
0000
0000
,
0302
0000
0000
0000
,
0000
0000
0000
0000
,
2003
0000
0000
0000
,
0000
0000
0000
0000
,
3200
0000
0000
0000
,
0000
0000
0000
0000
,
0320
0000
0000
0000
,
0000
0000
0000
0000
,
0030
0000
0000
0000
;

//---------------dance-single - TRICK----------------
#NOTES:
     dance-single:
     TRICK:
     Medium:
     4:
     0.207,0.312,0.075,0.081,0.000:
0000
0000
0000
0000
,
0000
0000
0000
0000
,
0000
0000
0000
0000
,
0000
0000
0000
0000
,
0000
0000
0000
0000
,
2002
0000
0000
0000
,
0000
0000
0000
3003
,
1000
0010
0100
0001
,
0010
0001
0100
0010
,
1000
0100
0010
0001
,
0010
0100
1000
0010
,
0100
0100
0000
0010
,
0010
0010
0000
0100
,
0100
0100
0000
0010
,
0010
0010
0000
0001
,
0001
0001
0000
1000
,
1000
1000
0000
0001
,
0001
0001
0000
1000
,
1000
1000
0000
0001
,
0001
0001
0000
0010
,
0010
0010
0000
0100
,
0100
0100
0000
1000
,
1000
1000
0000
0100
,
1001
0000
0000
0000
,
0000
0020
0000
0000
,
0000
0000
0000
0230
0000
0000
0000
0000
,
0000
0000
0300
0000
,
1000
0010
0100
0000
0001
0000
1000
0000
,
0001
0100
0010
0000
0100
0000
0010
0000
,
1000
0001
1000
0000
0001
0000
1000
0000
,
0001
0010
0100
0000
1000
0000
0100
0000
,
1000
0010
0100
0000
0001
0000
0100
0000
,
1000
0100
0010
0000
1000
0000
0001
0000
,
1000
0100
0010
0000
0010
0000
0001
0000
,
0001
0100
0010
0000
1000
0000
0001
0000
,
1000
0000
0010
0000
,
0100
0000
0001
0000
,
1000
0000
0001
0000
,
0010
0000
0100
0000
,
1000
0000
0001
0000
,
1000
0000
0001
0000
,
0010
0000
0100
0000
,
0010
0000
0100
0000
,
0001
0010
0100
0001
,
1000
0010
0100
0001
,
1000
0010
0100
0001
,
0010
0100
1000
0010
,
0100
0001
0010
0100
,
1000
0100
0010
0001
,
0010
1000
0100
0001
,
0020
0000
0000
0000
,
0031
0100
0010
0000
1010
0000
1010
0000
,
0010
0001
0100
0000
0100
1000
0001
0000
,
0010
0000
0010
0000
0010
0000
0100
1000
,
0100
0001
0100
1000
0010
0000
1000
0000
,
0011
1001
1000
0100
,
0110
0010
1001
0010
,
0010
0000
0100
0010
1000
0100
0010
0001
,
0100
0010
1000
0000
0100
0000
0101
0000
,
0010
0000
1100
0000
1000
0000
0001
0010
,
0100
0000
0100
1000
0010
0000
0010
0000
,
0010
0000
0001
0100
1000
0000
1000
0010
,
0001
0000
0100
0000
0100
0000
0010
1000
,
0100
0000
0010
1000
0100
0000
0100
0000
,
0101
0001
0011
0001
,
0010
1000
0100
0000
1000
0100
0001
0000
,
0001
0010
1000
0000
0010
1000
0100
0000
,
0010
0020
0000
0000
,
0030
0000
0010
0000
,
0100
0200
0000
0000
,
0300
0000
0100
0000
,
0010
0020
0000
0000
,
0030
0000
0010
0000
,
0100
0200
0000
0000
,
0300
0000
0100
0000
,
0020
0000
0000
0000
,
0000
0000
0000
0030
,
2002
0000
0000
0000
,
0000
0000
0000
3003
,
0020
0000
0000
0000
,
0000
0000
0000
0030
,
2002
0000
0000
0000
,
0000
0000
0000
0000
,
3003
0000
0000
0000
;

//---------------dance-single - ONI----------------
#NOTES:
     dance-single:
     ONI:
     Challenge:
     10:
     0.631,0.736,0.027,0.065,0.900: // measure 1
0000
0000
0000
0000
,  // measure 2
0000
0000
0000
0000
,  // measure 3
0000
0000
0000
0000
,  // measure 4
0000
0000
0000
0000
,  // measure 5
0000
0000
0000
0000
,  // measure 6
2002
0000
0000
0000
,  // measure 7
0000
0000
0000
0000
0000
0000
0000
3003
,  // measure 8
1000
0100
0010
0001
,  // measure 9
0100
0010
0010
1000
,  // measure 10
0100
0010
0100
1000
,  // measure 11
0001
1000
0010
0100
,  // measure 12
0001
0000
1000
0010
0100
0000
0000
0010
1000
0010
0100
0001
1000
0100
0010
0100
,  // measure 13
1000
0000
0010
0100
0010
0000
1000
0010
0100
0010
1000
0001
0100
0010
1000
0100
,  // measure 14
0010
0000
0001
0100
1000
0000
0100
0001
0010
0100
1000
0100
0001
0100
1000
0010
,  // measure 15
0100
0000
0100
0010
1000
0000
1000
0010
0100
0001
0100
1000
0100
0001
0010
0100
,  // measure 16
1000
0000
0001
1000
0100
0000
1000
0010
0100
0001
0100
0010
1000
0001
0100
0010
,  // measure 17
1000
0000
0010
0100
0001
0000
0010
0100
1000
0100
0010
0001
0010
0100
1000
0001
,  // measure 18
1000
0000
0010
0100
0001
0000
1000
0100
0010
0100
0010
0100
1000
0001
0100
0010
,  // measure 19
1000
0000
0001
0100
0010
0000
1000
0100
1000
0010
0100
1000
0100
0010
0100
0001
,  // measure 20
1000
0000
0100
0010
0001
0000
0100
0010
1000
0100
0010
0100
1000
0001
0010
0100
,  // measure 21
0010
0000
0001
0010
0100
0000
1000
0010
0100
0001
0100
0010
1000
0100
0010
0001
,  // measure 22
1000
0000
0001
0100
0010
0000
1000
0100
0010
0001
0010
0100
0010
0001
1000
0100
,  // measure 23
0010
0000
0100
1000
0001
0010
0100
1000
0010
0100
0001
0010
0100
1000
0001
1000
,  // measure 24
0100
0000
0000
0000
,  // measure 25
0000
0020
0000
0000
,  // measure 26
0000
0000
0000
0230
0000
0000
0000
0000
,  // measure 27
0000
0000
0300
0000
,  // measure 28
1000
0100
1000
0100
1000
0100
0010
0001
0010
0100
1000
0100
1000
0100
1000
0100
,  // measure 29
1000
0001
1000
0001
1000
0001
1000
0001
0010
0100
1000
0100
0010
0001
0010
0001
,  // measure 30
0010
0100
1000
0100
1000
0100
1000
0010
0100
0001
0100
0010
1000
0100
1000
0100
,  // measure 31
1000
0001
0010
0001
0010
0001
0010
0100
1000
0100
0010
0001
0010
0001
0010
0001
,  // measure 32
1000
0100
1000
0100
1000
0100
1000
0100
0010
0100
0010
0001
0010
0001
0010
0001
,  // measure 33
1000
0100
1000
0100
1000
0100
1000
0100
0010
0100
0010
0001
0010
0001
0010
0001
,  // measure 34
1000
0100
0010
0001
0010
0100
1000
0010
0100
0001
0010
0100
1000
0100
0010
0001
,  // measure 35
0010
0100
1000
0010
0100
0001
0100
0010
1000
0100
1000
0010
0100
0010
1000
0100
,  // measure 36
1000
0001
0100
0010
,  // measure 37
1000
0100
1000
0010
,  // measure 38
0010
0100
0100
0001
,  // measure 39
0010
0001
0100
0010
,  // measure 40
1000
0100
0010
0001
,  // measure 41
0010
0100
1000
0001
,  // measure 42
1000
0010
0100
0001
,  // measure 43
0010
0100
1000
0001
,  // measure 44
0010
0001
0100
0010
1000
0100
1000
0001
,  // measure 45
1000
0010
0100
0001
0010
0001
0100
0010
,  // measure 46
0100
0001
0010
0001
1000
0100
1000
0010
,  // measure 47
0100
0001
0010
0100
1000
0001
0100
0010
,  // measure 48
1000
0100
1000
0010
0100
0001
1000
0010
,  // measure 49
1000
0100
0010
0001
0010
0001
0010
0100
,  // measure 50
1000
0100
1000
0100
0010
0001
0010
0100
,  // measure 51
2002
0000
0000
0000
0000
0000
0000
3003
,  // measure 52
1000
0010
0100
0001
0010
0100
1000
0100
0010
0001
0100
0010
1000
0100
0001
0100
,  // measure 53
1000
0010
0100
0001
0010
0100
1000
0010
0001
0010
1000
0100
0010
0001
0010
0100
,  // measure 54
1000
0010
1000
0010
1000
0010
0100
0001
0100
0001
0100
0001
0100
0010
1000
0100
,  // measure 55
0010
0100
1000
0010
0100
0001
0010
0100
0010
0001
0100
0010
1000
0100
1000
0001
,  // measure 56
0010
0001
0100
0010
0100
0001
0010
0001
0100
0010
1000
0100
0010
0100
1000
0001
,  // measure 57
0100
0010
0100
0001
0010
0100
1000
0010
0100
0001
0010
0100
0010
0001
0100
0010
,  // measure 58
1000
0100
1000
0010
0100
0001
0010
0001
1000
0001
1000
0001
0010
0001
0010
0001
,  // measure 59
0100
0010
1000
0100
1000
0010
0100
0001
0010
0001
0010
0001
1000
0100
1000
0100
,  // measure 60
1000
0010
0100
0001
0010
0001
1000
0100
0010
0100
1000
0100
0010
0001
0010
0100
,  // measure 61
1000
0010
0100
0001
0010
0100
1000
0100
0010
0001
0010
0100
0010
0001
0010
0100
,  // measure 62
1000
0010
0100
0001
0010
0100
1000
0100
0010
0001
0010
0001
0010
0100
1000
0100
,  // measure 63
1000
0100
0010
0001
0010
0100
1000
0010
0100
0001
0010
0001
0100
0010
1000
0100
,  // measure 64
1000
0010
0100
0001
0010
0001
0010
0100
1000
0100
1000
0010
0100
0001
1000
0010
,  // measure 65
0100
0001
1000
0100
0010
0001
0100
0010
1000
0001
0100
0010
1000
0001
0010
0100
,  // measure 66
1000
0001
0100
0010
1000
0001
0100
0010
1000
0001
0010
0100
1000
0010
0100
0001
,  // measure 67
0010
0001
0100
0010
1000
0100
0010
0001
0100
0010
1000
0100
0010
0001
0100
0010
,  // measure 68
1000
0010
0100
0010
1000
0100
1000
0010
0100
0010
1000
0100
1000
0010
0100
0001
,  // measure 69
0010
0001
0010
0001
0010
0001
0010
0100
0010
0100
0010
0100
0010
0100
0010
0100
,  // measure 70
1000
0100
1000
0100
1000
0100
1000
0100
1000
0001
1000
0001
1000
0001
1000
0001
,  // measure 71
1000
0010
1000
0010
1000
0010
1000
0010
1000
0001
1000
0001
1000
0001
1000
0001
,  // measure 72
1000
0001
0010
0100
1000
0100
0010
0001
0100
0010
1000
0100
0010
0001
0100
0010
,  // measure 73
1000
0100
0010
0001
0010
0100
1000
0100
0010
0001
0010
0100
1000
0010
0100
0001
,  // measure 74
0010
0100
0010
0001
1000
0100
0010
0100
1000
0001
0100
0010
1000
0100
0010
0100
,  // measure 75
1000
0010
0100
0010
1000
0100
0010
0100
1000
0010
0100
0001
0010
0001
0100
0010
,  // measure 76
1000
0100
0010
0100
1000
0001
0100
0010
0100
0010
0100
0010
0100
0000
0000
0000
,  // measure 77
0000
0000
0000
0000
,  // measure 78
2002
0000
0000
0000
,  // measure 79
0000
0000
0000
0000
0000
0000
0000
0000
0000
0000
0000
0000
0000
0000
0000
0000
0000
0000
0000
0000
0000
0000
0000
0000
0000
0000
0000
0000
0000
0000
0000
0000
0000
0000
0000
0000
0000
0000
0000
0000
0000
0000
0000
0000
0000
0000
0000
0000
0000
0000
0000
0000
0000
0000
0000
0000
0000
0000
0000
0000
0000
0000
0000
3003
,  // measure 80
0220
0000
0000
0000
,  // measure 81
0000
0000
0000
0000
0000
0000
0000
0000
0000
0000
0000
0000
0000
0000
0000
0000
0000
0000
0000
0000
0000
0000
0000
0000
0000
0000
0000
0000
0000
0000
0000
0000
0000
0000
0000
0000
0000
0000
0000
0000
0000
0000
0000
0000
0000
0000
0000
0000
0000
0000
0000
0000
0000
0000
0000
0000
0000
0000
0000
0000
0000
0000
0000
0330
,  // measure 82
2002
0000
0000
0000
,  // measure 83
0000
0000
0000
0000
,  // measure 84
3003
0000
0000
0000
;
