#TITLE:月陽炎;
#SUBTITLE:;
#ARTIST:ε&Q/tutidama;
#TITLETRANSLIT:tsukikage;
#SUBTITLETRANSLIT:;
#ARTISTTRANSLIT:;
#CREDIT:;
#BANNER:tsukikage.png;
#BACKGROUND:tsukikage-bg.png;
#LYRICSPATH:;
#CDTITLE:cdtitle.png;
#MUSIC:tsukikage.mp3;
#OFFSET:-1.780;
#SAMPLESTART:32.800;
#SAMPLELENGTH:12.000;
#SELECTABLE:YES;
#BPMS:0.000=100.000,220.000=90.000,223.000=70.000,223.500=36.000,224.000=44.500,225.000=100.000;
#STOPS:35.000=0.620
;
#BGCHANGES:;

//---------------dance-single - BASIC----------------
#NOTES:
     dance-single:
     BASIC:
     Easy:
     2:
     0.110,0.200,0.007,0.036,0.000:
0000
0000
0000
0000
,
0000
0000
0000
0000
,
0000
0000
0000
0000
,
0000
0000
0000
0000
,
1000
0000
0000
0000
,
0000
0001
0000
0000
,
0000
1000
0000
0000
,
0000
0020
0000
0000
,
0000
0000
0000
0030
,
1000
0000
1000
0000
,
0001
0000
0001
0000
,
1000
0000
1000
0000
,
0001
0000
0001
0000
,
1000
0100
1000
0000
,
0001
0100
0001
0000
,
1000
0010
1000
0000
,
0002
0000
0000
0003
,
1000
0000
0000
0000
,
0010
0000
0000
0000
,
0001
0000
0000
0000
,
0100
0000
0000
0000
,
1000
0000
0000
0000
,
0010
0000
0000
0000
,
0001
0000
0000
0000
,
0100
0000
0000
0000
,
1000
0010
0000
0000
,
0001
0100
0000
0000
,
1000
0100
0000
0000
,
0001
0010
0000
0000
,
1000
0001
0000
0000
,
0001
1000
0000
0000
,
0010
0100
0000
0000
,
0020
0000
0000
0000
,
0030
0000
0000
0000
,
1000
0000
1000
0000
,
0001
0000
0001
0000
,
1000
0000
1000
0000
,
0001
0000
0001
0000
,
1000
0100
1000
0000
,
0001
0100
0001
0000
,
1000
0010
1000
0000
,
0001
0010
0001
0000
,
1000
0100
0010
0000
,
0001
0100
0010
0000
,
1000
0100
0010
0000
,
0001
0100
0010
0000
,
1000
0010
0100
0001
,
1000
0100
0010
0001
,
0001
0010
0100
1000
,
0001
0100
0010
1000
,
2002
0000
0000
3003
,
0001
0000
0100
0000
,
0010
0000
1000
0000
,
0001
0000
0000
0000
,
1000
0000
0000
0000
,
0100
0000
0000
0000
,
0010
0000
0000
0000
;

//---------------dance-single - TRICK----------------
#NOTES:
     dance-single:
     TRICK:
     Medium:
     3:
     0.190,0.221,0.093,0.114,0.007:
0000
0000
0000
0000
,
0000
0000
0000
0000
,
0000
0000
0000
0000
,
0000
0000
0000
0000
,
1000
0000
0000
0100
,
0000
0001
0000
0000
,
0000
1000
0000
0100
,
0000
0020
0000
0000
,
0000
0000
0000
0030
,
1000
0100
1000
0100
,
0001
0100
0001
0100
,
1000
0100
1000
0100
,
0001
0100
0001
0100
,
1000
0100
1000
0100
,
0001
0100
0001
0100
,
1000
0010
0001
0100
,
2000
0000
0000
3000
,
1002
0000
0000
0003
,
2010
0000
0000
3000
,
0102
0000
0000
0003
,
2010
0000
0000
3000
,
1002
0000
0000
0003
,
2100
0000
0000
3000
,
0102
0000
0000
0003
,
0200
0000
0000
0300
,
1000
0010
0100
0010
,
0001
0100
0010
0100
,
1000
0100
0001
0010
,
0001
0100
1000
0010
,
1000
0001
0100
0010
,
0001
1000
0100
0010
,
1000
0100
0001
0100
,
0010
0000
0000
0010
0000
0000
0010
0000
0000
0010
0000
0000
0010
0000
0000
0000
,
1001
0100
0010
0001
,
1000
0100
1000
0100
,
0001
0100
0001
0100
,
1000
0100
1000
0100
,
0001
0100
0001
0100
,
1000
0100
1000
0100
,
0001
0100
0001
0010
,
1000
0010
1000
0010
,
0001
0010
0001
0010
,
1000
0010
0001
0010
,
1000
0010
0001
0010
,
1000
0100
0001
0100
,
1000
0100
0001
0100
,
1000
0010
0100
1000
,
0010
0100
0001
0010
,
0100
0001
0010
0100
,
1000
0100
0001
0010
,
2002
0000
0000
3003
,
0001
0101
1000
1100
,
0001
0101
1000
1100
,
0002
0000
0000
0000
,
0203
0000
0000
0000
,
2300
0000
0000
0000
,
3020
0030
0000
0000
;

//---------------dance-single - HEAVY----------------
#NOTES:
     dance-single:
     HEAVY:
     Hard:
     6:
     0.351,0.381,0.157,0.143,0.021:
0000
0000
0000
0000
,
0000
0000
0000
0000
,
0000
0000
0000
0000
,
0000
0000
0000
0000
,
1000
0100
0010
0000
0100
0010
0100
0000
,
0100
0010
0001
0010
1000
0100
0000
0010
,
0000
0001
0000
0000
1000
0000
0000
0000
0010
0000
0000
0000
0100
0000
0010
0000
,
0001
0000
0010
1000
0100
0010
0001
0100
,
0010
1000
0100
0001
0010
1000
1001
0000
,
1000
0100
0100
0000
1000
0100
0001
0000
,
0001
0001
0100
0000
0001
0100
1000
0000
,
1000
1000
0100
0000
1000
0100
0001
0000
,
0001
0001
0100
0000
0001
0100
1000
0000
,
1000
0100
0100
0000
1000
0100
0010
0000
,
0001
0001
0100
0000
0001
0100
0010
0000
,
1000
0010
0100
0001
0010
0100
1000
0001
,
2002
0000
0000
3003
,
1002
0010
0100
1003
,
2001
0010
0100
3001
,
0220
0000
0000
0330
,
2002
0000
0000
3003
,
1002
0010
0100
1003
,
2001
0010
0100
3001
,
0220
0000
0000
0330
,
2002
0000
0000
3003
,
1000
0100
0010
0100
0001
0100
1000
0000
,
0001
0100
0010
0100
1000
0100
0001
0000
,
1000
0100
0001
0100
0010
0100
0001
1000
,
0001
0100
1000
0100
0010
0100
1000
0100
,
1001
0000
0001
0010
0100
0010
0010
0000
,
1001
0000
1000
0010
0100
0010
0010
0000
,
1000
0010
0100
0001
0010
1000
0100
0001
,
0010
0000
0000
1000
0000
0000
0010
0000
0000
0001
0000
0000
0010
0000
0000
0000
,
2002
0000
0003
3200
0000
0000
0300
0000
,
1000
0000
0100
0000
1000
1000
0100
0000
,
0001
0000
0100
0000
0001
0001
0100
0000
,
1000
0100
1000
0100
1000
0010
0001
0010
,
0001
0010
0100
1001
0110
0100
0010
0000
,
1000
0000
0100
0000
1000
1000
0100
0000
,
0001
0000
0100
0000
0001
0001
0100
0000
,
1000
0001
0010
1000
0010
0100
0001
0100
,
0010
0001
1000
0010
0100
0100
0010
0000
,
0001
0001
0100
0000
0001
0001
0100
0000
,
1000
1000
0100
0000
1000
1000
0100
0000
,
1000
0010
0100
0001
0010
0001
0100
0010
,
1000
0001
0100
0110
1001
0010
0100
0000
,
1000
1000
0100
0000
1000
1000
0100
0000
,
0001
0001
0100
0000
0001
0001
0100
0000
,
0100
0010
0001
0100
1000
0010
0100
1000
,
0010
0001
0100
0010
0100
1000
0010
0100
,
2002
0000
0000
3003
,
0001
0001
0101
0010
1000
1000
1100
0010
,
0001
0001
0101
0010
1000
1000
1100
0010
,
0001
0010
0001
0010
1000
0100
0010
0001
,
0100
0010
0001
0100
0010
1000
0001
1000
,
0100
0000
0000
0000
0000
0000
0000
0000
0000
0000
0000
0000
0000
0000
0000
0000
0000
0000
0000
0000
0000
0000
0000
0000
0010
0000
0000
0000
0000
0000
0000
0000
0000
0000
0000
0000
0000
0000
0000
0000
0000
0000
0000
0000
0000
0000
0000
0000
1000
0000
0000
0000
0000
0000
0000
0000
0000
0000
0000
0000
0000
0000
0000
0000
0000
0000
0000
0000
0000
0000
0000
0000
0100
0000
0000
0000
0000
0000
0000
0000
0000
0000
0000
0000
0000
0000
0000
0000
0000
0000
0000
0000
0000
0000
0000
0000
0001
0000
0000
0000
0000
0000
0000
0000
0000
0000
0000
0000
0000
0000
0000
0000
0000
0000
0000
0000
0010
0000
0000
0000
0000
0000
0000
0000
0000
0000
0000
0000
0000
0000
0000
0000
0000
0000
0000
0000
0000
0000
0100
0000
0000
0000
0000
0000
0000
0000
0000
0000
0000
0000
0000
0000
0000
0000
0000
0000
0000
0000
0000
0000
0000
0000
1000
0000
0000
0000
0000
0000
0000
0000
0000
0000
0000
0000
0000
0000
0000
0000
0000
0000
0000
0000
0000
0000
0000
0000
0000
0000
0000
0000
0000
0000
,
0020
0130
0000
0000
;

//---------------dance-single - beginner----------------
#NOTES:
     dance-single:
     beginner:
     Beginner:
     1:
     0.082,0.161,0.057,0.000,0.000:
0000
0000
0000
0000
,
0000
0000
0000
0000
,
0000
0000
0000
0000
,
0000
0000
0000
0000
,
1000
0000
0000
0000
,
0000
0001
0000
0000
,
0000
1000
0000
0000
,
0000
0010
0000
0000
,
0000
0000
0000
0000
,
1000
0000
0000
0000
,
0001
0000
0000
0000
,
1000
0000
0000
0000
,
0001
0000
0000
0000
,
1000
0000
1000
0000
,
0001
0000
0001
0000
,
1000
0000
1000
0000
,
0001
0000
0000
0000
,
1000
0000
0000
0000
,
0010
0000
0000
0000
,
0001
0000
0000
0000
,
0100
0000
0000
0000
,
1000
0000
0000
0000
,
0010
0000
0000
0000
,
0001
0000
0000
0000
,
0100
0000
0000
0000
,
1000
0000
0000
0000
,
0001
0000
0000
0000
,
1000
0000
0000
0000
,
0001
0000
0000
0000
,
1000
0000
0000
0000
,
0000
1000
0000
0000
,
0010
0000
0000
0000
,
0100
0000
0000
0000
,
0000
0000
0000
0000
,
1000
0000
1000
0000
,
0001
0000
0001
0000
,
1000
0000
1000
0000
,
0001
0000
0001
0000
,
1001
0000
0100
0000
,
1001
0000
0010
0000
,
0110
0000
0010
0000
,
0110
0000
0010
0000
,
1000
0000
1000
0000
,
0001
0000
0001
0000
,
1000
0000
0010
0000
,
0001
0000
0010
0000
,
1000
0000
1010
0000
,
0001
0000
0011
0000
,
1000
0000
1010
0000
,
0001
0000
0011
0000
,
0100
0000
0000
0000
,
0001
0001
0001
0000
,
1000
1000
1000
0000
,
0010
0000
0000
0000
,
0000
0000
0000
0000
,
0000
0000
0000
0000
,
0000
0100
0000
0000
;

//---------------dance-single - oni----------------
#NOTES:
     dance-single:
     oni:
     Challenge:
     8:
     0.505,0.562,0.549,0.143,0.161:
0000
0000
0000
0000
,
0000
0000
0000
0000
,
0000
0000
0000
0000
,
0000
0000
0000
0000
,
1000
0100
0010
0001
0100
0000
0000
0000
0100
0000
0010
0000
0100
0000
1000
0000
,
0100
0000
0010
0000
0001
0000
0010
0000
1000
0100
0000
0010
0000
0000
0010
0000
,
0000
0001
0000
0000
1000
0000
0100
0000
0010
0000
0100
0000
1000
0000
0001
0010
,
0000
1000
0100
0001
0000
0000
1000
0000
0100
0000
0010
0000
0001
0000
0100
0000
,
0010
0000
0000
0000
0000
0000
0000
0000
1000
0000
0000
0000
0000
0000
0000
0000
0100
0000
0000
0000
0000
0000
0000
0000
0001
0000
0000
0000
0000
0000
0000
0000
0010
0000
0000
0000
0000
0000
0000
0000
1000
0000
0000
0000
0000
0000
0000
0000
2002
3003
0000
0000
0000
0000
0000
0000
0000
0000
0000
0000
0000
0000
0000
0000
,
1100
0100
0100
1000
0101
0100
0100
0001
,
0101
0001
0001
0100
1100
1000
1000
0100
,
0011
0001
0001
0010
1010
1000
1000
0010
,
1001
0001
0001
1000
1001
1000
1000
0001
,
1100
0100
0110
0010
0011
0001
0101
0100
,
0110
0010
1010
1000
1100
0100
0110
0010
,
0011
0001
0101
0100
1100
1000
1001
0001
,
2002
0000
0000
3003
,
1001
0000
0010
0000
0010
0000
0100
1000
0000
0000
1000
0100
0001
0000
0000
0000
,
1001
0100
0010
1000
0100
0001
0010
0100
,
0110
0000
0010
0002
0000
0000
0000
0000
0003
0000
0001
0100
1000
0000
1000
0100
,
2200
0000
0300
3001
,
1001
0000
0010
0000
0010
0000
0100
1000
0000
0000
1000
0000
0100
0000
0010
0000
,
1001
0010
0100
1000
0010
0100
1000
0010
,
0110
0000
0100
2000
0000
0000
0000
0000
3000
0000
1000
0000
0010
0000
0100
0000
,
0202
0000
0300
1003
,
1000
0000
0100
0000
0010
0000
0100
0001
0000
0000
0100
0000
1000
0000
0010
0000
,
0001
0000
0100
0000
0010
0000
0100
0000
1000
0000
0100
0000
0001
0000
0010
0100
,
1000
0000
0100
0000
0001
0000
0100
0000
0010
0000
0000
0001
0000
0000
1000
0000
,
0001
0000
0100
1000
0010
0000
0100
0000
0010
0000
0100
0000
1000
0000
0100
0000
,
1001
0000
0010
0000
0001
0000
0100
1000
0000
0000
0010
0000
0100
0000
0001
0000
,
1001
0000
1000
0000
0100
0000
0010
0001
0000
0000
0010
0000
1000
0000
0100
0000
,
1000
0000
0010
1000
0000
0000
0001
0000
0010
0000
1000
0000
0100
0000
0001
0010
,
0110
0000
0000
1100
0000
0000
0011
0000
0000
0110
0000
0000
1100
0000
0000
0000
,
2002
0000
3003
0220
0000
0000
0330
0000
,
1000
0000
1000
0000
0100
1000
0100
0000
1000
0000
1000
0000
0100
0000
0000
0000
,
0001
0000
0001
0000
0100
0001
0100
0000
0001
0000
0001
0000
0100
0000
0010
0000
,
1000
0100
1010
0100
1000
0010
0101
0010
,
1000
0001
0100
1001
0110
0100
0020
0000
,
1030
0000
1000
0000
0100
1000
0100
0000
1000
0000
1000
0000
0100
0000
0000
0000
,
0001
0000
0001
0000
0100
0001
0100
0000
0001
0000
0001
0000
0100
0000
0010
0000
,
1000
0001
0110
1000
0010
0100
1001
0100
,
0010
0001
1010
0011
1100
0100
0020
0000
,
0031
0000
0001
0000
0100
0001
0100
0000
0001
1000
0001
0000
0100
0000
0010
0000
,
1000
0000
1000
0000
0100
1000
0100
0000
1000
0001
1000
0000
0100
0000
0010
0000
,
1001
0010
0100
0001
0110
0001
0100
0010
,
1000
0001
0100
0110
1001
0020
0200
0030
,
1300
0000
1000
0000
0100
1000
0100
0000
1000
0001
1000
0000
0100
0000
0010
0000
,
0001
0000
0001
0000
0100
0001
0100
0000
0001
1000
0001
0000
0100
0000
0010
0000
,
0110
0100
0101
0010
1100
0011
0110
1000
,
0110
0001
0110
0011
0110
1000
0110
0100
,
2002
0000
0000
0000
0000
0000
0000
0000
0000
0000
0000
0000
0003
0000
0000
0000
3001
0010
0001
0010
0001
0000
0100
0000
1000
0000
0000
0000
0100
0000
0001
0000
,
0101
0010
0101
1010
1000
0100
1010
0001
,
0110
0011
0101
0010
1100
0010
1001
0110
,
0011
0010
0100
0001
1000
0010
0100
1000
,
1010
0100
0001
0010
0100
0001
0100
1000
,
0010
0000
0000
0000
0100
0000
0000
0000
1000
0000
0000
0000
0100
0000
0000
0000
0001
0000
0000
0010
0000
0000
0000
0100
0000
0000
0000
1000
0000
0000
0000
0000
,
0110
1001
0000
0000
;

//---------------dance-double - heavy double----------------
#NOTES:
     dance-double:
     heavy double:
     Hard:
     5:
     0.292,0.301,0.000,0.250,0.011:
00000000
00000000
00000000
00000000
,
00000000
00000000
00000000
00000000
,
00000000
00000000
00000000
00000000
,
00000000
00000000
00000000
00000000
,
01000000
00010000
00100000
00000000
00001000
00000000
00010000
00000010
,
00000100
00000001
00000010
00000000
00000100
00001000
00000010
00010000
,
00000000
00001000
00000000
00000000
01000000
00000000
00100000
00000000
00100000
00000000
00000000
00000000
10000000
00000000
00100000
00000000
,
00010000
00001000
00000200
00000000
00000000
00000000
00000020
00000000
,
00000000
00000000
00000000
00000330
,
00000010
00000100
00000100
00000000
00000001
00000000
00001000
00000100
,
00002000
00000000
00023000
00000000
02030000
00000000
00000000
00100000
,
03100000
00000000
10000000
01000000
00010000
01000000
10000000
00000000
,
00100000
00001000
01000000
00000000
00010000
00000000
00001000
00000100
,
00000020
00000000
00000031
00000000
00000100
00000100
00001000
00000000
,
00020000
00000000
00030200
00000000
00000320
00000000
00000000
00000031
,
00000001
00000100
00000001
00000000
00001000
00000100
00001000
00000000
,
00020000
00000000
00000000
00030000
,
00000000
01000000
10000000
00000000
00010000
00000000
00010000
00000000
,
00000000
00001000
00010000
00000000
00000100
00000000
00000010
00000000
,
00000100
00001000
00000010
00000000
00000001
00000100
00001000
00000000
,
00010000
00001000
00010000
01000000
,
00100000
10000000
01000000
00000000
00100000
00000000
01000000
00000000
,
00001000
00010000
00000010
00000000
00000100
00000000
00001000
00000000
,
00000001
00000000
00000100
00000010
00000000
00001000
00000100
00010000
,
00002000
00100000
00010000
01003000
,
20000000
01000000
31000000
00100000
,
00002000
00000000
00010000
00000000
00013000
00000000
00001000
00000100
,
00000020
00001000
00000001
00000130
,
00000200
00001000
00000001
00000010
,
00000300
00010000
00001000
00000000
01000000
00000000
00100000
00000000
,
00010000
01000000
10000000
00000000
00100000
00000000
00010000
00000000
,
00002000
00000000
00000000
00013000
00000200
00000000
00000310
00000000
,
00001000
00000000
00000000
00000010
00000000
00000000
00010000
00000000
00000000
00001000
00000000
00000000
01000000
00000000
00000000
00000000
,
00010000
00000000
00000000
01000000
00000000
00010000
10000000
01000000
,
00020000
00001000
00030200
00000010
,
00000301
00001000
00000000
00000010
00000100
00001000
00010000
00000000
,
01000000
10000000
00100000
00000000
01000000
00010000
00100000
00000000
,
00010000
00000000
00100000
00001000
00010000
00000000
00000010
00000100
,
00000002
00000010
00001000
00000103
,
00010000
00001000
00000100
00000010
00000001
00000000
00000100
00000000
,
00010000
00001000
00010000
00000000
01000000
00100000
01000000
00000000
,
10000000
00010000
01000000
00100000
10000000
00010000
00100000
00000000
,
00002000
00010000
00000100
00013000
,
00001000
00000100
00000010
00000000
00000001
00000100
00001000
00000000
,
00010000
00001000
00010000
00000000
01000000
00000000
00100000
00000000
,
00010000
01000000
10000000
00100000
00010000
00000000
00001000
00000000
,
00010000
00000000
00000100
00000000
00000010
00001000
00000100
00000010
,
00000002
00000000
00000100
00000000
00001003
00000000
00000010
00000100
,
00001000
00010000
01000000
00000000
10000000
01000000
00010000
00000000
,
00002000
00000100
00000001
00003010
,
00020000
00000000
01000000
01030000
,
00200000
00000000
01000000
00300000
00100000
10000000
01000000
00000000
,
00200000
00000000
01000000
00300000
00100000
00010000
01000000
00000000
,
00002000
00000000
00023000
00000010
,
00030020
00000000
00000000
00000100
00002030
00000000
00003002
00000000
,
00000203
00000000
00000000
00000010
00020300
00000000
00032000
00000000
,
02003000
03001000
00000000
00000000
;

//---------------dance-double - standard double----------------
#NOTES:
     dance-double:
     standard double:
     Medium:
     3:
     0.203,0.221,0.014,0.335,0.000:
00000000
00000000
00000000
00000000
,
00000000
00000000
00000000
00000000
,
00000000
00000000
00000000
00000000
,
00000000
00000000
00000000
00000000
,
02000000
03001000
00010000
00000020
,
00000100
00002030
00000010
00003200
,
00000000
00000301
00001000
00000100
,
00000010
00020000
00000000
00000000
,
00000000
00002000
00000000
00033000
,
00200000
00000000
00000000
00000000
,
00302000
00023000
20030000
32000000
,
03002000
00000000
00000000
00000000
,
00023000
00000000
00000000
00000100
,
00030020
00000000
00000000
00000000
,
00000032
00000203
00020300
00030020
,
00002030
00000000
00000000
00000000
,
00020000
00000000
00000000
00033000
,
00000000
01000000
10000000
00000000
00010000
00000000
00100000
00000000
,
00000000
00000100
00001000
00000000
00000001
00000000
00000010
00000000
,
00020000
00000000
00000000
00001000
,
00032000
00000000
00000000
00010000
,
00013000
00000100
00000001
00000000
00001000
00000000
00000010
00000000
,
00000000
01000000
10000000
00000000
00010000
00000000
00100000
00000000
,
00001000
00020000
00000000
00000000
,
00030200
00000000
00000000
00000000
,
00000310
00010000
01000000
00100000
,
10000000
01000000
00100000
00010000
,
00001000
00000010
00000001
00000100
,
00010000
00001000
00000010
00000100
,
00001000
00010000
01000000
00100000
,
00001000
01000000
00100000
00010000
,
10000000
01000000
00010000
00100000
,
00001000
00000000
00000000
00010000
00000000
00000000
01000000
00000000
,
00100000
00000000
00000000
10000000
00000000
00000000
01000000
00000000
,
00020000
00000000
00001000
00001000
,
00030200
00000000
00000000
00000010
,
00000320
00000000
00000001
00000000
,
00000230
00001000
00001000
00000000
,
00020300
00000000
00230000
00000000
,
00302000
00203000
02300000
00000000
,
00000000
10000000
00010000
03100000
,
01000000
00000000
00000000
00001000
,
00000020
00000000
00010000
00001000
,
00000130
00000001
00000000
00000100
,
00020000
01000000
20030000
01000000
,
30002000
00000100
00003010
00000000
,
00020000
00000000
10030000
00010000
,
00002000
00010000
00003100
00000000
,
00000000
00000010
00000000
00000010
00000000
00020000
00000000
00000100
,
00000000
00030000
00001000
00000000
00010000
00000000
10000000
00000000
,
01000000
00000000
00000000
00010000
,
00002000
00010000
00003100
00001001
,
00000200
00000010
00000301
00001100
,
00010000
00000000
00001000
00000000
,
00020000
00000000
20000000
00030000
,
02000000
30000000
00020000
03000000
,
00002000
00033000
00000000
00000000
;

//---------------dance-double - challenge double----------------
#NOTES:
     dance-double:
     challenge double:
     Challenge:
     9:
     0.504,0.522,0.250,0.121,0.275: // measure 1
00000000
00000000
00000000
00000000
,  // measure 2
00000000
00000000
00000000
00000000
,  // measure 3
00000000
00000000
00000000
00000000
,  // measure 4
00000000
00000000
00000000
00000000
,  // measure 5
01000000
10000000
00010000
01000000
00200000
00000000
00000000
00000000
00001000
00000000
00000000
00000000
00310000
00000000
00001000
00000000
,  // measure 6
00010000
00001000
00000100
00000000
00000001
00000000
00001000
00000000
00000100
00000010
00000001
00000000
00000101
00000000
00001000
00000000
,  // measure 7
00000000
00000100
00000000
00000000
00000010
00000000
00001000
00000000
00000100
00000000
00010000
00000000
00001000
00010000
00001000
00000000
,  // measure 8
00100000
01000000
00100000
00000000
20010000
00000000
00000000
00000000
01000000
00000000
00000000
00000000
30010000
00000000
01000000
00000000
,  // measure 9
00010000
00100000
00001000
00010000
00000100
00010000
00000020
00000000
,  // measure 10
00000130
00000000
00001001
00000000
00000100
00000000
00001000
00000100
00001000
00000100
00010000
00000000
00011000
00000000
00001000
00000000
,  // measure 11
00010000
00001000
00010000
00000000
01000000
00000000
11000000
00000000
00010000
01000000
00010000
00000000
01000000
00000000
01100000
00000000
,  // measure 12
00100000
00000000
00001000
00000000
00010000
00000000
00000100
00010000
00000100
00010000
00000100
00000000
00000110
00000000
00000001
00000000
,  // measure 13
00001000
00000100
00000001
00000000
00001100
00000000
00000001
00000000
00000100
00000000
00000010
00001000
00000100
00001000
00000010
00000000
,  // measure 14
00010000
00001000
00010000
00000000
00011000
00000000
01000000
00000000
00100000
00000000
00010000
10000000
00010000
10000000
00010000
00000000
,  // measure 15
01100000
00000000
00010000
00000000
01001000
00000000
00000000
00000000
01000000
00000000
00010000
00000000
00001000
00000100
00000010
00000000
,  // measure 16
00001001
00000000
00000100
00000000
00000110
00000000
00000001
00000000
00000100
00000000
00000010
00000000
00001000
00000100
00000002
00000000
,  // measure 17
00002000
00000000
00000000
00003003
,  // measure 18
00000000
00000000
00010000
00000000
00001000
00000000
00000100
00001000
00000100
00000000
00010000
00000000
01000000
00000000
00000000
00000000
,  // measure 19
00000000
00000000
01000000
00000000
10000000
00000000
01000000
00000000
00010000
00100000
00010000
00000000
00100000
00000000
00001000
00000000
,  // measure 20
00000100
00000000
00000010
00010000
00000000
00000000
00000100
00000000
00000000
00000000
00000001
00000000
00000000
00000100
00000000
00000000
,  // measure 21
00001000
00000000
00010000
00000000
00000000
00000000
00001000
00000000
00010000
00000000
01000000
00000000
10000000
00010000
10000000
00000000
,  // measure 22
01000000
00000000
00100000
00000000
00001000
00000000
00010000
00001000
00000000
00000000
00000100
00000010
00001000
00000000
00000100
00000000
,  // measure 23
00000010
00000000
00000001
00000000
00000100
00000000
00000010
00000000
00010000
00001000
00010000
00000000
01000000
00000000
10000000
00000000
,  // measure 24
01000000
00000000
00010000
01000000
00000000
00000000
10000000
00000000
00000000
00000000
00010000
00000000
00100000
00000000
00001000
00000000
,  // measure 25
00020000
00000100
00000001
00030010
,  // measure 26
00010000
00000000
01000000
00000000
10000000
00000000
00100000
00010000
00001000
00000000
00001000
00000000
00000100
00000000
00000010
00000000
,  // measure 27
00001000
00000000
00000001
00000000
00000100
00000000
00001000
00010000
00000010
00000000
00000010
00000000
00000100
00000000
00000010
00000000
,  // measure 28
00010000
00000000
00001000
00000000
01000000
00000000
00010000
00001000
00010000
00000000
00000100
00000000
00000010
00000000
00000100
00000000
,  // measure 29
00000001
00000000
00000100
00000000
00000010
00000000
00010000
00001000
00010000
00000000
00100000
00000000
00010000
00000000
01000000
00000000
,  // measure 30
10000000
00000000
00010000
00000000
10010000
00000000
10000000
01000000
00000000
00010000
00001000
00000000
00000100
00000000
00000010
00000000
,  // measure 31
00000100
00000000
00001001
00000000
00000100
00000000
00000010
00000001
00000000
00000100
00000010
00000000
00001000
00000000
00010000
00000000
,  // measure 32
00001000
00000000
01000000
00100000
00000000
00010000
10000000
00000000
01000000
00000000
10000000
01000000
00100000
00000000
00010000
00000000
,  // measure 33
00001100
00000000
00000000
00000100
00000000
00000000
00000110
00000000
00000000
00000010
00000000
00000000
00000011
00000000
00001000
00000000
,  // measure 34
00000001
00000000
00000100
00000000
00001000
00000000
00011000
00000000
00000000
00000000
00010000
00000000
00001000
00010000
01000000
10000000
,  // measure 35
01000000
00000000
01100000
00000000
00010000
00000000
01000000
00000000
00001000
00000000
00010000
00000000
00011000
00000000
00001000
00000100
,  // measure 36
00000010
00000000
00001000
00000000
00000101
00000000
00001000
00000000
00000100
00000000
00000001
00000000
00000110
00000000
00001000
00000010
,  // measure 37
00000100
00000000
00001000
00000000
00010000
00001000
00010000
00000000
01000000
00000000
00100000
00000000
00010000
10000000
01000000
00000000
,  // measure 38
00100000
00000000
00010000
00000000
00011000
00000000
00001000
00000100
00000010
00000000
00001000
00000000
00001010
00000000
00000001
00000100
,  // measure 39
00001000
00010000
01000000
10000000
11000000
00010000
00100000
01000000
,  // measure 40
00011000
00000000
00010000
00000000
00001000
00000000
00000100
00000000
00000010
00000000
00000100
00000000
00000000
00000101
00000000
00000000
,  // measure 41
00001000
00000000
00000100
00000000
00000110
00000000
00000100
00000000
00001000
00000000
00010000
00000000
00000010
00010000
00001000
00000000
,  // measure 42
00011000
00000000
00010000
00000000
01000000
00000000
10000000
00000000
00010000
00000000
10000000
00000000
01000000
00010000
00001000
00000100
,  // measure 43
00000010
00001000
00000001
00000100
00001000
00000010
00001100
00010000
,  // measure 44
00001000
00000000
00010000
01000000
00000000
10000000
00010000
00000000
00100000
00000000
01000000
00000000
00010000
00000000
00001000
00000100
,  // measure 45
00000010
00001000
00000101
00000010
00000100
00000010
00001100
00010000
,  // measure 46
00001000
00000100
00001000
00000000
00010000
00000000
01000000
00000000
10000000
01000000
10000000
00000000
00010000
00100000
00010000
00000000
,  // measure 47
20000000
01000000
30020000
00100000
01030000
00001000
00010000
00001000
,  // measure 48
00000100
00000010
00001000
00000000
00000001
00000100
00000000
00001000
00000010
00000000
00010000
00000000
00001000
00000000
01000000
00000000
,  // measure 49
00100000
00010000
00100000
00000000
10000000
01000000
10000000
00000000
00010000
00000000
00100000
00000000
00010000
00001000
00000100
00000000
,  // measure 50
00000001
00000000
00001000
00000100
00000001
00000000
00000100
00000000
00001000
00000001
00000100
00001000
00010000
00000000
01000000
00000000
,  // measure 51
10000000
00000000
00000000
00000000
00000000
00000000
00000000
00000000
00000000
00000000
00000000
00000000
00000000
00000000
00000000
00000000
10000000
00100000
10000000
00000000
01000000
00000000
01000000
00000000
00010000
00000000
00000000
00000000
00001000
00000000
00010000
00000000
,  // measure 52
00100000
00000000
00000000
00000000
00010000
00000000
00000000
00001000
00000100
00000000
00000001
00000000
00001000
00000100
00001000
00000000
,  // measure 53
00000100
00000000
00000010
00000000
00011000
00000000
00000000
00000100
00000010
00000000
00010000
00000000
00011000
00000000
00000000
00000000
,  // measure 54
00020000
01000000
10000000
01000000
20030000
00100000
01000000
00100000
,  // measure 55
32000000
00000000
00001000
00010000
03002000
00000100
00000010
00000100
,  // measure 56
00003020
00000000
00000230
00000001
00002300
00000100
00023000
00001000
,  // measure 57
00200000
00330000
00000000
00000000
;

//---------------dance-double - light double----------------
#NOTES:
     dance-double:
     light double:
     Easy:
     2:
     0.142,0.181,0.000,0.278,0.000:
00000000
00000000
00000000
00000000
,
00000000
00000000
00000000
00000000
,
00000000
00000000
00000000
00000000
,
00000000
00000000
00000000
00000000
,
01000000
10000000
00000000
00010000
,
01000000
00002000
00013000
00000100
,
00000000
00000010
00000002
00001000
,
00001003
00000200
00000000
00000000
,
00000000
00020000
00000000
00030300
,
02000000
00000000
00000000
00000000
,
13000000
00000000
00010000
00000000
,
00000200
00000000
00000000
00000000
,
00000320
00000000
00000000
00000000
,
00000230
00000000
00000000
00000000
,
00000301
00000000
00001000
00000000
,
00200000
00000000
00000000
00000000
,
00300000
00000000
00000000
00000000
,
00000000
01000000
01000000
00000000
,
00000000
00010000
00001000
00000100
,
00000200
00000000
00000300
00000000
,
00000020
00000000
00000030
00000000
,
00000000
00000001
00000001
00000000
,
00000000
00000100
00002000
00010000
,
00023000
00000000
00000000
00000000
,
00230000
00000000
00000000
00000000
,
00300000
10000000
10000000
00000000
,
00010000
00000000
00000000
00000000
,
01000000
00000000
00001000
00000000
,
01000000
00000000
00000000
00000000
,
00000000
00020000
00000000
00030000
,
00000000
00020000
00001000
00031000
,
00000020
00000000
00000030
00000000
,
00000200
00000000
00002300
00000000
,
00000002
00000000
00003003
00000100
,
00000020
00000000
00010030
00010000
,
00002000
00000000
00003000
00010000
,
02000000
03000000
02000000
03000000
,
00100000
01000000
02000000
03000000
,
20000000
30000000
00010000
00000100
,
00010000
00000010
00000200
00000000
,
00000300
00000001
00000001
00000001
,
00002000
00000000
00000000
00000000
,
00023000
00000000
00001000
00031000
,
02000000
00000000
00000000
00000000
,
23000000
30000000
20000000
30000000
,
00010000
00010000
00200000
00300000
,
00002000
00003000
00000010
00010000
,
00000010
00000001
00000200
00000000
,
00000300
00010000
00010000
00010000
,
00002000
00000000
00000000
00000000
,
01003000
00000000
00000000
10000000
,
02000000
00000000
00000000
00000000
,
03020000
00000000
00000000
00000000
,
00031000
00000000
00000000
00000000
,
00000001
00000000
00000100
00000000
,
00001000
00000000
00010000
00000000
,
00200000
00300000
00000000
00000000
;
