#TITLE:tokyo banging;
#SUBTITLE:;
#ARTIST:Yamajet;
#TITLETRANSLIT:;
#SUBTITLETRANSLIT:;
#ARTISTTRANSLIT:;
#CREDIT:;
#BANNER:tokyo banging.png;
#BACKGROUND:tokyo banging-bg.png;
#LYRICSPATH:;
#CDTITLE:cdtitle.png;
#MUSIC:tokyo banging.mp3;
#OFFSET:-1.540;
#SAMPLESTART:63.100;
#SAMPLELENGTH:12.000;
#SELECTABLE:YES;
#BPMS:0.000=156.000,224.000=78.000,232.000=156.000;
#STOPS:;
#BGCHANGES:;

//---------------dance-single - BASIC----------------
#NOTES:
     dance-single:
     BASIC:
     Easy:
     3:
     0.228,0.271,0.038,0.076,0.000:
0000
0000
0000
0000
,
0000
0000
0000
0000
,
0000
0000
0000
0000
,
0000
0000
0000
0000
,
0001
0000
0010
0000
,
0010
0000
0100
0000
,
0100
0000
1000
0000
,
0001
0000
1001
0000
,
1000
0000
1000
0000
,
1000
0000
1000
0000
,
0001
0000
0001
0000
,
0001
0000
0001
0000
,
1000
0000
1000
0000
,
1000
0000
1000
0000
,
0001
0000
0001
0000
,
0001
0000
0001
0000
,
0220
0000
0000
0000
,
0000
0000
0330
0000
,
1000
0000
1000
0000
,
1000
0000
1000
0000
,
0220
0000
0000
0000
,
0000
0000
0330
0000
,
0100
0000
0100
0000
,
0200
0000
0300
0000
,
1000
0100
0010
0010
,
0010
0010
1000
0100
,
1000
0100
1000
1000
,
0010
0100
0100
0100
,
0001
0001
0001
0100
,
0100
0010
1000
0010
,
0100
0001
0010
1000
,
0100
0100
0100
0100
,
0001
0100
0010
0010
,
0010
1000
1000
0100
,
0010
0100
0100
0010
,
0100
1000
1000
1000
,
0100
0010
0010
0010
,
0010
0010
0100
0100
,
0001
0001
0010
0010
,
1000
2000
0000
0000
,
3001
0000
1000
0000
,
0100
0000
0100
0000
,
1000
1000
0001
0001
,
0100
0000
0010
0000
,
0010
0010
0100
0000
,
0100
1000
0010
0000
,
0100
0100
0010
0000
,
0100
0001
0010
0000
,
1000
0000
0001
0000
,
0100
0000
0010
0000
,
0001
0001
0100
0100
,
0010
0000
0100
0000
,
1000
0100
1000
0100
,
0001
0000
1000
0000
,
0010
0000
0010
0000
,
0100
0100
0200
0000
,
0300
0000
0100
0000
,
0010
0000
0100
0100
,
1001
0000
1000
0000
,
0010
0000
0010
0000
,
0001
0001
0100
0100
,
1000
0010
0001
0100
,
2000
0000
0000
0000
,
3000
0000
0000
0000
;

//---------------dance-single - TRICK----------------
#NOTES:
     dance-single:
     TRICK:
     Medium:
     5:
     0.355,0.444,0.115,0.191,0.010:
0000
0000
0000
0000
,
0000
0000
0000
0000
,
0000
0000
0000
0000
,
0000
0000
0000
0000
,
0001
0000
0001
0001
0010
0000
0100
0000
,
0100
0000
1000
0010
0100
0000
0100
0000
,
0100
0000
1000
0000
,
0001
0001
1001
0000
,
1000
0100
1000
0100
,
1000
0001
1000
1000
,
0001
0100
0001
0100
,
0001
1000
0001
0001
,
1000
0010
1000
0010
,
1000
0001
1000
1000
,
0001
0010
0001
0010
,
0001
1000
0001
0001
,
0220
0000
0000
0000
,
0000
0000
0330
0000
,
1000
1000
1000
1000
,
1000
1000
1000
1000
,
0220
0000
0000
0000
,
0000
0000
0330
0000
,
0001
0001
0001
0001
,
0200
0000
0000
0000
0000
0000
0000
0300
0000
0000
0000
0000
0000
0000
0000
0000
,
1000
0001
0100
0000
0010
0000
0010
0000
,
0010
0000
0010
0010
1000
0000
0101
0000
,
1000
0000
0101
0000
1000
0000
1000
1000
,
0010
0000
0100
0100
0100
0100
0100
0000
,
0001
0000
0001
0000
0001
0001
0000
0001
,
0000
0001
0001
0000
1000
0000
1000
0000
,
0100
0100
0001
0010
0010
0000
1000
0000
,
1000
0100
0100
0100
0100
0100
0100
0100
,
0001
1000
0100
0000
0010
0000
0010
0000
,
0010
0000
1000
1000
0100
0000
0100
0000
,
0011
0000
0100
0000
0100
0000
0100
0100
,
1000
0000
1000
1000
1000
1000
1000
0000
,
0001
0000
0001
0000
0010
0010
0000
0010
,
0000
0010
0010
0000
0100
0000
0100
0000
,
1000
0010
0010
0001
1000
0000
1000
0000
,
1000
2000
0000
0000
,
3001
0100
0010
0000
2000
0000
3000
0000
,
0100
0100
0100
0000
,
0020
1030
0020
0031
,
0100
0200
0300
0100
,
0010
0000
1000
0001
0100
0000
0100
0000
,
2000
3010
0201
0000
,
0302
0013
2000
3010
,
0100
0001
0010
0010
,
1000
0001
0100
0000
0002
0000
0003
0000
,
0100
0100
0010
0000
,
0002
0013
2000
3010
,
0100
0200
0300
0100
,
0001
0000
0100
0010
1000
0000
0100
0000
,
1001
0010
1001
0010
,
0010
0000
0010
0000
,
0100
0000
0100
0100
0200
0000
0000
0000
,
0300
0000
0000
0010
0100
0000
0000
0000
,
0010
0000
0000
0000
0000
0000
0000
0000
1000
0000
0000
0000
0000
0000
0000
0000
0100
0000
0000
0001
0000
0000
0010
0000
1000
0000
0000
0000
0000
0000
0000
0000
,
1001
0000
1000
0000
1000
0001
0100
0000
,
0100
0000
0110
0000
0010
1000
0100
0000
,
0001
0000
0001
0000
0100
1000
0010
0000
,
0020
0000
0000
0000
0000
0030
0000
0000
,
1001
0000
0000
0000
;

//---------------dance-single - HEAVY----------------
#NOTES:
     dance-single:
     HEAVY:
     Hard:
     7:
     0.487,0.563,0.325,0.115,0.096:
0000
0000
0000
0000
,
0000
0000
0000
0000
,
0000
0000
0000
0000
,
0000
0000
0000
0000
,
0001
0000
0001
0010
1000
0000
1010
0000
,
0002
0000
1003
0100
0001
0000
0100
0000
,
0100
0010
1000
0000
1000
0100
0001
0000
,
0001
0001
0001
0000
1001
0000
0000
0000
,
1000
0100
0001
0000
1000
0100
0010
0000
,
1000
0100
0001
0000
1000
1000
1000
0000
,
0001
0100
1000
0000
0001
0100
0010
0000
,
0001
0100
1000
0000
0001
0001
0001
0000
,
1000
0100
0001
0000
1000
0100
0010
0000
,
1000
0100
0001
0000
1000
1000
1000
0000
,
0001
0100
1000
0000
0001
0100
0010
0000
,
0001
0100
1000
0000
0001
0001
0001
0000
,
0010
1000
0000
0000
0000
0000
0200
0000
0000
0000
0000
0000
0000
0000
0000
0000
,
0000
0300
0100
0000
,
0010
1000
0010
1000
0010
1000
0010
1000
,
0001
0100
0001
0100
0001
0100
0001
0100
,
0010
0001
0000
0000
0000
0000
0200
0000
0000
0000
0000
0000
0000
0000
0000
0000
,
0000
0300
0100
0000
,
0010
1000
0010
0100
0010
0001
0010
0000
,
0020
0000
0000
0000
0000
0000
0030
0010
0000
0000
0000
0000
0000
0000
0000
0000
,
1000
0100
0001
0000
1100
0000
0101
0000
,
0010
0000
0010
1000
0001
0000
0101
0000
,
0010
0000
0101
0000
0010
0001
1000
1000
,
1000
0000
0000
0010
0100
0000
0100
0000
0100
0000
0100
0000
0100
0000
0010
0000
,
1000
0000
1001
0000
0001
0010
0000
1001
,
0000
0000
0100
0000
1000
0000
0000
0000
1000
0000
0000
0010
0100
0000
0010
0000
,
0100
0100
0001
0010
0010
0100
1000
0000
,
2010
0100
0010
0100
0010
0100
0010
0100
,
3001
0010
1000
0000
0011
0000
1010
0000
,
0010
0000
1000
0100
0001
0000
0011
0000
,
1010
0000
0100
1000
0100
0000
0100
0100
,
0100
0000
0000
0010
0001
0000
0001
0000
0001
0000
0001
0000
0001
0000
0000
0000
,
0001
0000
1001
0000
1000
0010
0000
1001
,
0000
0000
0100
0000
0001
0000
0000
0000
0001
0000
0000
0100
0010
0000
1000
0000
,
0100
0010
0010
0001
1000
0000
1000
0000
,
1000
0000
0000
0000
1000
0000
1000
0010
1000
0010
1000
0010
1000
0010
1000
0010
,
1000
0100
0010
0001
0200
0000
1300
0000
,
1001
0011
1100
0000
,
1000
0010
1000
0000
0001
0010
0001
0000
,
0100
1001
0100
0100
,
0010
0000
1000
0001
0100
0000
0100
1000
,
0010
0010
0012
0000
,
1003
0010
0100
0000
0001
0100
1000
0000
,
0010
0010
1001
1001
,
0001
0010
0100
1000
0002
0000
1003
0000
,
1001
0100
0200
0300
,
0001
0000
0000
1000
0010
0000
0000
0000
1000
0000
0000
0001
0010
0000
0000
0000
,
0100
0100
0000
0100
,
1000
0000
0010
1000
0100
0000
0100
0001
,
0010
0010
1001
0000
,
1001
0010
1001
0100
,
1001
0000
0000
1000
0100
0000
0001
0000
0020
0000
0000
0000
0000
0000
0000
0000
,
0030
0000
0000
0000
0000
0000
0010
0001
0100
0000
0000
0000
1000
0000
0000
0000
,
0010
0000
0000
0000
0000
0000
0010
0000
0001
0000
0000
0000
0000
0000
0000
0000
0110
0000
0000
1001
0000
0000
1010
0000
0101
0000
0000
0000
0000
0000
0000
0000
,
1001
0000
1000
0010
0100
0001
0100
1000
,
0010
0000
0110
0000
0010
1000
0200
0001
,
0301
0000
0000
0001
0100
0000
1000
0000
0100
0000
1000
0000
0010
0000
0000
0000
,
0020
0000
0000
0000
0000
0130
0000
0000
,
1001
0000
0000
0000
;

//---------------dance-single - ONI----------------
#NOTES:
     dance-single:
     ONI:
     Challenge:
     10:
     0.733,0.770,0.372,0.115,0.497:
0000
0000
0000
0000
,
0000
0000
0000
0000
,
0000
0000
0000
0000
,
0000
0000
0000
0000
,
1001
0000
1000
1000
0010
0000
0011
0000
,
0001
0000
0001
0000
0010
1000
0010
1000
0100
0000
0000
0000
1001
0000
0001
0100
,
0010
0000
0010
0000
1000
0000
0100
0000
1000
0100
1000
0100
0001
0000
0001
0000
,
0001
0010
0000
0010
0100
0000
0100
0000
1001
0000
0002
0000
0000
0000
0003
0000
,
1000
0100
0001
1001
1000
0100
0010
1001
,
1000
0100
0001
1001
1000
1000
1000
1001
,
0001
0100
1000
1001
0001
0100
0010
1001
,
0001
0100
1000
1001
0001
0001
0001
1001
,
1000
0100
0001
1001
1000
0100
0010
1001
,
1000
0100
0001
1001
1000
1000
1000
1001
,
0001
0100
1000
1001
0001
0100
0010
1001
,
0001
0100
1000
1001
0001
0001
0001
0000
,
0010
1000
0000
1000
0100
0000
0200
0000
0000
0000
0000
0000
0010
0000
0000
0000
,
0001
1300
0100
0010
,
0001
0000
0001
0000
0001
0010
0000
0000
1000
0000
1000
0000
1000
0010
0000
0000
,
0001
0000
0001
0000
0001
0010
0000
0000
0100
0000
0000
0000
1001
0000
0000
0000
,
0010
0001
0000
0001
0100
0000
0200
0000
0000
0000
0000
0000
0010
0000
0000
0000
,
1000
0301
0100
0010
,
1000
0000
1000
0000
1000
0010
0000
0000
0001
0000
0001
0000
0001
0010
0000
0000
,
0100
0000
0100
0000
0100
0100
0000
0100
0000
0000
0000
0000
0000
0000
0000
0000
,
1000
0000
0100
0000
0010
0000
0001
0000
0001
0000
0100
0010
0001
0000
0001
0010
,
0100
0000
0010
0100
1000
0000
1000
0000
1000
0000
1000
0100
0010
0000
1000
0001
,
0100
0000
0100
0001
1000
0000
0100
0010
0001
0000
0001
0010
0100
0000
1000
0000
,
1000
0000
0000
0010
0100
0000
0100
0000
0100
0000
0100
0000
0100
0000
0010
0100
,
0010
0000
1000
0001
1000
0000
0010
0100
0010
0000
0100
0000
0001
1000
0001
0000
,
0100
0010
0100
0000
0010
0000
0010
0100
1000
0000
0000
1000
0100
0000
0100
0000
,
0001
0000
0010
0000
0100
0000
1000
0000
0010
0000
0100
0001
1000
0000
0010
0000
,
1010
0101
1010
0101
1010
0101
1010
0101
,
0100
0000
0010
0000
1000
0000
0100
0000
0010
0000
0001
0010
0100
0000
0010
0100
,
1000
0000
1000
0100
0010
0000
0010
0000
0010
0000
0001
1000
0010
0000
0010
1000
,
0001
0000
0001
1000
0100
0000
0100
0010
0001
0000
0001
0100
0010
0000
0010
0000
,
0010
0000
0000
0010
1000
0000
1000
0000
1000
0000
1000
0000
1000
0000
0100
1000
,
0001
0000
0001
0010
0100
0000
0100
1000
0001
0000
0001
0000
1000
0010
0100
0000
,
0100
0001
1000
0000
1000
0000
0100
0010
0001
0000
0000
0100
0010
0000
1000
0000
,
0100
0000
0010
0000
0010
0000
0001
0000
1000
0000
1000
0100
1000
0000
1000
0001
,
1000
0000
1000
0010
1000
0000
1000
0010
1000
0010
1000
0010
1000
0010
1000
0010
,
1000
0000
0100
0000
0010
0000
0001
0000
0100
0000
0100
1000
0100
0000
0001
0000
,
0010
0000
0000
0010
0100
0000
1000
0000
2000
0000
0000
0000
3000
0000
0001
0000
,
1000
0010
1000
0010
1000
0000
1000
0000
0001
0010
0001
0010
0001
0000
0001
0000
,
0100
0000
0000
0000
1001
0000
0000
0010
0100
0000
0100
0000
0100
0000
0100
0000
,
0000
0000
0010
0000
1000
0000
0001
0000
0100
0000
0000
0010
0100
0000
1000
0000
,
0200
0000
0000
0000
0310
1000
0010
1000
0020
0000
0000
0000
0030
0000
0100
0010
,
1000
0000
1000
0100
0000
0000
0100
0010
0001
0000
0001
0100
0000
0000
0100
0010
,
0100
0000
0100
0000
0100
0000
0010
0100
0010
0000
0010
0100
1000
0000
0100
0000
,
0001
0000
0010
0000
0100
0000
1000
0000
0100
0000
0010
0001
0010
0000
0100
0000
,
1000
0000
0000
0010
0100
0000
0100
0000
0200
0000
0000
0000
0300
0000
0001
0000
,
0100
0001
0100
0001
0100
0000
0010
0000
1000
0010
1000
0010
1000
0000
0100
0000
,
0010
0000
0000
0000
1001
0000
0000
0010
0100
0000
0100
0000
0100
0000
0100
0000
,
0000
0000
0010
0000
0001
0000
1000
0000
0100
0000
0000
0010
0100
0000
0001
0000
,
0200
0000
0000
0000
0310
0001
0010
0001
0020
0000
0000
0000
0030
0000
0100
0010
,
0001
0000
0001
0100
0000
0000
0100
0010
1000
0000
1000
0100
0000
0000
0010
0000
,
0001
0010
0000
0100
1000
0000
0010
0000
0200
0000
0000
0000
0000
0000
0000
0000
,
0300
0000
0000
0000
0000
0000
0000
0000
0000
0000
0000
0000
0100
0000
0001
0000
0010
0000
0000
0000
0000
0000
0010
0100
1000
0000
0000
0000
0000
0000
1000
0100
,
0010
0000
0000
0000
0000
0000
0010
0000
0001
0000
0000
0000
1000
0000
0000
0000
0110
0000
0000
1001
0000
0000
1010
0000
0101
0000
0000
0000
0000
0000
0000
0000
,
1001
0000
1000
0000
0100
0000
0010
0000
0001
0000
0010
0001
0010
0000
0001
0000
,
0010
0000
0100
0010
0100
0000
1000
0000
0100
1000
0100
0000
1000
0000
0010
0000
,
0001
0000
1000
0100
0010
0000
1001
0000
0110
0000
1001
0000
0100
0000
0000
0000
,
0200
0000
0000
0000
0000
0320
0000
0030
,
1001
0000
0000
0000
;

//---------------dance-double - ----------------
#NOTES:
     dance-double:
     :
     Hard:
     8:
     0.546,0.592,0.115,0.105,0.143:
00000000
00000000
00000000
00000000
,
00000000
00000000
00000000
00000000
,
00000000
00000000
00000000
00000000
,
00000000
00000000
00000000
00000000
,
10000000
00000000
00100000
01000000
00010000
00000000
00100000
01000000
,
00001000
00000000
00010000
00000100
00000010
00000000
00001000
00000010
,
00000001
00000010
00001000
00000001
00000100
00000000
00001000
00010000
,
00001000
00100000
00000000
00100000
00001000
00000000
01000000
00000000
02200000
00000000
00000000
00000000
03300000
00000000
00000000
00000000
,
00100000
00000000
10000000
01000000
00100000
00000000
00001000
00100000
,
01000000
00000000
10000000
01000000
00100000
00000000
00001000
00010000
,
00000010
00000000
00000100
00000010
00010000
00000000
00000010
00000100
,
00001000
00000000
00010000
00001000
00000100
00000001
00000010
00000100
,
00001000
00000000
00000010
00000100
00001000
00000000
00010000
00000010
,
00000100
00000000
00001000
00010000
01000000
00000000
00100000
00001000
,
00010000
00000010
00000100
00000000
00000001
00000010
00000100
00000000
,
00001000
00000010
00010000
00001000
00100000
00010000
10000000
00000000
,
11000000
00000000
00000000
01000000
00100000
00000000
00100000
00000000
00000000
00000000
00001000
00000000
00010000
00000000
00000000
00000000
,
00010000
00000010
00000100
00000000
00000001
00000010
00000100
00000000
,
00001100
00000000
00000001
00000000
00000100
00000000
00000010
00010000
,
00001000
00100000
00000000
00020000
10000000
00000000
01030000
00000000
,
00110000
00000000
00000000
00010000
00001000
00000000
01000000
00000000
00100000
00000000
00000000
00000000
00000000
00000000
00001000
00000000
,
00010000
00000010
00000000
00000100
00000001
00000010
00000100
00001000
,
00000010
00000100
00000000
00000001
00001000
00000000
00000100
00000010
,
00010000
00000000
00010000
00000000
00001000
00000100
00000000
00001100
00000000
00000000
00000000
00000000
00000000
00000000
00000000
00000000
,
00000100
00000010
00001000
00000000
00000001
00000010
00000000
00000100
,
00010000
00001000
00100000
00010000
10000000
01000000
00100000
00001000
,
00010000
00000000
00000010
00000100
00000001
00000010
00000100
00001000
,
00000010
00000100
00000001
00000010
00000100
00000000
00011000
00000000
,
00100000
00010000
10000000
00000000
01000000
00100000
00001000
00010000
,
01000000
00100000
00001000
00010000
01000000
10000000
00010000
00100000
,
01000000
00000000
00010000
00001000
00000100
00000010
00001000
00000001
,
00000010
00000000
00000100
00001000
00000010
00000000
00000101
00000000
,
00000001
00000010
00000100
00001000
00000010
00000100
00001000
00000000
,
00010000
00001000
00010000
01000000
00100000
01000000
00010000
00001000
,
00010000
01000000
00100000
01000000
10000000
01000000
00100000
01000000
,
00010000
00001000
00000100
00000010
00001000
00000001
00000010
00000000
,
00000100
00001000
00000010
00000100
00000010
00000001
00000010
00001000
,
00000010
00010000
00000010
00001000
00010000
00001000
00100000
00001000
,
00010000
00001000
00100000
01000000
00100000
00001000
00010000
01000000
,
10000000
01000000
00100000
00010000
00001000
00010000
01000000
10000000
,
00010000
00000000
00000000
00000000
01000000
00000000
00000000
00001000
00100000
00000000
01000000
00000000
00010000
00000000
00000000
00000000
,
00001000
00000000
00000000
00000100
00000010
00000000
00001000
00000000
00000001
00000000
00000010
00000000
00000100
00000000
00000000
00000000
,
00001000
00000000
00000000
00000001
00000100
00000000
00000000
00000000
00001000
00000000
00000000
00000000
00000100
00000000
00010000
00000000
,
00001000
00000000
00000000
00100000
00010000
00000000
10000000
00000000
01000000
00000000
00000000
00000000
01100000
00000000
00000000
00000000
,
00001000
00000000
00010000
00000010
00000100
00000000
00000001
00000000
,
00000110
00000000
00000000
00001000
00010000
00000000
00000010
00000000
00000100
00000000
00000001
00000000
00000010
00000000
00000000
00000000
,
00000100
00000000
00000000
00000000
00001000
00000000
00000000
00000010
00010000
00000000
00001000
00000000
00100000
00000000
00000000
00000000
,
00010000
00000000
11000000
00100000
00001000
00010000
00000010
00000000
,
00000100
00000000
00000000
00000001
00000010
00000000
00000000
00000000
00000100
00000000
00000000
00000000
00001000
00000000
00000010
00000000
,
00010000
00000000
00000000
00001000
00100000
00000000
00001000
00000000
00010000
00000000
00000000
00000000
00000010
00000000
00000100
00000000
,
00001000
00000000
00000000
01000000
00100000
00000000
00000000
00000000
10000000
00000000
01000000
00000000
00100000
00000000
00000000
00000000
,
00001000
00000000
00000000
00010000
00001000
00000000
00010000
00000000
00000010
00000000
00000000
00000000
00000100
00000000
00000001
00000000
,
00000010
00000000
00000000
00001000
00000100
00000000
00010000
00000000
00000010
00000000
00000000
00000000
00000100
00000000
00001000
00000000
,
00010000
00000000
00000000
00100000
00001000
00000000
00010000
00000000
01000000
00000000
00000000
00000000
10000000
00000000
00000000
00000000
,
01000000
00000000
00000000
00100000
00001000
00000000
00100000
00000000
01000000
00000000
00000000
00000000
10000000
00000000
00010000
00000000
,
00100000
00000000
00000000
01000000
00010000
00000000
00001000
00000000
00000100
00000000
00000000
00000000
00000110
00000000
00000000
00000000
,
00200000
00000000
00000000
00000000
00000000
00000000
00000000
00000000
00000000
00000000
00000000
00000000
00000000
00000000
00000000
00000000
00000000
00000000
00000000
00000000
00000000
00000000
00000000
00000000
00000000
00000000
00000000
00000000
00000000
00000000
00000000
00000000
00000000
00000000
00000000
00000000
00000000
00000000
00000000
00000000
00000000
00000000
00000000
00000000
00000000
00000000
00000000
00000000
00000000
00000000
00000000
00000000
00000000
00000000
00000000
00000000
00000000
00000000
00000000
00000000
00000000
00000000
00000000
00000000
00010000
00000000
00000000
00000000
00000000
00000000
00000000
00000000
00000000
00000000
00000000
00000000
00000000
00000000
00300000
00000000
00100000
00000000
00000000
00000000
00000000
00000000
00000000
00000000
00000000
00000000
00000000
00000000
00000000
00000000
00000000
00000000
02000000
00000000
00000000
00000000
00000000
00000000
00000000
00000000
00000000
00000000
00000000
00000000
00000000
00000000
00000000
00000000
00000000
00000000
00000000
00000000
00000000
00000000
00000000
00000000
00000000
00000000
00000000
00000000
00000000
00000000
00000000
00000000
00000000
00000000
00000000
00000000
00000000
00000000
00000000
00000000
00000000
00000000
00000000
00000000
00000000
00000000
00000000
00000000
10000000
00000000
00000000
00000000
00000000
00000000
00000000
00000000
00000000
00000000
00000000
00000000
00000000
00000000
00000000
00000000
00000000
00000000
00000000
00000000
00000000
00000000
00000000
00000000
00000000
00000000
00000000
00000000
00000000
00000000
00000000
00000000
00000000
00000000
00000000
00000000
00000000
00000000
00000000
00000000
00000000
00000000
00000000
00000000
00000000
00000000
00000000
00000000
,
03200000
00000000
00000000
00000000
00000000
00000000
00010000
00000000
00302000
00000000
00000000
00000000
00000000
00000000
00000100
00000000
00003020
00000000
00000000
00000001
00000000
00000000
00000100
00000000
00002030
00000000
00000000
00000000
00000000
00000000
00000000
00000000
,
00013000
00000000
01000000
00000000
10000000
00000000
01000000
00000000
00100000
00000000
00000000
01000000
00001000
00000000
00000000
00000000
,
00010000
00000000
00000000
00000010
00000100
00000000
00000100
00000000
00000010
00000000
00000000
00000000
00001001
00000000
00000000
00000000
,
00000100
00000000
00000000
00010000
00001000
00000000
00100000
00000000
00010000
00000000
10000000
00000000
01000000
00000000
00000000
00000000
,
00100000
00000000
00000000
00001000
00000000
00000000
00010000
00000000
00000010
00000000
00000200
00000000
00000020
00000000
00000000
00000000
,
00000330
00000000
00000000
00000000
;

//---------------dance-double - ----------------
#NOTES:
     dance-double:
     :
     Medium:
     5:
     0.340,0.326,0.115,0.029,0.014:
00000000
00000000
00000000
00000000
,
00000000
00000000
00000000
00000000
,
00000000
00000000
00000000
00000000
,
00000000
00000000
00000000
00000000
,
00010000
00010000
00100000
00100000
,
01000000
10000000
00100000
00000000
,
00001000
00010000
00000010
00000100
,
00000001
00001000
00000000
00000100
00000010
00000000
00000110
00000000
,
00000001
00000100
00000010
00010000
,
00001000
00010000
00001000
00010000
,
01000000
00100000
01000000
10000000
,
00010000
01010000
00001000
00100000
,
00001000
00010000
00000100
00000010
,
00000001
00000010
00001000
00000010
,
00000100
00001000
00000100
00000010
,
00010000
00011000
00001000
00100000
,
01000000
00000000
00010000
00001000
00000000
00000010
00000000
00001000
,
00000000
00000001
00000000
00000010
00000000
00000100
00000000
00010000
,
00000000
00001000
00000000
00100000
00000000
01000000
00000000
10000000
,
00000000
01000000
00000000
00100000
00001000
00000000
01000000
00000000
,
00010000
00000000
00000010
00000100
00000000
00000001
00000000
00000010
,
00000000
00000100
00000000
00010000
00000000
00001000
00000000
00100000
,
00000000
00010000
00000000
10000000
00000000
01000000
00000000
00100000
,
00001000
00000000
00001000
00000000
00001000
00000000
00000000
00010000
00000000
00000000
00000000
00000000
00000000
00000000
00000000
00000000
,
01000000
00100000
10000000
01000000
,
00100000
01000000
00001000
00010000
,
00001000
00000100
00000010
00001000
,
00000001
00000010
00000100
00010000
,
00000100
00000010
00001000
00010000
,
01000000
00100000
00001000
00100000
,
01000000
10000000
00100000
01000000
,
00001000
00010000
00000010
00000100
,
00000001
00001000
00000100
00000010
,
00000100
00010000
00000010
00000100
,
00000010
00010000
00001000
01000000
,
00100000
00001000
00100000
00010000
,
00001000
00010000
01000000
10000000
,
01000000
00010000
00001000
00100000
,
01000000
00100000
00010000
00001000
,
00000100
00000000
00000010
00000000
00001000
00000000
00000001
00001000
,
00000001
00000101
00000010
00010000
,
00000100
00010000
00001000
01001000
,
00100000
00010000
00100000
10000000
,
01000000
01010000
00100000
01000000
,
10000000
00100000
00001000
00010000
,
00001000
00000100
00000010
00010000
,
00000010
00000100
00000101
00001001
,
00000200
00000000
00000010
00000310
,
00010000
00001000
00100000
01100000
,
00010000
10000000
00010000
00100000
,
01000000
00010000
00001000
00000100
,
00000010
00010000
00000010
00000001
,
00001000
00000101
00001000
00000100
,
00000010
00001001
00000100
00000010
,
00010000
00001000
00100000
01000000
,
00020000
00000000
00001000
00031000
,
00001000
00000000
00000100
00001000
,
00010000
00000000
00000000
00000000
00000000
00000000
00000000
00000000
00100000
00000000
00000000
00000000
00000000
00000000
00000000
00000000
10000000
00000000
00000000
10000000
00000000
00000000
10000000
00000000
00010000
00000000
00000000
00000000
00000000
00000000
00000000
00000000
,
00000010
00000100
00010000
00001000
,
00100000
01000000
10000000
00100000
,
00001000
00010000
00000010
00000100
,
00000001
00000101
00000200
00000000
,
00010300
00000000
00000000
00000000
;

//---------------dance-double - ----------------
#NOTES:
     dance-double:
     :
     Easy:
     4:
     0.292,0.296,0.124,0.038,0.000:
00000000
00000000
00000000
00000000
,
00000000
00000000
00000000
00000000
,
00000000
00000000
00000000
00000000
,
00000000
00000000
00000000
00000000
,
10000000
00000000
01000000
00000000
,
00100000
00000000
00001000
00000000
,
00010000
00000000
00000010
00000000
,
00000100
00001000
00001000
00001001
,
00000010
00000100
00000000
00010000
,
00001000
00000100
00000000
00001000
,
00010000
01000000
00000000
00010000
,
00000010
00000100
00000000
00001000
,
00100000
01000000
10000000
01000000
,
00000000
01000000
00010000
01000000
,
00000000
00100000
01000000
00001000
,
00000000
00010000
00000100
00000010
,
00000001
00000101
00000000
00000100
,
00000000
00010000
00000100
00000010
,
00000000
00001000
01000000
00100000
,
00000000
00010000
00000010
00000100
,
00001000
00101000
00000000
00010000
,
01000000
10000000
00000000
00010000
,
00001000
00000100
00000000
00001000
,
00000010
00000100
00000110
00000000
,
00000001
00000100
00000010
00010000
,
00000010
00000100
00000010
00010000
,
00001000
00100000
01000000
00100000
,
00001000
00010000
00100000
10000000
,
00010000
01000000
00100000
01000000
,
00001000
00010000
00000010
00010000
,
00001000
00000100
00000010
00000001
,
00000100
00001000
00010000
01000000
,
10000000
00100000
00010000
00001000
,
00010000
00001000
00000100
00000010
,
00000100
00000001
00000010
00000001
,
00000100
00000010
00010000
00000000
,
00001000
00100000
01000000
00100000
,
00010000
10000000
01000000
00100000
,
00001000
00010000
00001000
00000100
,
00000001
00000001
00000010
00000010
,
00010000
00001000
00000100
00000010
,
00000100
00001100
00010000
00100000
,
00010000
00001000
01000000
01100000
,
10000000
01000000
00000000
00100000
,
00000000
00001000
00010000
00000010
,
00000100
00000101
00000010
00000000
,
00000100
00010000
00000010
00000001
,
00001000
00001001
00001001
00000000
,
00000100
00000010
00000100
00010000
,
00001000
00010000
01000000
00100000
,
00001000
00100000
01000000
10000000
,
00100000
00001000
00011000
00001000
,
00000100
00000010
00000100
00000000
,
00000001
00000010
00001000
00000000
,
00010000
00001000
00000100
00000010
,
00000100
00010100
00010000
00000000
,
00010000
00000000
00200000
00300000
,
10000000
01000000
00020000
00031000
,
00000100
00000010
00000001
00000000
,
00000010
00000100
00001000
00000000
,
00010000
00011000
01000000
00100000
,
10020000
00000000
00000000
00000000
00000000
00002000
00000000
00000000
,
00033000
00000000
00000000
00000000
;

//---------------dance-double - ----------------
#NOTES:
     dance-double:
     :
     Challenge:
     10:
     0.789,0.739,0.153,0.067,0.812: // measure 1
00000000
00000000
00000000
00000000
,  // measure 2
00000000
00000000
00000000
00000000
,  // measure 3
00000000
00000000
00000000
00000000
,  // measure 4
00000000
00000000
00000000
00000000
,  // measure 5
10000000
00000000
00000000
01000000
00100000
00000000
00001000
00000000
00010000
00000000
00000000
00000010
00000100
00000000
00000001
00000000
,  // measure 6
00000010
00000000
00000000
00000100
00001000
00000001
00000100
00000010
00001000
00000000
00000000
00000000
00000000
00000000
00000100
00010000
,  // measure 7
00001000
00100000
00000000
00010000
10000000
00000000
01000000
00000000
00100000
00001000
00000000
00010000
00000010
00000000
00000100
00000000
,  // measure 8
00000001
00001000
00000000
00000100
00000010
00000000
00000001
00000000
00000110
00000000
00001000
00000100
00000010
00000000
00000110
00000000
,  // measure 9
00000001
00000100
00000000
00000100
00001000
00000000
00001000
00000000
00010000
01000000
00000000
01000000
10000000
00000000
10000000
00000000
,  // measure 10
10000000
00100000
00000000
00100000
00010000
00000000
00010000
00000000
00001000
00000010
00000000
00000010
00000001
00000000
00000001
00000000
,  // measure 11
00000100
00000010
00000000
00000010
00001000
00000000
00001000
00000000
00000100
00010000
00000000
00010000
00001000
00000000
00001000
00000000
,  // measure 12
00100000
00010000
00000000
00010000
10000000
00000000
10000000
00000000
01000000
00100000
00000000
00100000
00001000
00000000
00010000
00000000
,  // measure 13
00001000
00000000
00010000
00000010
00010000
00000000
00000010
00000000
00000100
00000000
00000001
00000010
00000001
00000000
00000010
00000000
,  // measure 14
00000100
00000000
00001000
00000100
00001000
00000000
00000010
00000000
00010000
00000000
00001000
00010000
00001000
00000000
00100000
00000000
,  // measure 15
00010000
00000000
00100000
00010000
00100000
00000000
01000000
00000000
10000000
00000000
01000000
00100000
01000000
00000000
00010000
00000000
,  // measure 16
00001000
00000000
00000100
00000010
00000100
00000000
00000010
00000000
00001000
00000000
00000001
00000010
00000001
00000000
00000100
00000000
,  // measure 17
00000010
00010000
00000000
00001000
00010000
00000000
00011000
00000000
00000000
00100000
00010000
00000000
10000000
00000000
01000000
00000000
,  // measure 18
00000000
00001000
00010000
00000000
00000010
00000000
00000100
00000000
00000000
00000001
00000100
00000000
00000010
00000000
00001000
00000000
,  // measure 19
00000000
00000100
00010000
00000000
00001000
00000000
00100000
00000000
00000000
00010000
10000000
00000000
01000000
00000000
00100000
00000000
,  // measure 20
00000000
00001000
00010000
00000000
00000010
00000000
00000100
00000000
00001001
00000000
00000010
00000000
00000110
00000000
00010000
00000000
,  // measure 21
00001000
01000000
00000000
00010000
00100000
00000000
01100000
00000000
10000000
01000000
00000000
00100000
01000000
00000000
00010000
00000000
,  // measure 22
00001000
00010000
00000000
00000010
00010000
00000000
00001000
00000000
00000100
00000001
00000000
00000010
00000100
00000000
00001000
00000000
,  // measure 23
00000010
00010000
00000000
00001000
00100000
00000000
00010000
00000000
10000000
01000000
00000000
00100000
00001000
00000000
00010000
00000000
,  // measure 24
00000010
00000000
00000100
00000000
00000001
00001000
00000000
00001001
00000000
00000000
00000000
00000000
00000000
00000000
00000000
00000000
,  // measure 25
00000100
00000000
00001000
00000000
00010000
00000000
01000000
00000000
10000000
00000000
00010000
01000000
00100000
00000000
10000000
01000000
,  // measure 26
00100000
00000000
00010000
01000000
00100000
00000000
10000000
00000000
00100000
00000000
00010000
00001000
00000100
00000000
00000001
00000100
,  // measure 27
00000010
00000000
00001000
00000010
00000100
00000000
00000001
00000010
00000100
00000000
00001000
00000010
00000100
00000000
00000001
00000000
,  // measure 28
00000010
00000000
00000000
00000100
00001000
00000000
00010000
00000000
00001000
00000000
00100000
00010000
10000000
00000000
01000000
00100000
,  // measure 29
00010000
00000000
00001000
00010000
00000010
00000000
00000100
00001000
00010000
00000000
00000100
00000000
00000010
00000001
00000100
00000000
,  // measure 30
00000010
00001000
00000100
00000000
00010000
00000000
00001000
00000100
00000010
00000000
00000000
00000001
00000100
00000000
00000010
00000000
,  // measure 31
00001000
00000000
00000100
00000000
00010000
00000000
00001000
00000000
00100000
00000000
10000000
01000000
00010000
00000000
00100000
00000000
,  // measure 32
00010000
00100000
00001000
00010000
00000010
00010000
00001000
00000100
,  // measure 33
00000001
00000000
00000010
00000000
00000100
00000000
00001000
00000000
00000010
00000000
00010000
00001000
00100000
00000000
00010000
10000000
,  // measure 34
01000000
00000000
00100000
00010000
00100000
00000000
00001000
00000000
00010000
00000000
01000000
00100000
00001000
00000000
00010000
01000000
,  // measure 35
10000000
00000000
00010000
00100000
01000000
00000000
00100000
00001000
00010000
00000000
00000010
00010000
00001000
00000000
00000100
00000000
,  // measure 36
00000010
00000000
00000000
00001000
00000001
00000000
00000010
00000000
00000100
00000000
00001000
00000000
00000010
00000000
00010000
00001000
,  // measure 37
00100000
00000000
00100000
00001000
00010000
00000000
01000000
10000000
00010000
00000000
00100000
00000000
01000000
00100000
00001000
00000000
,  // measure 38
00010000
00000010
00000100
00000000
00001000
00000000
00010000
00100000
01000000
00000000
00000000
10000000
01000000
00000000
00010000
00000000
,  // measure 39
00001000
00000000
00010000
00000000
00000100
00000000
00000010
00000000
00000001
00000000
00000100
00001000
00000010
00000000
00000100
00000001
,  // measure 40
00000010
00000000
00000001
00000010
00001000
00000000
00010000
00001000
01000000
00100000
01000000
00100000
10000000
00010000
10000000
00010000
,  // measure 41
10000000
00000000
01000000
00000000
00100000
00000000
00010000
00000000
00001000
00000000
00010000
00001000
00010000
00000000
00000010
00000100
,  // measure 42
00000010
00000000
00000000
00000001
00001000
00000000
00000010
00000000
00000100
00000000
00000000
00000000
00001001
00000000
00000100
00000010
,  // measure 43
00001000
00000100
00000000
00010000
00001000
00000000
00100000
00000000
00001000
00010000
00000000
00100000
01000000
00000000
10000000
00000000
,  // measure 44
01000000
00000000
00001000
00000000
00011000
00000000
00000000
00000000
00000010
00000000
00000100
00000010
00000100
00000000
00000101
00000000
,  // measure 45
00000000
00000000
00001000
00000100
00000010
00000000
00000001
00000000
00000100
00000000
00000000
00000010
00001000
00000000
00000100
00000000
,  // measure 46
00010000
00000000
00000000
00001000
00100000
00010000
00100000
00010000
00100000
00000000
00000000
01000000
10000000
00000000
00010000
00100000
,  // measure 47
01000000
00100000
00000000
00001000
00010000
00000000
00000010
00000000
00010000
00001000
00000000
00000100
00000010
00000000
00001000
00000000
,  // measure 48
00000001
00000010
00000000
00000100
00001000
00000000
00000010
00000000
00000110
00000000
00000000
00010000
00001000
00000000
00011000
00000000
,  // measure 49
01000000
00000000
00001000
00000000
00010000
00000000
01000000
00000000
00100000
00000000
00010000
10000000
01000000
00000000
00100000
00010000
,  // measure 50
00100000
00000000
00000000
00001000
00010000
00000000
00000010
00000000
00010000
00000000
00000000
00001000
00000100
00000000
00000010
00001000
,  // measure 51
00000001
00000100
00000000
00000010
00000100
00000000
00001000
00000000
00000001
00000100
00000000
00000010
00001000
00000000
00000100
00010000
,  // measure 52
00001000
00000000
00000000
00010000
00100000
00000000
00000000
00000000
10000000
01000000
00000000
00100000
00010000
00000000
00001000
00000000
,  // measure 53
00010000
00000000
00000010
00000100
00000010
00000000
00001000
00000000
00000001
00000000
00000000
00000010
00000100
00000000
00001000
00000000
,  // measure 54
00000010
00000000
00000000
00010000
00001000
00100000
00001000
00100000
00010000
00000000
00000000
10000000
01000000
00000000
00100000
00010000
,  // measure 55
00100000
00001000
00000000
00010000
00000010
00000000
00000100
00000000
00000010
00001000
00000000
00000001
00000010
00000000
00000100
00000000
,  // measure 56
00001000
00000010
00000000
00000100
00000010
00000000
00010000
00000000
00011000
00000000
00000000
00000000
00001000
00100000
00010000
10000000
,  // measure 57
02000000
00000000
00000000
00000000
00000000
00000000
00000000
00000000
00000000
00000000
00000000
00000000
00000000
00000000
00000000
00000000
00000000
00000000
00000000
00000000
00000000
00000000
00000000
00000000
00000000
00000000
00000000
00000000
00000000
00000000
00000000
00000000
00000000
00000000
00000000
00000000
00000000
00000000
00000000
00000000
00000000
00000000
00000000
00000000
00000000
00000000
00000000
00000000
00000000
00000000
00000000
00000000
00000000
00000000
00000000
00000000
00000000
00000000
00000000
00000000
00000000
00000000
00000000
00000000
00010000
00000000
00000000
00000000
00000000
00000000
00000000
00000000
00000000
00000000
00000000
00000000
00000000
00000000
00000000
00000000
00001000
00000000
00000000
00000000
00000000
00000000
00000000
00000000
00000000
00000000
00000000
00000000
00000000
00000000
00000000
00000000
03000100
00000000
00000000
00000000
00000000
00000000
00000000
00000000
00000000
00000000
00000000
00000000
00000000
00000000
00000000
00000000
00000000
00000000
00000000
00000000
00000000
00000000
00000000
00000000
00000001
00000000
00000000
00000000
00000000
00000000
00000100
00000000
00000000
00000000
00000000
00000000
00001000
00000000
00000000
00000000
00000000
00000000
00000100
00000000
00000000
00000000
00000000
00000000
00000010
00000000
00000000
00000000
00000000
00000000
00000000
00000000
00000000
00000000
00000000
00000000
00000000
00000000
00000000
00000000
00000000
00000000
00000000
00000000
00000000
00000000
00000000
00000000
00000000
00000000
00000000
00000000
00000000
00000000
00000000
00000000
00000000
00000000
00000000
00000000
00001000
00000000
00000000
00000000
00000000
00000000
00010000
00000000
00000000
00000000
00000000
00000000
,  // measure 58
00200000
00000000
00000000
00000000
00000000
00000000
10000000
00000000
00320000
00000000
00000000
00000000
00000000
00000000
00001000
00000000
00030200
00000000
00000000
00000001
00000000
00000000
00000001
00000000
00002000
00000000
00000000
00000000
00003300
00000000
00000000
00000000
,  // measure 59
00010000
00000000
00001000
00000000
00100000
00000000
01000000
00000000
10000000
00000000
00000000
00010000
10000000
00000000
01000000
00000000
,  // measure 60
00100000
00000000
00000000
00001000
00010000
00000000
00000100
00000000
00000010
00000000
00001000
00000100
00000001
00000000
00001000
00000000
,  // measure 61
00000010
00000000
00010000
00001000
00100000
00000000
01000000
00000000
10010000
00000000
10010000
00000000
01000000
10000000
00010000
02000000
,  // measure 62
00200000
00000000
00000000
00000000
00000000
00000000
00000000
00000000
03300000
00000000
00001000
00010000
00000100
00000000
00000110
00000000
;

//---------------dance-single - ----------------
#NOTES:
     dance-single:
     :
     Beginner:
     1:
     0.162,0.237,0.000,0.000,0.000:
0000
0000
0000
0000
,
0000
0000
0000
0000
,
0000
0000
0000
0000
,
0000
0000
0000
0000
,
0000
0001
0000
0001
,
0000
0010
0000
0010
,
0000
0001
0000
1000
,
1000
0000
0010
0010
,
0010
0000
0000
0000
,
0010
0000
0000
0000
,
0010
0000
0000
0000
,
0010
0000
1000
0000
,
0010
0000
0000
0000
,
0010
0000
0000
0000
,
0010
0000
0000
0000
,
0010
0000
0000
0000
,
0001
0001
0000
0000
,
0001
0000
0000
0000
,
0001
0000
0000
0000
,
0001
0000
1000
1000
,
1000
0000
0000
0000
,
1000
0000
0000
0000
,
1000
0000
0000
0000
,
1000
1000
0000
0000
,
0100
0000
0010
0010
,
0010
0010
0010
0010
,
0010
0010
0010
0010
,
0010
0000
0010
0000
,
0100
0000
0100
0100
,
0100
0100
0100
0100
,
0100
0000
0100
0000
,
0100
0000
0000
0000
,
0010
0000
0010
0010
,
0010
0010
0010
0000
,
0010
0000
0010
0000
,
0100
0000
0100
0100
,
0100
0000
0100
0100
,
0100
0100
0100
0000
,
0010
0000
0001
0000
,
1000
0000
0000
0000
,
0010
0000
0001
0000
,
1000
0000
0000
0000
,
0010
0000
1000
0000
,
0001
0000
0010
0000
,
0000
0010
0000
0100
,
0100
0000
1000
0000
,
0001
0000
0100
0000
,
1000
0000
0010
0000
,
0000
0100
0000
0010
,
0010
0000
0001
0000
,
1000
0000
0010
0000
,
0001
0000
0100
0000
,
0001
0000
0000
1000
,
1000
0000
0010
0000
,
0100
0000
0010
0000
,
0001
0001
0001
0000
,
1000
0000
0100
0000
,
0001
0001
0001
0000
,
0000
1000
0000
0010
,
0010
0000
0001
0000
,
0010
0000
1000
0000
,
0100
0000
0000
0010
,
0010
0000
0000
0000
;
