#TITLE:sunday;
#SUBTITLE:;
#ARTIST:MIKE;
#TITLETRANSLIT:;
#SUBTITLETRANSLIT:;
#ARTISTTRANSLIT:;
#CREDIT:;
#BANNER:sunday.png;
#BACKGROUND:sunday-bg.png;
#LYRICSPATH:;
#CDTITLE:cdtitle.png;
#MUSIC:sunday.mp3;
#OFFSET:-1.920;
#SAMPLESTART:24.960;
#SAMPLELENGTH:12.000;
#SELECTABLE:YES;
#BPMS:0.000=125.000;
#STOPS:;
#BGCHANGES:;

//---------------dance-single - BASIC----------------
#NOTES:
     dance-single:
     BASIC:
     Easy:
     2:
     0.171,0.224,0.257,0.000,0.000:
0000
0000
0000
0000
,
0000
0000
0000
0000
,
0000
0000
0000
0000
,
0000
0000
0000
0000
,
0010
0000
0010
0000
,
0010
0000
0010
0000
,
0010
0000
0010
0000
,
0010
0000
0000
0000
,
0001
0000
0001
0001
,
1000
0000
1000
1000
,
0001
0000
0001
0001
,
1000
0000
1000
1000
,
1000
0000
1000
1000
,
0001
0000
0001
0001
,
1000
0000
1000
1000
,
0001
0000
0001
0001
,
1001
0000
0000
0000
,
1001
0000
0000
0000
,
1001
0000
0000
0000
,
1001
0000
1001
0000
,
1001
0000
0000
0000
,
1001
0000
0000
0000
,
1001
0000
0000
0000
,
1001
0000
1001
0000
,
0001
0000
0000
0000
,
1000
0000
0000
0000
,
0001
0000
0000
0000
,
1000
0000
0000
0000
,
1000
0000
0000
0000
,
0001
0000
0000
0000
,
1000
0000
0000
0000
,
0001
0000
0000
0000
,
1001
0000
0000
0000
,
1001
0000
0000
0000
,
1001
0000
0000
0000
,
1001
0000
1001
0000
,
1001
0000
0010
0000
,
1001
0000
0010
0010
,
1001
0000
0010
0000
,
1001
0000
1001
0000
,
1000
0000
1000
1000
,
0001
0000
0001
0001
,
1000
0000
1000
1000
,
0001
0000
0001
0001
,
0001
0000
0001
0001
,
1000
0000
1000
1000
,
0001
0000
0001
0001
,
1000
0000
1000
1000
,
1001
0000
0010
0000
,
1001
0000
0010
0000
,
1001
0000
0010
0000
,
1001
0000
0010
0010
,
1001
0000
0010
0000
,
1001
0000
0010
0000
,
1001
0000
0010
0000
,
1001
0000
0010
0010
,
1001
0000
0000
0000
;

//---------------dance-single - ONI?----------------
#NOTES:
     dance-single:
     ONI?:
     Edit:
     9:
     0.630,0.724,1.000,0.018,0.027:
0000
0000
0000
0000
,
0000
0000
0000
0000
,
0000
0000
0000
0000
,
0000
0000
0000
0000
,
1000
1000
1000
0000
0001
0001
0001
0000
,
1000
1000
1000
0000
0001
0001
0001
0000
,
1000
1000
1000
0000
0001
0001
0001
0000
,
1001
0000
0000
0000
,
1000
0010
1000
0001
0001
1000
0001
0001
,
1000
0010
1000
0100
0100
1000
0100
0100
,
1000
0010
1000
0001
0001
1000
0001
0001
,
1000
0010
1000
0100
0001
1001
0100
1001
,
0001
0010
0001
1000
1000
0001
1000
1000
,
0001
0010
0001
0100
0100
0010
0100
0100
,
0001
0010
0001
1000
1000
0001
1000
1000
,
0001
0010
0001
0100
1000
1001
0010
1001
,
1001
1001
1001
0000
0001
0100
1000
0000
,
1001
1001
1001
0000
1000
0100
0001
0000
,
1001
1001
1001
0000
0001
0010
1000
0000
,
1001
1001
0110
1001
1001
1001
0110
1001
,
1001
1001
1001
0000
1000
0010
0001
0000
,
1001
1001
1001
0000
0001
0010
1000
0000
,
1001
1001
1001
0000
1000
0100
0001
0000
,
1001
1001
0110
1001
1001
1001
0110
1001
,
1001
0001
1000
1000
0001
0001
1000
1000
,
0001
0001
1000
1000
0001
0001
1000
1000
,
0001
0001
1000
1000
0001
0001
1000
1000
,
0001
0000
0000
0000
0000
0000
0001
0000
0000
0000
0000
0000
1000
0000
0000
0000
0000
0000
1000
0000
0000
0000
0000
0000
0010
0000
1000
0000
0000
0000
0010
0000
1000
0000
0000
0000
0001
0000
0000
1000
0000
0000
0000
0000
0000
0000
0000
0000
,
1000
1000
0001
0001
1000
1000
0001
0001
,
1000
1000
0001
0001
1000
1000
0001
0001
,
1000
1000
0001
0001
1000
1000
0001
0001
,
1000
0000
0000
0000
0000
0000
1000
0000
0000
0000
0000
0000
0001
0000
0000
0000
0000
0000
0001
0000
0000
0000
0000
0000
0010
0000
0001
0000
0000
0000
0010
0000
0001
0000
0000
0000
1000
0000
0000
0001
0000
0000
0000
0000
0000
0000
0000
0000
,
1001
0110
1001
0000
0001
0010
0100
0000
,
1001
0110
1001
0000
1000
0010
0100
0000
,
1001
0110
1001
0000
0001
0010
0100
0000
,
1001
1001
0110
1001
1001
1001
0110
1001
,
1001
0110
1001
0000
0110
0000
0110
0000
,
1001
0110
1001
0000
0010
0010
0010
0000
,
1001
0110
1001
0000
0110
0000
0110
0000
,
1001
0110
1001
1001
0110
0110
0110
0110
,
0001
0010
0001
1000
1000
0001
1000
1000
,
0001
0010
0001
0100
0100
0001
0100
0100
,
0001
0010
0001
1000
1000
0001
1000
1000
,
0001
0010
0001
0100
1000
1001
0100
1001
,
1000
0010
1000
0001
0001
1000
0001
0001
,
1000
0010
1000
0100
0100
0010
0100
0100
,
1000
0010
1000
0001
0001
1000
0001
0001
,
1000
0010
1000
0100
0001
1001
0010
1001
,
0110
1001
0110
0000
0100
0010
0100
0000
,
1001
0110
1001
0000
0120
0100
0130
0000
,
1001
1001
1001
0000
0110
0010
0110
0000
,
1001
1001
0110
1001
1001
1001
0110
1001
,
0110
0110
0110
0000
0010
0100
0010
0000
,
1001
0110
1001
0000
0210
0010
0310
0000
,
0110
1001
0110
0000
1001
0001
1001
0000
,
1001
0110
1001
0110
1001
0110
1001
0110
,
1001
0110
0000
0000
;

//---------------dance-single - HEAVY----------------
#NOTES:
     dance-single:
     HEAVY:
     Hard:
     6:
     0.375,0.399,0.204,0.000,0.009:
0000
0000
0000
0000
,
0000
0000
0000
0000
,
0000
0000
0000
0000
,
0000
0000
0000
0000
,
0000
0000
1000
1010
0000
0000
0001
0011
,
0000
0000
1000
1010
0000
0000
0001
0011
,
0000
0000
1000
1100
0000
0000
0001
0101
,
0000
0000
0000
0000
,
1000
0010
1000
0001
0001
0000
0001
0000
,
1000
0010
1000
0100
0100
0000
0100
0000
,
1000
0010
1000
0001
0001
0000
0001
0000
,
1000
0010
1000
0100
0100
0000
0001
0000
,
0001
0010
0001
1000
1000
0000
1000
0000
,
0001
0010
0001
0100
0100
0000
0100
0000
,
0001
0010
0001
1000
1000
0000
1000
0000
,
0001
0010
0001
0100
0100
0000
1000
0000
,
0001
0100
1000
0000
0001
0000
1000
0000
,
1000
0100
0001
0000
1000
0000
0001
0000
,
0001
0100
1000
0000
0001
0000
1000
0000
,
1001
0010
1001
0110
,
1000
0100
0001
0000
1000
0000
0001
0000
,
0001
0100
1000
0000
0001
0000
1000
0000
,
1000
0100
0001
0000
1000
0000
0001
0000
,
1001
0010
1001
0110
,
0001
0001
0001
0001
,
1000
1000
1000
1000
,
0001
0001
0001
0001
,
1000
0000
0000
0000
1000
0000
0000
0000
1000
0000
1000
0000
0001
1000
0000
0000
,
0001
0001
0001
0001
,
1000
1000
1000
1000
,
0001
0001
0001
0001
,
1000
0000
0000
0000
1000
0000
0000
0000
1000
0000
1000
0000
0001
1000
0000
0000
,
1000
0100
0001
0000
0001
0000
0010
0000
,
1000
0100
0001
0000
0001
0000
0010
0000
,
1000
0100
0001
0000
0001
0000
0010
0000
,
1000
1000
1000
1000
1000
1000
1000
1000
,
1000
0100
0001
0000
0110
0000
0110
0000
,
0001
0100
1000
0000
0010
0010
0010
0000
,
1000
0100
0001
0000
0110
0000
0110
0000
,
1001
0000
0010
0000
0100
0100
0100
0000
,
0001
0010
0001
1000
1000
0000
1000
0000
,
0001
0010
0001
0100
0100
0000
0100
0000
,
0001
0010
0001
1000
1000
0000
1000
0000
,
0001
0010
0001
0100
0100
0000
1000
0000
,
1000
0010
1000
0001
0001
0000
0001
0000
,
1000
0010
1000
0100
0100
0000
0100
0000
,
1000
0010
1000
0001
0001
0000
0001
0000
,
1000
0010
1000
0100
0100
0000
0001
0000
,
0001
0010
1000
0000
1000
0000
0100
0000
,
0001
0010
1000
0000
0100
0100
0100
0000
,
0001
0010
1000
0000
0110
0000
0110
0000
,
0001
0001
0001
0001
0001
0001
0001
0001
,
0001
0100
1000
0000
1000
0000
0010
0000
,
0001
0100
1000
0000
0010
0010
0010
0000
,
0001
0100
1000
0000
1001
0000
1001
0000
,
1001
0000
0010
0000
1000
0100
0001
0000
,
1001
0010
0000
0000
;

//---------------dance-single - TRICK----------------
#NOTES:
     dance-single:
     TRICK:
     Medium:
     3:
     0.256,0.275,0.373,0.000,0.000:
0000
0000
0000
0000
,
0000
0000
0000
0000
,
0000
0000
0000
0000
,
0000
0000
0000
0000
,
0010
0010
0010
0010
,
0010
0010
0010
0010
,
0010
0010
0010
0010
,
0010
0010
0010
0010
,
0001
1000
0001
0001
,
1000
0001
1000
1000
,
0001
1000
0001
0001
,
1000
0001
0010
0010
,
1000
0001
1000
1000
,
0001
1000
0001
0001
,
1000
0001
1000
1000
,
0001
1000
0010
0010
,
1001
0000
0110
0000
,
1001
0000
0110
0000
,
1001
0000
0110
0000
,
1001
0000
1001
0000
,
1001
0000
0110
0000
,
1001
0000
0110
0000
,
1001
0000
0110
0000
,
1001
0000
1001
0000
,
0001
0000
0001
0000
,
1000
0000
1000
0000
,
0001
0000
0001
0000
,
1000
0000
0010
0010
,
1000
0000
1000
0000
,
0001
0000
0001
0000
,
1000
0000
1000
0000
,
0001
0000
0010
0010
,
1001
0000
0110
0000
,
1001
0000
0110
0000
,
1001
0000
0110
0000
,
1001
0000
1001
0000
,
1001
0000
0010
0010
,
1001
0000
0000
0000
0010
0010
0010
0000
,
1001
0000
0010
0010
,
1001
0000
1001
0110
,
0001
1000
0001
0001
,
1000
0001
1000
1000
,
0001
1000
0001
0001
,
1000
0001
0010
0010
,
1000
0001
1000
1000
,
0001
1000
0001
0001
,
1000
0001
1000
1000
,
0001
1000
0010
0010
,
1001
0000
0010
0010
,
1001
0000
0110
0000
,
1001
0000
0010
0010
,
1001
0000
0000
0000
0010
0010
0010
0000
,
1001
0000
0110
0000
,
1001
0000
0000
0000
0010
0010
0010
0000
,
1001
0000
0010
0010
,
1001
0000
0110
0000
,
1001
0010
0000
0000
;

//---------------dance-single - ONI----------------
#NOTES:
     dance-single:
     ONI:
     Challenge:
     8:
     0.629,0.674,0.790,0.098,0.235: // measure 1
0000
0000
0000
0000
,  // measure 2
0000
0000
0000
0000
,  // measure 3
0000
0000
0000
0000
,  // measure 4
0000
0000
0000
0000
,  // measure 5
1000
0000
0000
0001
0100
0000
0000
0000
0100
0000
0000
0000
0100
0000
0000
0010
1000
0000
0000
0001
0100
0000
0000
0000
0100
0000
0000
0000
0100
0000
0000
0010
,  // measure 6
1000
0000
0000
0001
0100
0000
0000
0000
0100
0000
0000
0000
0100
0000
0000
0010
1000
0000
0000
0001
0100
0000
0000
0000
0100
0000
0000
0000
0100
0000
0000
0010
,  // measure 7
1000
0000
0000
0001
0100
0000
0000
0000
0100
0000
0000
0000
0100
0000
0000
0010
1000
0000
0000
0001
0100
0000
0000
0000
0100
0000
0000
0000
0100
0000
0000
0000
,  // measure 8
1001
0000
0000
0000
,  // measure 9
1000
0000
0000
1000
0100
0000
0000
0000
1000
0000
0000
1000
0100
0000
0000
0000
1000
0000
0000
0000
1000
0000
0000
0000
1000
0000
0000
0000
0000
0000
0000
0000
,  // measure 10
1000
0000
0000
1000
0010
0000
0000
0000
1000
0000
0000
1000
0010
0000
0000
0000
1000
0000
0000
0000
1000
0000
0000
0000
1000
0000
0000
0000
0000
0000
0000
0000
,  // measure 11
1000
0000
0000
1000
0001
0000
0000
0000
1000
0000
0000
1000
0001
0000
0000
0000
1000
0000
0000
0000
1000
0000
0000
0000
1000
0000
0000
0000
0000
0000
0000
0000
,  // measure 12
1000
0000
0000
1000
0100
0000
0000
0000
1000
0000
0000
1000
0010
0000
0000
0000
1000
0000
0000
0000
1001
0000
0000
0000
1010
0000
0000
0000
1100
0000
0000
0000
,  // measure 13
0001
0000
0000
0001
0100
0000
0000
0000
0001
0000
0000
0001
0100
0000
0000
0000
0001
0000
0000
0000
0001
0000
0000
0000
0001
0000
0000
0000
0000
0000
0000
0000
,  // measure 14
0001
0000
0000
0001
0010
0000
0000
0000
0001
0000
0000
0001
0010
0000
0000
0000
0001
0000
0000
0000
0001
0000
0000
0000
0001
0000
0000
0000
0000
0000
0000
0000
,  // measure 15
0001
0000
0000
0001
1000
0000
0000
0000
0001
0000
0000
0001
1000
0000
0000
0000
0001
0000
0000
0000
0001
0000
0000
0000
0001
0000
0000
0000
0000
0000
0000
0000
,  // measure 16
0001
0000
0000
0001
0100
0000
0000
0000
0001
0000
0000
0001
0010
0000
0000
0000
0001
0000
0000
0000
1001
0000
0000
0000
0011
0000
0000
0000
0101
0000
0000
0000
,  // measure 17
0001
0100
1001
0000
0020
0000
0030
0000
,  // measure 18
1000
0100
1001
0000
0020
0000
0030
0000
,  // measure 19
0001
0100
1001
0000
0020
0000
0030
0000
,  // measure 20
1001
1000
0110
0001
1001
1000
0110
0001
,  // measure 21
1001
0100
1001
0000
0020
0000
0030
0000
,  // measure 22
1001
0100
1001
0000
0020
0000
0030
0000
,  // measure 23
1001
0100
1001
0000
0020
0000
0030
0000
,  // measure 24
1001
0001
0110
1000
1001
0001
0110
1000
,  // measure 25
1001
0001
0010
0010
0001
0001
0010
0010
,  // measure 26
0001
0001
0010
0010
0001
0001
0010
0010
,  // measure 27
0001
0001
0010
0010
0001
0001
0010
0010
,  // measure 28
0001
0000
0000
0000
0000
0000
0001
0000
0000
0000
0000
0000
0010
0000
0000
0000
0000
0000
0010
0000
0000
0000
0000
0000
0001
0000
0010
0000
0000
0000
0001
0000
0010
0000
0000
0000
0001
0000
0000
1000
0000
0000
0000
0000
0000
0000
0000
0000
,  // measure 29
1000
1000
0100
0100
1000
1000
0100
0100
,  // measure 30
1000
1000
0100
0100
1000
1000
0100
0100
,  // measure 31
1000
1000
0100
0100
1000
1000
0100
0100
,  // measure 32
1000
0000
0000
0000
0000
0000
1000
0000
0000
0000
0000
0000
0100
0000
0000
0000
0000
0000
0100
0000
0000
0000
0000
0000
1000
0000
0100
0000
0000
0000
1000
0000
0100
0000
0000
0000
1000
0000
0000
0001
0000
0000
0000
0000
0000
0000
0000
0000
,  // measure 33
1001
0100
0001
0000
0020
0000
0030
0000
,  // measure 34
1001
0100
1000
0000
0020
0000
0030
0000
,  // measure 35
1001
0100
0001
0000
0020
0000
0030
0000
,  // measure 36
1001
0100
0011
0100
1010
0100
0011
0100
,  // measure 37
1001
0100
1000
0000
0110
1001
0110
0000
,  // measure 38
1001
0100
0001
0000
0010
0010
0010
0000
,  // measure 39
1001
0100
1000
0000
1001
0110
1001
0000
,  // measure 40
1001
0000
0010
0000
1001
0000
0110
0000
0100
0010
0100
0010
0100
0010
0100
0010
,  // measure 41
1001
0000
0000
0001
0100
0000
0000
0000
0001
0000
0000
0001
0100
0000
0000
0000
0001
0000
0000
0000
0001
0000
0000
0000
0101
0000
0000
0000
0001
0000
0000
0000
,  // measure 42
0001
0000
0000
0001
0010
0000
0000
0000
0001
0000
0000
0001
0010
0000
0000
0000
0001
0000
0000
0000
0001
0000
0000
0000
0011
0000
0000
0000
0001
0000
0000
0000
,  // measure 43
0001
0000
0000
0001
1000
0000
0000
0000
0001
0000
0000
0001
1000
0000
0000
0000
0001
0000
0000
0000
0001
0000
0000
0000
1001
0000
0000
0000
0001
0000
0000
0000
,  // measure 44
0001
0000
0000
0001
0100
0000
0000
0000
0001
0000
0000
0001
0010
0000
0000
0000
0001
0000
0000
0000
1001
0000
0000
0000
0011
0000
0000
0000
0101
0000
0000
0000
,  // measure 45
1000
0000
0000
1000
0100
0000
0000
0000
1000
0000
0000
1000
0100
0000
0000
0000
1000
0000
0000
0000
1000
0000
0000
0000
1100
0000
0000
0000
1000
0000
0000
0000
,  // measure 46
1000
0000
0000
1000
0010
0000
0000
0000
1000
0000
0000
1000
0010
0000
0000
0000
1000
0000
0000
0000
1000
0000
0000
0000
1010
0000
0000
0000
1000
0000
0000
0000
,  // measure 47
1000
0000
0000
1000
0001
0000
0000
0000
1000
0000
0000
1000
0001
0000
0000
0000
1000
0000
0000
0000
1000
0000
0000
0000
1001
0000
0000
0000
1000
0000
0000
0000
,  // measure 48
1000
0000
0000
1000
0100
0000
0000
0000
1000
0000
0000
1000
0010
0000
0000
0000
1000
0000
0000
0000
1001
0000
0000
0000
1010
0000
0000
0000
1100
0000
0000
0000
,  // measure 49
1001
1001
1001
0000
1001
0000
0110
0000
,  // measure 50
1001
1001
1001
0000
0100
0100
0100
0000
,  // measure 51
1001
1001
1001
0000
0020
0000
0030
0000
,  // measure 52
1001
0100
1001
0010
1001
0100
1001
0010
,  // measure 53
1001
0110
1001
0000
0020
0000
0030
0000
,  // measure 54
1001
0110
1001
0000
0010
0010
0010
0000
,  // measure 55
1001
0110
1001
0000
1001
0000
0110
0000
,  // measure 56
1001
0100
0011
0100
1010
0100
0011
0100
,  // measure 57
1001
0110
0000
0000
;
