#TITLE:スペクトラム;
#SUBTITLE:;
#ARTIST:エルリ鳥;
#TITLETRANSLIT:spectrum;
#SUBTITLETRANSLIT:;
#ARTISTTRANSLIT:eruritori;
#CREDIT:;
#BANNER:spectrum.png;
#BACKGROUND:spectrum-bg.png;
#LYRICSPATH:;
#CDTITLE:cdtitle.png;
#MUSIC:spectrum.mp3;
#OFFSET:-1.740;
#SAMPLESTART:100.920;
#SAMPLELENGTH:12.000;
#SELECTABLE:YES;
#BPMS:0.000=138.000,160.000=69.000,176.000=138.000;
#STOPS:176.000=1.304
;
#BGCHANGES:0.000=spectrum.avi=1.000=1=1=0,
304.750=spectrum-bg.png=1.000=1=0=1,
99999=-nosongbg-=1.000=0=0=0 // don't automatically add -songbackground-
;

//---------------dance-single - BASIC----------------
#NOTES:
     dance-single:
     BASIC:
     Easy:
     2:
     0.163,0.223,0.006,0.143,0.000:
0000
0000
0000
0000
,
0000
0000
0000
0000
,
0000
0000
0000
0000
,
0000
0000
0000
0000
,
0001
0001
0100
0000
,
1000
1000
0100
0000
,
0001
0001
0100
0000
,
1000
1000
0100
0000
,
0002
0003
0001
0001
,
2000
3000
1000
1000
,
0200
0300
0100
0100
,
0010
0010
0010
0001
,
2000
3000
1000
1000
,
0002
0003
0001
0001
,
0200
0300
0100
0100
,
0010
0010
0010
1000
,
0001
0000
0000
0000
,
0001
0000
0000
0000
,
1000
0000
0000
0000
,
1000
0000
0000
0000
,
0001
0000
0000
0000
,
0001
0000
0000
0000
,
1000
0000
0000
0000
,
1000
0000
0000
0000
,
0001
0000
0001
0000
,
0010
0000
0010
0000
,
0100
0000
0100
0000
,
1000
0000
1000
0000
,
0001
0000
0001
0000
,
0010
0000
0010
0000
,
0100
0000
0100
0000
,
1000
0000
1000
0000
,
0002
0000
0000
0003
0000
0000
0020
0000
,
0000
0030
0000
0000
0200
0000
0000
0300
,
0000
0000
2000
0000
0000
3000
0000
0000
,
0020
0000
0000
0030
0000
0000
0200
0000
,
0000
0300
0000
0000
0002
0000
0000
0003
,
0000
0000
0020
0000
0000
0030
0000
0000
,
2000
0000
0000
3000
0000
0000
0002
0000
,
0000
0003
0000
0000
0200
0000
0000
0300
,
1001
0000
0000
0000
,
0010
0000
0000
0000
,
0100
0000
0000
0000
,
1000
0000
0000
0000
,
0001
1000
0000
0100
,
0000
0010
0000
0001
,
0000
0001
0000
0010
,
0000
0100
0000
1000
,
0000
1000
0000
0100
,
0000
0010
0000
0001
,
0000
0001
0000
0010
,
0000
0100
0000
1000
,
0000
0001
0010
0100
,
1000
0001
0010
0100
,
1000
0001
0010
0100
,
1000
0001
0010
0100
,
1000
1000
0100
0010
,
0001
1000
0100
0010
,
0001
1000
0100
0010
,
0001
1000
0010
0100
,
0001
2000
3000
1000
,
1000
0002
0003
0001
,
0001
2000
3000
1000
,
1000
0002
0003
0001
,
0001
1000
0000
1000
,
0000
0001
0000
0001
,
0000
1000
0000
1000
,
0000
0001
0000
0001
,
0000
1000
0000
0000
,
0000
1000
0000
0000
,
0000
0001
0000
0000
,
0000
0001
0000
0000
,
0000
1000
0000
0000
,
0000
0000
0000
0000
,
0000
0001
0000
0000
,
0000
0000
0000
0000
0000
0000
0000
0020
,
0000
0000
0000
0030
0000
0000
0000
0000
0000
0000
0000
0000
0000
0000
0000
0000
;

//---------------dance-single - TRICK----------------
#NOTES:
     dance-single:
     TRICK:
     Medium:
     4:
     0.279,0.346,0.136,0.045,0.000:
0000
0000
0000
0000
,
0000
0000
0000
0000
,
0000
0000
0000
0000
,
0000
0000
0000
0000
,
0001
0000
0001
0000
0001
0010
0001
0000
,
1000
0000
1000
0000
1000
0010
1000
0000
,
0001
0000
0001
0000
0001
0010
0001
0000
,
1000
0000
1000
0000
1000
0100
1000
0000
,
1001
0000
0001
0000
0001
0010
0001
0000
,
1001
0000
1000
0000
1000
0010
1000
0000
,
1001
0000
0001
0000
0001
0010
0001
0000
,
0001
0010
1000
0000
1000
0100
1000
0000
,
1001
0000
1000
0000
1000
0100
1000
0000
,
1001
0000
0001
0000
0001
0100
0001
0000
,
1001
0000
1000
0000
1000
0010
1000
0000
,
1000
0010
0001
0000
0001
0100
0001
0000
,
0001
0001
0000
0000
0001
0000
0001
0000
,
0001
0001
0000
0000
0001
0000
0001
0000
,
1000
1000
0000
0000
1000
0000
1000
0000
,
1000
1000
0000
0000
1000
0000
1000
0000
,
0001
0010
0000
0000
0001
0000
0001
0000
,
0001
0010
0000
0000
0001
0000
0001
0000
,
1000
0010
0000
0000
1000
0000
1000
0000
,
1000
0010
0001
0000
1000
0001
1000
0000
,
0001
0010
0001
0000
,
0010
0010
0010
0000
,
0100
1000
0100
0000
,
1000
1000
1000
0000
,
0001
1000
0001
0000
,
1000
1000
1000
0000
,
0100
0010
0100
0000
,
0001
0001
0001
0000
,
0001
0000
0000
0010
0000
0000
0100
0000
,
0000
1000
0000
0000
1000
0000
0000
0001
,
0000
0000
0010
0000
0000
0100
0000
0000
,
1000
0000
0000
1000
0000
0000
0100
0000
,
0000
0001
0000
0000
0010
0000
0000
0100
,
0000
0000
1000
0000
0000
1000
0000
0000
,
0001
0000
0000
0010
0000
0000
0100
0000
,
0000
1000
0000
0000
0010
0000
0000
0100
,
0001
0000
0001
0000
,
0010
0000
1000
0000
,
0001
0000
0001
0000
,
0100
0000
1000
0000
,
0001
0000
1000
0010
0100
0000
0100
0000
,
1001
0000
0010
0001
0010
0000
0100
0000
,
1000
0000
0001
1000
0010
0000
0010
1000
,
0001
0100
0100
1010
,
1010
0000
1000
0001
0100
0000
1001
0000
,
0100
0000
1000
0001
0010
0000
1001
0000
,
0100
0000
0001
0010
0100
0000
1000
0010
,
0100
0100
0000
0100
,
0000
0000
0001
0010
0000
0000
0100
0000
,
1000
0000
1000
0010
0000
0000
0100
0000
,
0001
0000
0001
0010
0000
0000
0100
0000
,
1000
0000
1000
0010
0000
0000
0100
0000
,
0001
0000
0001
0010
0100
0000
0100
0000
,
1001
0000
1000
0010
0100
0000
0100
0000
,
1001
0000
0001
0100
1000
0000
1000
0010
,
0001
0000
1000
0001
0100
1000
0001
0000
,
0001
0100
1000
0000
1010
0000
1000
0000
,
1000
0001
0011
0001
,
0001
1000
1100
1000
,
1000
0001
0101
0001
,
0001
1000
1010
2000
,
3000
0001
0011
0002
,
0003
1000
1100
2000
,
3000
0001
0101
0002
,
0003
1000
0010
0000
,
0000
1000
0100
0000
,
0000
0001
0010
0000
,
0000
0001
0100
0000
,
0000
1000
2000
3000
,
1000
0000
1000
0000
,
0000
0001
0002
0003
,
0001
0000
0000
0000
0001
0000
0000
0020
,
0000
0000
0000
0030
0000
0000
0000
0000
0000
0000
0000
0000
0000
0000
0000
0000
;

//---------------dance-single - HEAVY----------------
#NOTES:
     dance-single:
     HEAVY:
     Hard:
     7:
     0.408,0.519,0.149,0.084,0.117:
0000
0000
0000
0000
,
0000
0000
0000
0000
,
0000
0000
0000
0000
,
0000
0000
0000
0000
,
0001
0000
1000
0000
0001
1000
0100
0000
,
1000
0000
0001
0000
1000
0001
0100
0000
,
0001
0000
1000
0000
0001
1000
0010
0000
,
1000
0000
0001
0000
1000
0001
0010
0000
,
1001
0100
0001
0000
0001
0010
1000
0000
,
1001
0010
1000
0000
1000
0100
0001
0000
,
1001
0100
0001
0000
0001
0010
1000
0000
,
0001
0010
0001
0100
1000
0100
0001
0010
,
1001
0100
1000
0000
1000
0100
0001
0000
,
1001
0010
0001
0000
0001
0010
1000
0000
,
1001
0100
0001
0000
1000
0010
0001
0000
,
1000
0010
0001
0100
0001
0100
1000
0000
,
0001
0010
0000
0001
0000
0000
0000
0000
0001
0000
1000
0000
0001
0000
0000
0000
,
0001
0010
0000
0001
0000
0000
0000
0000
0001
0000
0010
0000
0001
0000
0000
0000
,
1000
0010
0000
1000
0000
0000
0000
0000
1000
0000
0001
0000
1000
0000
0000
0000
,
1000
0010
0000
1000
0000
0000
0000
0000
1000
0000
0010
0000
1000
0000
0000
0000
,
0001
1000
0000
0001
0000
0000
0000
0000
0001
0000
0010
0000
0001
0000
0000
0000
,
0001
1000
0000
0001
0000
0000
0000
0000
0001
0000
0100
0000
0001
0000
0000
0000
,
1000
0010
0000
1000
0000
0000
0000
0000
1000
0000
0001
0000
1000
0000
0000
0000
,
1000
0010
0001
0010
1000
0001
1000
0100
,
0001
0000
0010
0000
0001
0000
0010
1000
,
0010
0000
0100
0000
0100
0000
0001
1000
,
0200
0010
1000
0310
,
0100
0100
1001
1001
,
0001
0000
1000
0000
0001
0000
0100
1000
,
0000
1000
0000
0100
0000
0001
0000
0010
,
0100
1010
0200
1000
,
0310
0000
0001
0100
1000
0000
0020
0000
,
1030
0000
0000
0000
1000
0000
0000
0000
0000
0010
0000
0000
0000
0010
0000
0000
0000
0000
1000
0000
0000
0000
1000
0000
,
0000
0000
0000
0010
0000
0000
0000
0010
0000
0000
0000
0000
0100
0000
0000
0000
0100
0000
0000
0000
0000
0001
0000
0000
,
0000
0001
0000
0000
0000
0000
0010
0000
0000
0000
0010
0000
0000
0000
0000
0001
0000
0000
0000
0001
0000
0000
0000
0000
,
0010
0000
0000
0000
0010
0000
0000
0000
0000
0100
0000
0000
0000
0100
0000
0000
0000
0000
1000
0000
0000
0000
1000
0000
,
0000
0000
0000
0001
0000
0000
0000
0010
0000
0000
0000
0000
0010
0000
0000
0000
0100
0000
0000
0000
0000
0100
0000
0000
,
0000
1000
0000
0000
0000
0000
1000
0000
0000
0000
1000
0000
0000
0000
0000
0010
0000
0000
0000
1000
0000
0000
0000
0000
,
1000
0000
0000
0000
0010
0000
0000
0000
0000
0010
0000
0000
0000
0100
0000
0000
0000
0000
0100
0000
0000
0000
0001
0000
,
0000
0000
0000
0001
0000
0000
0000
0001
0000
0000
0000
0000
0010
0000
0000
0000
0100
0000
0000
1000
0000
0000
0000
0000
,
2001
3010
0002
0103
,
2000
3100
0002
0013
,
2000
3010
0002
0103
,
2000
0000
3002
0000
,
0003
0000
1000
0010
0100
1000
0100
0001
,
0001
0000
0010
0001
0010
0100
1000
0010
,
0010
0000
0001
1000
0010
0001
0010
1000
,
0001
0000
0100
0010
0100
0001
1000
0100
,
0100
0000
1000
0001
0100
0010
1000
0100
,
0001
0100
1000
0010
0001
0100
1000
0100
,
0001
0010
1000
0010
0100
1000
0100
0001
,
0010
0100
2000
0000
3000
1000
0002
0000
,
0003
0001
1001
0010
0100
1000
0001
0010
,
0100
1000
1000
0100
0010
0001
1000
0100
,
0010
0001
0001
0010
0100
1000
0001
0010
,
0100
1000
1000
0100
0010
0001
1000
0100
,
0010
0001
1001
1000
0100
0010
0001
0100
,
0010
0100
1001
0010
1000
0010
0100
1000
,
0010
0100
1001
0100
1000
0010
1001
0010
,
0001
0100
1010
0001
0100
1010
1001
0000
,
0001
0100
1001
0000
1000
0010
1000
0010
,
1000
0000
0001
0000
0001
0010
0001
0010
,
0001
0000
1000
0000
1000
0100
1000
0000
,
1001
0000
0001
0000
0001
0100
0001
0000
,
1001
0000
1000
0010
0100
0000
0100
0000
,
1010
0000
0001
0010
0100
0000
0100
0000
,
0011
0000
1000
0100
0001
0010
1000
0100
,
0001
0000
0001
0100
1000
0010
0001
0100
,
1000
0000
1000
0000
0000
0010
0000
0000
,
1000
1000
0100
1000
,
1000
0000
0001
0000
0000
0010
0000
0000
,
0001
0001
0100
0001
,
0001
1000
0000
1000
,
0000
1000
0000
1000
,
0000
0001
0000
0001
,
0000
0000
0001
0000
0000
0000
0001
0010
,
0100
1000
0000
0000
0000
0000
0000
0000
;

//---------------dance-single - ONI----------------
#NOTES:
     dance-single:
     ONI:
     Challenge:
     10:
     0.668,0.866,0.539,0.032,0.545: // measure 1
0000
0000
0000
0000
,  // measure 2
0000
0000
0000
0000
,  // measure 3
0000
0000
0000
0000
,  // measure 4
0000
0000
0000
0000
,  // measure 5
1001
0000
1001
0000
1000
1000
1000
0000
,  // measure 6
1001
0000
1001
0000
0001
0001
0001
0000
,  // measure 7
1001
0000
1001
0000
1000
1000
1000
0000
,  // measure 8
1001
0000
1001
0000
0001
0001
0001
0000
,  // measure 9
1001
0100
1001
0000
0001
0010
1000
0000
,  // measure 10
1001
0010
1001
0000
1000
0100
0001
0000
,  // measure 11
1001
0000
0100
0000
1001
0000
0000
0000
0001
0000
0010
0000
1000
0000
1000
0100
,  // measure 12
1000
0010
0100
1000
0100
0001
0100
0010
1000
0000
0100
0000
0001
0000
0010
0000
,  // measure 13
1001
0100
1001
0000
1000
0100
0001
0000
,  // measure 14
1001
0010
1001
0000
0001
0010
1000
0000
,  // measure 15
1001
0000
0100
0000
1001
0000
0000
0000
1000
0000
0010
0000
0001
0000
1000
0010
,  // measure 16
1000
0000
0001
0010
0001
0000
1000
0100
1000
0000
0001
0100
0001
0010
0100
1000
,  // measure 17
0001
0010
0000
0001
0000
0000
0010
0000
0001
0000
1000
0000
0001
0000
0100
0000
,  // measure 18
0001
0010
0000
0001
0000
0000
1000
0000
0001
0000
0010
0000
0001
0000
1001
0000
,  // measure 19
1000
0010
0000
1000
0000
0000
0010
0000
1000
0000
0001
0000
1000
0000
0100
0000
,  // measure 20
1000
0010
0000
1000
0000
0000
0100
0000
1000
0000
0010
0000
1000
0000
1001
0000
,  // measure 21
0001
1000
0000
0001
0000
0000
0100
0000
0001
0000
0010
0000
0001
0000
0100
0000
,  // measure 22
0001
1000
0000
0001
0000
0000
0010
0000
0001
0000
0100
0000
0001
0000
1001
0000
,  // measure 23
1000
0010
0000
1000
0000
0000
0100
0000
1000
0000
0001
0000
1000
0000
0010
0000
,  // measure 24
1000
0000
0110
0000
1001
0000
0010
0100
0000
1000
0001
0000
1000
0100
0010
0001
,  // measure 25
1001
0000
0020
0000
0100
0000
0100
1000
,  // measure 26
0031
0000
0110
0000
1001
0000
0001
1000
,  // measure 27
0100
0020
1000
0001
,  // measure 28
1030
0000
0100
0000
0001
0000
0000
1000
0100
0000
0000
0010
0001
0000
1000
0100
,  // measure 29
1001
0000
0020
0000
0001
0000
0100
1000
,  // measure 30
0030
1001
0000
0110
0000
1001
0000
0010
,  // measure 31
0100
1020
0001
1000
,  // measure 32
0100
0000
0000
0000
0031
0000
0100
0001
1000
0000
0000
0000
0020
0000
0000
0000
,  // measure 33
1030
0000
0000
1000
0100
0000
0010
0000
1001
0000
0000
0001
0100
0000
0000
0010
,  // measure 34
1000
0000
1001
0000
0100
0100
0100
0000
,  // measure 35
0001
0000
0000
0010
0100
0000
0000
0000
1100
0000
0000
0000
1001
0000
0000
0010
,  // measure 36
0100
0000
0000
0000
1001
0000
0000
1000
0100
0000
0000
0001
0010
0000
0001
1000
,  // measure 37
1001
0000
1000
0000
0010
0000
0001
0010
,  // measure 38
1000
0100
0010
0100
1000
0100
0001
0100
,  // measure 39
1001
0000
0000
1000
0100
0000
0000
0000
0010
0000
0001
0000
0100
0000
0010
0000
,  // measure 40
1001
0000
0010
0000
1100
0000
1000
0010
0100
0000
0000
0010
0100
0000
0010
0100
,  // measure 41
1001
0100
1000
0100
1000
0100
1000
0100
,  // measure 42
1001
0010
0001
0010
0001
0010
0001
0010
,  // measure 43
1001
0100
1000
0100
1000
0100
1000
0100
,  // measure 44
1001
0000
0000
0000
0001
0000
0000
0000
0010
0000
0000
0000
0100
1000
0010
0100
0001
0010
1000
0010
0001
0100
0010
1000
0100
0010
0100
1000
0010
0100
0001
1000
,  // measure 45
1001
0000
0000
0000
1001
0000
1000
0010
0100
0001
0010
0001
0100
0000
0010
1000
,  // measure 46
0100
0010
0100
1000
0001
0000
0100
0010
1000
0010
0100
0001
0010
0000
0100
1000
,  // measure 47
0100
0010
0001
1000
0100
0000
1000
0100
0001
0100
1000
0010
0100
0000
0001
0100
,  // measure 48
0010
1000
0010
0100
0001
0000
0010
0100
0010
0001
0100
0010
1000
0000
0010
0001
,  // measure 49
0010
1000
0100
0010
0100
0000
1000
0100
0010
0001
0010
0100
0010
0000
0001
0100
,  // measure 50
1000
0100
0001
0010
0001
0000
0100
0010
0001
0010
1000
0100
0010
0000
0001
0010
,  // measure 51
0100
1000
0100
0001
0100
0000
1000
0010
0100
0001
0010
1000
0010
0000
0001
0010
,  // measure 52
0100
1000
0100
0010
0001
0010
1000
0010
0001
0000
1001
0000
1000
0010
0001
0010
,  // measure 53
1000
1001
1001
0010
0110
1000
1001
0010
,  // measure 54
0110
1000
1001
0100
0110
0001
1001
0100
,  // measure 55
0110
0001
1001
0010
0110
1000
1001
0010
,  // measure 56
0110
1000
1001
0100
0110
0001
1001
0100
,  // measure 57
0110
0000
0001
0000
1001
0000
1000
0010
0100
0000
0110
0000
1001
0000
0100
0001
,  // measure 58
0010
0000
0100
0000
1001
0000
0010
0100
1000
0000
0010
0000
1001
0000
1000
0001
,  // measure 59
0100
0000
0010
0000
1001
0000
0001
1000
0100
0000
0010
0000
1001
0000
0010
1000
,  // measure 60
0001
0000
0110
0000
1001
1000
0000
0100
0100
0000
0010
0010
0000
0001
0001
0000
,  // measure 61
1000
0000
1000
0000
0001
1000
0001
1000
0001
0000
1000
0000
0010
0000
0100
0000
0001
0000
0010
0000
0100
0000
0010
0000
0001
0000
1000
0000
0100
0000
0010
0000
,  // measure 62
0100
1000
0001
0010
0001
0010
0100
1000
0001
0010
0100
1000
0100
0010
0100
1000
,  // measure 63
0001
1000
0010
0100
0001
0000
0010
0000
0100
0000
1000
0000
1000
0000
0000
0100
,  // measure 64
1001
0000
1000
0010
0100
0001
0010
0100
0010
0000
0001
0000
0001
0000
1000
0010
,  // measure 65
0100
0001
0010
0100
1000
0001
0010
0100
1000
0010
0100
0010
1000
0001
0100
0010
,  // measure 66
0100
0001
1000
0010
1000
0010
0100
0001
1000
0010
0100
0001
0000
0001
0100
0010
,  // measure 67
0000
0000
0010
0100
0001
0000
0001
0000
0010
0000
0100
0000
1000
0000
0000
0100
,  // measure 68
1001
0000
0001
0100
0010
1000
0010
0001
0010
0000
1000
0000
0100
0000
1000
0001
,  // measure 69
0010
0100
1000
0001
1001
0000
0100
0000
1000
0000
0010
0000
0000
0000
0100
0000
,  // measure 70
1000
0000
1100
0000
1001
0000
1000
0010
,  // measure 71
1000
0000
0010
0010
0000
0010
0001
0000
,  // measure 72
0011
0000
0001
0010
0100
0000
1001
0000
,  // measure 73
1001
0001
0010
0100
,  // measure 74
1000
1000
0010
0100
,  // measure 75
0001
0000
0100
0000
0000
0100
0000
0000
,  // measure 76
0100
0000
0000
0000
0001
0000
0000
0000
1000
0000
0010
0000
0100
0000
0100
1000
,  // measure 77
0001
0010
1000
0001
0000
0000
0000
0000
0000
0000
0000
0000
0000
0000
0000
0000
;
